  0
SECTION
  2
HEADER
  9
$ACADVER
  1
AC1027
  9
$ACADMAINTVER
 70
     8
  9
$DWGCODEPAGE
  3
ANSI_1252
  9
$LASTSAVEDBY
  1
ckennedy
  9
$REQUIREDVERSIONS
160
                 0
  9
$INSBASE
 10
0.0
 20
0.0
 30
0.0
  9
$EXTMIN
 10
16.77373937165943
 20
2.023351694998948
 30
0.0
  9
$EXTMAX
 10
28.84819585092157
 20
14.1627387152198
 30
0.0
  9
$LIMMIN
 10
0.0
 20
0.0
  9
$LIMMAX
 10
204.0
 20
264.0
  9
$ORTHOMODE
 70
     1
  9
$REGENMODE
 70
     1
  9
$FILLMODE
 70
     1
  9
$QTEXTMODE
 70
     0
  9
$MIRRTEXT
 70
     1
  9
$LTSCALE
 40
0.5
  9
$ATTMODE
 70
     1
  9
$TEXTSIZE
 40
2.52
  9
$TRACEWID
 40
0.05
  9
$TEXTSTYLE
  7
STANDARD
  9
$CLAYER
  8
0
  9
$CELTYPE
  6
ByLayer
  9
$CECOLOR
 62
   256
  9
$CELTSCALE
 40
1.0
  9
$DISPSILH
 70
     0
  9
$DIMSCALE
 40
1.0
  9
$DIMASZ
 40
0.125
  9
$DIMEXO
 40
0.25
  9
$DIMDLI
 40
0.38
  9
$DIMRND
 40
0.0
  9
$DIMDLE
 40
0.0
  9
$DIMEXE
 40
0.18
  9
$DIMTP
 40
0.0
  9
$DIMTM
 40
0.0
  9
$DIMTXT
 40
0.125
  9
$DIMCEN
 40
0.09
  9
$DIMTSZ
 40
0.0
  9
$DIMTOL
 70
     0
  9
$DIMLIM
 70
     0
  9
$DIMTIH
 70
     1
  9
$DIMTOH
 70
     1
  9
$DIMSE1
 70
     0
  9
$DIMSE2
 70
     0
  9
$DIMTAD
 70
     0
  9
$DIMZIN
 70
     0
  9
$DIMBLK
  1

  9
$DIMASO
 70
     1
  9
$DIMSHO
 70
     1
  9
$DIMPOST
  1
\X
  9
$DIMAPOST
  1

  9
$DIMALT
 70
     1
  9
$DIMALTD
 70
     0
  9
$DIMALTF
 40
25.4
  9
$DIMLFAC
 40
1.0
  9
$DIMTOFL
 70
     0
  9
$DIMTVP
 40
0.0
  9
$DIMTIX
 70
     0
  9
$DIMSOXD
 70
     0
  9
$DIMSAH
 70
     0
  9
$DIMBLK1
  1

  9
$DIMBLK2
  1

  9
$DIMSTYLE
  2
DWG.125
  9
$DIMCLRD
 70
   256
  9
$DIMCLRE
 70
   256
  9
$DIMCLRT
 70
   256
  9
$DIMTFAC
 40
1.0
  9
$DIMGAP
 40
0.09
  9
$DIMJUST
 70
     0
  9
$DIMSD1
 70
     0
  9
$DIMSD2
 70
     0
  9
$DIMTOLJ
 70
     1
  9
$DIMTZIN
 70
     0
  9
$DIMALTZ
 70
     0
  9
$DIMALTTZ
 70
     0
  9
$DIMUPT
 70
     0
  9
$DIMDEC
 70
     4
  9
$DIMTDEC
 70
     4
  9
$DIMALTU
 70
     2
  9
$DIMALTTD
 70
     0
  9
$DIMTXSTY
  7
ARIAL
  9
$DIMAUNIT
 70
     0
  9
$DIMADEC
 70
     0
  9
$DIMALTRND
 40
0.0
  9
$DIMAZIN
 70
     0
  9
$DIMDSEP
 70
    46
  9
$DIMATFIT
 70
     2
  9
$DIMFRAC
 70
     1
  9
$DIMLDRBLK
  1

  9
$DIMLUNIT
 70
     4
  9
$DIMLWD
 70
    -2
  9
$DIMLWE
 70
    -2
  9
$DIMTMOVE
 70
     0
  9
$DIMFXL
 40
1.0
  9
$DIMFXLON
 70
     0
  9
$DIMJOGANG
 40
0.7853981633974483
  9
$DIMTFILL
 70
     0
  9
$DIMTFILLCLR
 70
     0
  9
$DIMARCSYM
 70
     0
  9
$DIMLTYPE
  6
ByLayer
  9
$DIMLTEX1
  6

  9
$DIMLTEX2
  6

  9
$DIMTXTDIRECTION
 70
     0
  9
$LUNITS
 70
     2
  9
$LUPREC
 70
     2
  9
$SKETCHINC
 40
0.1
  9
$FILLETRAD
 40
0.0
  9
$AUNITS
 70
     0
  9
$AUPREC
 70
     2
  9
$MENU
  1
C:\STRIKER/ssdesign/ssdesign
  9
$ELEVATION
 40
0.0
  9
$PELEVATION
 40
0.0
  9
$THICKNESS
 40
0.0
  9
$LIMCHECK
 70
     0
  9
$CHAMFERA
 40
0.0
  9
$CHAMFERB
 40
0.0
  9
$CHAMFERC
 40
0.0
  9
$CHAMFERD
 40
0.0
  9
$SKPOLY
 70
     0
  9
$TDCREATE
 40
2450849.453275347
  9
$TDUCREATE
 40
2450849.619942014
  9
$TDUPDATE
 40
2457625.523189908
  9
$TDUUPDATE
 40
2457625.689856574
  9
$TDINDWG
 40
0.0925943403
  9
$TDUSRTIMER
 40
0.0925943403
  9
$USRTIMER
 70
     1
  9
$ANGBASE
 50
0.0
  9
$ANGDIR
 70
     0
  9
$PDMODE
 70
     0
  9
$PDSIZE
 40
0.0
  9
$PLINEWID
 40
0.0
  9
$SPLFRAME
 70
     0
  9
$SPLINETYPE
 70
     6
  9
$SPLINESEGS
 70
     8
  9
$HANDSEED
  5
59991
  9
$SURFTAB1
 70
     6
  9
$SURFTAB2
 70
     6
  9
$SURFTYPE
 70
     6
  9
$SURFU
 70
     6
  9
$SURFV
 70
     6
  9
$UCSBASE
  2

  9
$UCSNAME
  2

  9
$UCSORG
 10
0.0
 20
0.0
 30
0.0
  9
$UCSXDIR
 10
1.0
 20
0.0
 30
0.0
  9
$UCSYDIR
 10
0.0
 20
1.0
 30
0.0
  9
$UCSORTHOREF
  2

  9
$UCSORTHOVIEW
 70
     0
  9
$UCSORGTOP
 10
0.0
 20
0.0
 30
0.0
  9
$UCSORGBOTTOM
 10
0.0
 20
0.0
 30
0.0
  9
$UCSORGLEFT
 10
0.0
 20
0.0
 30
0.0
  9
$UCSORGRIGHT
 10
0.0
 20
0.0
 30
0.0
  9
$UCSORGFRONT
 10
0.0
 20
0.0
 30
0.0
  9
$UCSORGBACK
 10
0.0
 20
0.0
 30
0.0
  9
$PUCSBASE
  2

  9
$PUCSNAME
  2

  9
$PUCSORG
 10
0.0
 20
0.0
 30
0.0
  9
$PUCSXDIR
 10
1.0
 20
0.0
 30
0.0
  9
$PUCSYDIR
 10
0.0
 20
1.0
 30
0.0
  9
$PUCSORTHOREF
  2

  9
$PUCSORTHOVIEW
 70
     0
  9
$PUCSORGTOP
 10
0.0
 20
0.0
 30
0.0
  9
$PUCSORGBOTTOM
 10
0.0
 20
0.0
 30
0.0
  9
$PUCSORGLEFT
 10
0.0
 20
0.0
 30
0.0
  9
$PUCSORGRIGHT
 10
0.0
 20
0.0
 30
0.0
  9
$PUCSORGFRONT
 10
0.0
 20
0.0
 30
0.0
  9
$PUCSORGBACK
 10
0.0
 20
0.0
 30
0.0
  9
$USERI1
 70
     0
  9
$USERI2
 70
     0
  9
$USERI3
 70
     0
  9
$USERI4
 70
     0
  9
$USERI5
 70
     0
  9
$USERR1
 40
0.0
  9
$USERR2
 40
0.0
  9
$USERR3
 40
0.0
  9
$USERR4
 40
0.0
  9
$USERR5
 40
0.0
  9
$WORLDVIEW
 70
     1
  9
$SHADEDGE
 70
     3
  9
$SHADEDIF
 70
    70
  9
$TILEMODE
 70
     1
  9
$MAXACTVP
 70
    16
  9
$PINSBASE
 10
0.0
 20
0.0
 30
0.0
  9
$PLIMCHECK
 70
     0
  9
$PEXTMIN
 10
-0.0003661829982491
 20
-0.0002746372486868
 30
-0.0015258207003583
  9
$PEXTMAX
 10
10.5007324480693
 20
8.000518818619333
 30
0.0000000349246037
  9
$PLIMMIN
 10
-0.1963586236073898
 20
-0.2085697602539528
  9
$PLIMMAX
 10
10.69672553935116
 20
8.208813402495769
  9
$UNITMODE
 70
     0
  9
$VISRETAIN
 70
     0
  9
$PLINEGEN
 70
     0
  9
$PSLTSCALE
 70
     1
  9
$TREEDEPTH
 70
  3020
  9
$CMLSTYLE
  2
Standard
  9
$CMLJUST
 70
     0
  9
$CMLSCALE
 40
1.0
  9
$PROXYGRAPHICS
 70
     1
  9
$MEASUREMENT
 70
     0
  9
$CELWEIGHT
370
    -1
  9
$ENDCAPS
280
     0
  9
$JOINSTYLE
280
     0
  9
$LWDISPLAY
290
     0
  9
$INSUNITS
 70
     0
  9
$HYPERLINKBASE
  1

  9
$STYLESHEET
  1

  9
$XEDIT
290
     1
  9
$CEPSNTYPE
380
     0
  9
$PSTYLEMODE
290
     1
  9
$FINGERPRINTGUID
  2
{4BC28966-C51F-4CDD-8810-E267E52ABB16}
  9
$VERSIONGUID
  2
{18155057-60C4-11DE-9C74-00B0D05A774E}
  9
$EXTNAMES
290
     1
  9
$PSVPSCALE
 40
0.0
  9
$OLESTARTUP
290
     0
  9
$SORTENTS
280
   127
  9
$INDEXCTL
280
     0
  9
$HIDETEXT
280
     1
  9
$XCLIPFRAME
280
     2
  9
$HALOGAP
280
     0
  9
$OBSCOLOR
 70
   257
  9
$OBSLTYPE
280
     0
  9
$INTERSECTIONDISPLAY
280
     0
  9
$INTERSECTIONCOLOR
 70
   257
  9
$DIMASSOC
280
     2
  9
$PROJECTNAME
  1

  9
$CAMERADISPLAY
290
     0
  9
$LENSLENGTH
 40
50.0
  9
$CAMERAHEIGHT
 40
0.0
  9
$STEPSPERSEC
 40
2.0
  9
$STEPSIZE
 40
6.0
  9
$3DDWFPREC
 40
2.0
  9
$PSOLWIDTH
 40
0.25
  9
$PSOLHEIGHT
 40
4.0
  9
$LOFTANG1
 40
1.570796326794896
  9
$LOFTANG2
 40
1.570796326794896
  9
$LOFTMAG1
 40
0.0
  9
$LOFTMAG2
 40
0.0
  9
$LOFTPARAM
 70
     7
  9
$LOFTNORMALS
280
     1
  9
$LATITUDE
 40
37.795
  9
$LONGITUDE
 40
-122.394
  9
$NORTHDIRECTION
 40
0.0
  9
$TIMEZONE
 70
 -8000
  9
$LIGHTGLYPHDISPLAY
280
     1
  9
$TILEMODELIGHTSYNCH
280
     1
  9
$CMATERIAL
347
59053
  9
$SOLIDHIST
280
     0
  9
$SHOWHIST
280
     1
  9
$DWFFRAME
280
     2
  9
$DGNFRAME
280
     0
  9
$REALWORLDSCALE
290
     1
  9
$INTERFERECOLOR
 62
     1
  9
$INTERFEREOBJVS
345
5924B
  9
$INTERFEREVPVS
346
5993C
  9
$CSHADOW
280
     0
  9
$SHADOWPLANELOCATION
 40
0.0
  0
ENDSEC
  0
SECTION
  2
CLASSES
  0
CLASS
  1
ACDBDICTIONARYWDFLT
  2
AcDbDictionaryWithDefault
  3
ObjectDBX Classes
 90
        0
 91
        1
280
     0
281
     0
  0
CLASS
  1
TABLESTYLE
  2
AcDbTableStyle
  3
ObjectDBX Classes
 90
     4095
 91
        1
280
     0
281
     0
  0
CLASS
  1
DICTIONARYVAR
  2
AcDbDictionaryVar
  3
ObjectDBX Classes
 90
        0
 91
       14
280
     0
281
     0
  0
CLASS
  1
MATERIAL
  2
AcDbMaterial
  3
ObjectDBX Classes
 90
     1153
 91
        3
280
     0
281
     0
  0
CLASS
  1
VISUALSTYLE
  2
AcDbVisualStyle
  3
ObjectDBX Classes
 90
     4095
 91
       26
280
     0
281
     0
  0
CLASS
  1
ACAD_EVALUATION_GRAPH
  2
AcDbEvalGraph
  3
ObjectDBX Classes
 90
     1153
 91
        3
280
     0
281
     0
  0
CLASS
  1
BLOCKPOINTPARAMETER
  2
AcDbBlockPointParameter
  3
ObjectDBX Classes
 90
     1153
 91
        3
280
     0
281
     0
  0
CLASS
  1
BLOCKXYGRIP
  2
AcDbBlockXYGrip
  3
ObjectDBX Classes
 90
     1153
 91
        3
280
     0
281
     0
  0
CLASS
  1
BLOCKGRIPLOCATIONCOMPONENT
  2
AcDbBlockGripExpr
  3
ObjectDBX Classes
 90
     1153
 91
        6
280
     0
281
     0
  0
CLASS
  1
BLOCKMOVEACTION
  2
AcDbBlockMoveAction
  3
ObjectDBX Classes
 90
     1153
 91
        3
280
     0
281
     0
  0
CLASS
  1
SORTENTSTABLE
  2
AcDbSortentsTable
  3
ObjectDBX Classes
 90
        0
 91
        7
280
     0
281
     0
  0
CLASS
  1
ACDB_DYNAMICBLOCKPURGEPREVENTER_VERSION
  2
AcDbDynamicBlockPurgePreventer
  3
ObjectDBX Classes
 90
     1153
 91
        3
280
     0
281
     0
  0
CLASS
  1
PLOTSETTINGS
  2
AcDbPlotSettings
  3
ObjectDBX Classes
 90
        0
 91
        1
280
     0
281
     0
  0
CLASS
  1
DIMASSOC
  2
AcDbDimAssoc
  3
"AcDbDimAssoc|Product Desc:     AcDim ARX App For Dimension|Company:          Autodesk, Inc.|WEB Address:      www.autodesk.com"
 90
        0
 91
       14
280
     0
281
     0
  0
CLASS
  1
SCALE
  2
AcDbScale
  3
ObjectDBX Classes
 90
     1153
 91
       17
280
     0
281
     0
  0
CLASS
  1
MLEADERSTYLE
  2
AcDbMLeaderStyle
  3
ACDB_MLEADERSTYLE_CLASS
 90
     4095
 91
        1
280
     0
281
     0
  0
CLASS
  1
ACDBSECTIONVIEWSTYLE
  2
AcDbSectionViewStyle
  3
ObjectDBX Classes
 90
     1025
 91
        1
280
     0
281
     0
  0
CLASS
  1
ACDBDETAILVIEWSTYLE
  2
AcDbDetailViewStyle
  3
ObjectDBX Classes
 90
     1025
 91
        1
280
     0
281
     0
  0
CLASS
  1
CELLSTYLEMAP
  2
AcDbCellStyleMap
  3
ObjectDBX Classes
 90
     1152
 91
        1
280
     0
281
     0
  0
ENDSEC
  0
SECTION
  2
TABLES
  0
TABLE
  2
VPORT
  5
59014
102
{ACAD_XDICTIONARY
360
598B7
102
}
330
0
100
AcDbSymbolTable
 70
     1
  0
VPORT
  5
5993A
330
59014
100
AcDbSymbolTableRecord
100
AcDbViewportTableRecord
  2
*Active
 70
     0
 10
0.0
 20
0.0
 11
1.0
 21
1.0
 12
22.80276527535489
 22
9.828145799515468
 13
0.0
 23
0.0
 14
1.0
 24
1.0
 15
0.0
 25
0.0
 16
0.0
 26
0.0
 36
1.0
 17
0.0
 27
0.0
 37
0.0
 40
13.50579450015219
 41
1.632653061224489
 42
50.0
 43
0.0
 44
0.0
 50
0.0
 51
0.0
 71
     0
 72
 10000
 73
     1
 74
     1
 75
     0
 76
     0
 77
     0
 78
     0
281
     0
 65
     1
110
0.0
120
0.0
130
0.0
111
1.0
121
0.0
131
0.0
112
0.0
122
1.0
132
0.0
 79
     0
146
0.0
348
5905C
 60
     3
 61
     5
292
     1
282
     1
141
0.0
142
0.0
 63
   250
421
  3355443
1001
ACAD_NAV_VCDISPLAY
1070
     3
  0
ENDTAB
  0
TABLE
  2
LTYPE
  5
59011
330
0
100
AcDbSymbolTable
 70
    12
  0
LTYPE
  5
5901F
330
59011
100
AcDbSymbolTableRecord
100
AcDbLinetypeTableRecord
  2
ByBlock
 70
     0
  3

 72
    65
 73
     0
 40
0.0
  0
LTYPE
  5
59020
330
59011
100
AcDbSymbolTableRecord
100
AcDbLinetypeTableRecord
  2
ByLayer
 70
     0
  3

 72
    65
 73
     0
 40
0.0
  0
LTYPE
  5
59021
330
59011
100
AcDbSymbolTableRecord
100
AcDbLinetypeTableRecord
  2
CONTINUOUS
 70
     0
  3
Solid line
 72
    65
 73
     0
 40
0.0
  0
LTYPE
  5
59211
330
59011
100
AcDbSymbolTableRecord
100
AcDbLinetypeTableRecord
  2
CENTER2
 70
     0
  3
Center (.5x) ___ _ ___ _ ___ _ ___ _ ___ _ ___
 72
    65
 73
     4
 40
1.125
 49
0.75
 74
     0
 49
-0.125
 74
     0
 49
0.125
 74
     0
 49
-0.125
 74
     0
  0
LTYPE
  5
59212
330
59011
100
AcDbSymbolTableRecord
100
AcDbLinetypeTableRecord
  2
ACAD_ISO06W100
 70
     0
  3
ISO long-dash triple-dot ____ ... ____ ... ____
 72
    65
 73
     8
 40
36.0
 49
24.0
 74
     0
 49
-3.0
 74
     0
 49
0.0
 74
     0
 49
-3.0
 74
     0
 49
0.0
 74
     0
 49
-3.0
 74
     0
 49
0.0
 74
     0
 49
-3.0
 74
     0
  0
LTYPE
  5
59213
330
59011
100
AcDbSymbolTableRecord
100
AcDbLinetypeTableRecord
  2
DASHED2
 70
     0
  3
Dashed (.5x) _ _ _ _ _ _ _ _ _ _ _ _ _ _ _ _ _
 72
    65
 73
     2
 40
0.375
 49
0.25
 74
     0
 49
-0.125
 74
     0
  0
LTYPE
  5
59214
330
59011
100
AcDbSymbolTableRecord
100
AcDbLinetypeTableRecord
  2
ACAD_ISO10W100
 70
     0
  3
ISO dash dot __ . __ . __ . __ . __ . __ . __ .
 72
    65
 73
     4
 40
18.0
 49
12.0
 74
     0
 49
-3.0
 74
     0
 49
0.0
 74
     0
 49
-3.0
 74
     0
  0
LTYPE
  5
59215
330
59011
100
AcDbSymbolTableRecord
100
AcDbLinetypeTableRecord
  2
ACAD_ISO02W100
 70
     0
  3
ISO dash __ __ __ __ __ __ __ __ __ __ __ __ __
 72
    65
 73
     2
 40
15.0
 49
12.0
 74
     0
 49
-3.0
 74
     0
  0
LTYPE
  5
59216
330
59011
100
AcDbSymbolTableRecord
100
AcDbLinetypeTableRecord
  2
HIDDEN
 70
     0
  3
Hidden __ __ __ __ __ __ __ __ __ __ __ __ __ __
 72
    65
 73
     2
 40
0.375
 49
0.25
 74
     0
 49
-0.125
 74
     0
  0
LTYPE
  5
59217
330
59011
100
AcDbSymbolTableRecord
100
AcDbLinetypeTableRecord
  2
CENTER
 70
     0
  3
Center ____ _ ____ _ ____ _ ____ _ ____ _ ____
 72
    65
 73
     4
 40
2.0
 49
1.25
 74
     0
 49
-0.25
 74
     0
 49
0.25
 74
     0
 49
-0.25
 74
     0
  0
LTYPE
  5
59218
330
59011
100
AcDbSymbolTableRecord
100
AcDbLinetypeTableRecord
  2
CENTERX2
 70
     0
  3
Center (2x) ________  __  ________  __  _____
 72
    65
 73
     4
 40
4.0
 49
2.5
 74
     0
 49
-0.5
 74
     0
 49
0.5
 74
     0
 49
-0.5
 74
     0
  0
LTYPE
  5
59219
330
59011
100
AcDbSymbolTableRecord
100
AcDbLinetypeTableRecord
  2
HIDDEN2
 70
     0
  3
Hidden (.5x) _ _ _ _ _ _ _ _ _ _ _ _ _ _ _ _ _
 72
    65
 73
     2
 40
0.1875
 49
0.125
 74
     0
 49
-0.0625
 74
     0
  0
LTYPE
  5
5921A
330
59011
100
AcDbSymbolTableRecord
100
AcDbLinetypeTableRecord
  2
HIDDENX2
 70
     0
  3
Hidden (2x) ____ ____ ____ ____ ____ ____ ____
 72
    65
 73
     2
 40
0.75
 49
0.5
 74
     0
 49
-0.25
 74
     0
  0
LTYPE
  5
5995B
330
59011
100
AcDbSymbolTableRecord
100
AcDbLinetypeTableRecord
  2
PHANTOM2
 70
     0
  3
___ _ _ ___ _ _ ___ _ _ ___ _ _
 72
    65
 73
     6
 40
1.25
 49
0.625
 74
     0
 49
-0.125
 74
     0
 49
0.125
 74
     0
 49
-0.125
 74
     0
 49
0.125
 74
     0
 49
-0.125
 74
     0
  0
ENDTAB
  0
TABLE
  2
LAYER
  5
5900E
102
{ACAD_XDICTIONARY
360
5924C
102
}
330
0
100
AcDbSymbolTable
 70
    15
  0
LAYER
  5
5901C
102
{ACAD_XDICTIONARY
360
59969
102
}
330
5900E
100
AcDbSymbolTableRecord
100
AcDbLayerTableRecord
  2
0
 70
     0
 62
     7
  6
CONTINUOUS
370
    -3
390
5901B
347
59055
348
0
  0
LAYER
  5
5903B
102
{ACAD_XDICTIONARY
360
5996B
102
}
330
5900E
100
AcDbSymbolTableRecord
100
AcDbLayerTableRecord
  2
SSINFO_FRZ
 70
     0
 62
     7
  6
CONTINUOUS
370
    -3
390
5901B
347
59055
348
0
  0
LAYER
  5
5921B
102
{ACAD_XDICTIONARY
360
5996D
102
}
330
5900E
100
AcDbSymbolTableRecord
100
AcDbLayerTableRecord
  2
Title Block
 70
     0
 62
     7
  6
CONTINUOUS
370
    -3
390
5901B
347
59055
348
0
  0
LAYER
  5
5921C
102
{ACAD_XDICTIONARY
360
5996F
102
}
330
5900E
100
AcDbSymbolTableRecord
100
AcDbLayerTableRecord
  2
BLKTEXTA
 70
     0
 62
     7
  6
CONTINUOUS
370
    -3
390
5901B
347
59055
348
0
1001
AcAecLayerStandard
1000

1000

  0
LAYER
  5
5921D
102
{ACAD_XDICTIONARY
360
59971
102
}
330
5900E
100
AcDbSymbolTableRecord
100
AcDbLayerTableRecord
  2
BLKTEXTB
 70
     0
 62
     7
  6
CONTINUOUS
370
    -3
390
5901B
347
59055
348
0
1001
AcAecLayerStandard
1000

1000

  0
LAYER
  5
5921E
102
{ACAD_XDICTIONARY
360
59973
102
}
330
5900E
100
AcDbSymbolTableRecord
100
AcDbLayerTableRecord
  2
BLKLINE
 70
     0
 62
     7
  6
CONTINUOUS
370
    -3
390
5901B
347
59055
348
0
1001
AcAecLayerStandard
1000

1000

  0
LAYER
  5
5921F
102
{ACAD_XDICTIONARY
360
59975
102
}
330
5900E
100
AcDbSymbolTableRecord
100
AcDbLayerTableRecord
  2
BLKLOGO
 70
     0
 62
     7
  6
CONTINUOUS
370
    -3
390
5901B
347
59055
348
0
1001
AcAecLayerStandard
1000

1000

  0
LAYER
  5
59220
330
5900E
100
AcDbSymbolTableRecord
100
AcDbLayerTableRecord
  2
Defpoints
 70
     0
 62
     7
  6
CONTINUOUS
290
     0
370
    -3
390
5901B
347
59055
348
0
  0
LAYER
  5
59221
102
{ACAD_XDICTIONARY
360
59977
102
}
330
5900E
100
AcDbSymbolTableRecord
100
AcDbLayerTableRecord
  2
Default
 70
     0
 62
     7
  6
CONTINUOUS
370
    -3
390
5901B
347
59055
348
0
  0
LAYER
  5
59222
102
{ACAD_XDICTIONARY
360
59979
102
}
330
5900E
100
AcDbSymbolTableRecord
100
AcDbLayerTableRecord
  2
DWGCTR
 70
     0
 62
     7
  6
ACAD_ISO10W100
370
    -3
390
5901B
347
59055
348
0
1001
AcAecLayerStandard
1000

1000

  0
LAYER
  5
59223
102
{ACAD_XDICTIONARY
360
5997B
102
}
330
5900E
100
AcDbSymbolTableRecord
100
AcDbLayerTableRecord
  2
DWGDIM
 70
     0
 62
     7
  6
CONTINUOUS
370
    -3
390
5901B
347
59055
348
0
1001
AcAecLayerStandard
1000

1000

  0
LAYER
  5
59224
102
{ACAD_XDICTIONARY
360
5997D
102
}
330
5900E
100
AcDbSymbolTableRecord
100
AcDbLayerTableRecord
  2
DWGLNS
 70
     0
 62
     7
  6
CONTINUOUS
370
    -3
390
5901B
347
59055
348
0
1001
AcAecLayerStandard
1000

1000

  0
LAYER
  5
59225
102
{ACAD_XDICTIONARY
360
5997F
102
}
330
5900E
100
AcDbSymbolTableRecord
100
AcDbLayerTableRecord
  2
DWGHID
 70
     0
 62
     7
  6
ACAD_ISO02W100
370
    -3
390
5901B
347
59055
348
0
1001
AcAecLayerStandard
1000

1000

  0
LAYER
  5
59226
102
{ACAD_XDICTIONARY
360
59981
102
}
330
5900E
100
AcDbSymbolTableRecord
100
AcDbLayerTableRecord
  2
DWGTXT
 70
     0
 62
     7
  6
CONTINUOUS
370
    -3
390
5901B
347
59055
348
0
1001
AcAecLayerStandard
1000

1000

  0
LAYER
  5
59227
102
{ACAD_XDICTIONARY
360
59983
102
}
330
5900E
100
AcDbSymbolTableRecord
100
AcDbLayerTableRecord
  2
DWGHTC
 70
     0
 62
     7
  6
CONTINUOUS
370
     5
390
5901B
347
59055
348
0
1001
AcAecLayerStandard
1000

1000

  0
ENDTAB
  0
TABLE
  2
STYLE
  5
5900F
330
0
100
AcDbSymbolTable
 70
    12
  0
STYLE
  5
5901D
330
5900F
100
AcDbSymbolTableRecord
100
AcDbTextStyleTableRecord
  2
STANDARD
 70
     0
 40
2.52
 41
1.0
 50
0.0
 71
     0
 42
2.52
  3
ROMANS.SHX
  4

  0
STYLE
  5
59033
330
5900F
100
AcDbSymbolTableRecord
100
AcDbTextStyleTableRecord
  2
ROMANT
 70
     0
 40
1.0
 41
1.0
 50
0.0
 71
     0
 42
0.2
  3
ROMANT.SHX
  4

  0
STYLE
  5
59228
330
5900F
100
AcDbSymbolTableRecord
100
AcDbTextStyleTableRecord
  2
Roman
 70
     0
 40
0.0
 41
1.0
 50
0.0
 71
     0
 42
0.065
  3
romans
  4

  0
STYLE
  5
59229
330
5900F
100
AcDbSymbolTableRecord
100
AcDbTextStyleTableRecord
  2
BLKTXTA
 70
     0
 40
0.0625
 41
1.0
 50
0.0
 71
     0
 42
0.0625
  3
romans.shx
  4

  0
STYLE
  5
5922A
330
5900F
100
AcDbSymbolTableRecord
100
AcDbTextStyleTableRecord
  2
BLKTXTB
 70
     0
 40
0.125
 41
1.0
 50
0.0
 71
     0
 42
0.0625
  3
romans.shx
  4

  0
STYLE
  5
5922B
330
5900F
100
AcDbSymbolTableRecord
100
AcDbTextStyleTableRecord
  2
SEACAD_arial_ttfB
 70
     0
 40
0.2
 41
1.0
 50
0.0
 71
     0
 42
0.2
  3
ARIAL.TTF
  4

1001
ACAD
1000
Arial
1071
       34
  0
STYLE
  5
5922C
330
5900F
100
AcDbSymbolTableRecord
100
AcDbTextStyleTableRecord
  2
SEACAD_arial_ttf
 70
     0
 40
0.2
 41
1.0
 50
0.0
 71
     0
 42
0.2
  3
ARIAL.TTF
  4

1001
ACAD
1000
Arial
1071
       34
  0
STYLE
  5
5922D
330
5900F
100
AcDbSymbolTableRecord
100
AcDbTextStyleTableRecord
  2
LOGO
 70
     0
 40
0.25
 41
1.0
 50
0.0
 71
     0
 42
0.0625
  3

  4

1001
ACAD
1000
@Arial Unicode MS
1071
       34
  0
STYLE
  5
5922E
330
5900F
100
AcDbSymbolTableRecord
100
AcDbTextStyleTableRecord
  2
LOGOA
 70
     0
 40
0.09375
 41
1.0
 50
0.0
 71
     0
 42
0.09375
  3

  4

1001
ACAD
1000
@Arial Unicode MS
1071
       34
  0
STYLE
  5
5922F
330
5900F
100
AcDbSymbolTableRecord
100
AcDbTextStyleTableRecord
  2
PEENED
 70
     0
 40
0.1875
 41
1.0
 50
0.0
 71
     0
 42
0.0625
  3
romans.shx
  4
@extfont2.shx
  0
STYLE
  5
59230
330
5900F
100
AcDbSymbolTableRecord
100
AcDbTextStyleTableRecord
  2

 70
     1
 40
0.0
 41
1.0
 50
0.0
 71
     0
 42
0.065
  3
ltypeshp.shx
  4

  0
STYLE
  5
59231
330
5900F
100
AcDbSymbolTableRecord
100
AcDbTextStyleTableRecord
  2
ARIAL
 70
     0
 40
0.0
 41
1.0
 50
0.0
 71
     0
 42
1.0
  3
ARIAL.TTF
  4

1001
ACAD
1000
Arial
1071
       34
  0
ENDTAB
  0
TABLE
  2
VIEW
  5
59012
330
0
100
AcDbSymbolTable
 70
     0
  0
ENDTAB
  0
TABLE
  2
UCS
  5
59013
330
0
100
AcDbSymbolTable
 70
     0
  0
ENDTAB
  0
TABLE
  2
APPID
  5
59015
330
0
100
AcDbSymbolTable
 70
    15
  0
APPID
  5
5901E
330
59015
100
AcDbSymbolTableRecord
100
AcDbRegAppTableRecord
  2
ACAD
 70
     0
  0
APPID
  5
59038
330
59015
100
AcDbSymbolTableRecord
100
AcDbRegAppTableRecord
  2
_LST112SSJYHX
 70
     0
  0
APPID
  5
59039
330
59015
100
AcDbSymbolTableRecord
100
AcDbRegAppTableRecord
  2
_DES112SSJYHX
 70
     0
  0
APPID
  5
5923C
330
59015
100
AcDbSymbolTableRecord
100
AcDbRegAppTableRecord
  2
ACAD_PSEXT
 70
     0
  0
APPID
  5
5923D
330
59015
100
AcDbSymbolTableRecord
100
AcDbRegAppTableRecord
  2
AcAecLayerStandard
 70
     0
  0
APPID
  5
5923E
330
59015
100
AcDbSymbolTableRecord
100
AcDbRegAppTableRecord
  2
ACAD_EXEMPT_FROM_CAD_STANDARDS
 70
     0
  0
APPID
  5
5923F
330
59015
100
AcDbSymbolTableRecord
100
AcDbRegAppTableRecord
  2
AcDbDynamicBlockTrueName
 70
     0
  0
APPID
  5
59240
330
59015
100
AcDbSymbolTableRecord
100
AcDbRegAppTableRecord
  2
AcDbBlockRepETag
 70
     0
  0
APPID
  5
59241
330
59015
100
AcDbSymbolTableRecord
100
AcDbRegAppTableRecord
  2
AcDbDynamicBlockGUID
 70
     0
  0
APPID
  5
59242
330
59015
100
AcDbSymbolTableRecord
100
AcDbRegAppTableRecord
  2
AcDbBlockRepBTag
 70
     0
  0
APPID
  5
59243
330
59015
100
AcDbSymbolTableRecord
100
AcDbRegAppTableRecord
  2
AcLayerTools
 70
     0
  0
APPID
  5
59244
330
59015
100
AcDbSymbolTableRecord
100
AcDbRegAppTableRecord
  2
AcDbAttr
 70
     0
  0
APPID
  5
59245
330
59015
100
AcDbSymbolTableRecord
100
AcDbRegAppTableRecord
  2
ACAD_DSTYLE_DIMTEXT_FILL
 70
     0
  0
APPID
  5
59246
330
59015
100
AcDbSymbolTableRecord
100
AcDbRegAppTableRecord
  2
ACAD_DSTYLE_DIM_LINETYPE
 70
     0
  0
APPID
  5
5998D
330
59015
100
AcDbSymbolTableRecord
100
AcDbRegAppTableRecord
  2
ACAD_NAV_VCDISPLAY
 70
     0
  0
ENDTAB
  0
TABLE
  2
DIMSTYLE
  5
59016
330
0
100
AcDbSymbolTable
 70
    11
100
AcDbDimStyleTable
 71
     2
340
59235
340
59234
  0
DIMSTYLE
105
59044
330
59016
100
AcDbSymbolTableRecord
100
AcDbDimStyleTableRecord
  2
Standard
 70
     0
340
5901D
  0
DIMSTYLE
105
59232
330
59016
100
AcDbSymbolTableRecord
100
AcDbDimStyleTableRecord
  2
BLK
 70
     0
 41
0.0625
140
0.125
279
     1
340
59231
342
5907B
  0
DIMSTYLE
105
59233
330
59016
100
AcDbSymbolTableRecord
100
AcDbDimStyleTableRecord
  2
DWG
 70
     0
  3
\X
 41
0.4925
 42
0.25
140
1.0
170
     1
171
     0
176
   256
177
   256
178
   256
274
     0
276
     1
277
     4
340
59231
345
59020
371
    -1
  0
DIMSTYLE
105
59234
102
{ACAD_REACTORS
330
5937E
330
594A6
330
594FC
330
594C3
330
592E7
330
592AC
330
59325
330
5934C
330
59723
330
59748
102
}
330
59016
100
AcDbSymbolTableRecord
100
AcDbDimStyleTableRecord
  2
DWG.25
 70
     0
  3
\X
 41
0.25
 42
0.25
140
0.25
170
     1
171
     0
176
   256
177
   256
178
   256
274
     0
276
     1
277
     4
289
     2
340
59231
  0
DIMSTYLE
105
59235
102
{ACAD_REACTORS
330
591A4
330
591A5
330
591DD
330
591DE
330
591DF
330
591E0
330
591E1
330
591E2
330
591FB
330
591FC
330
591FD
330
59207
102
}
330
59016
100
AcDbSymbolTableRecord
100
AcDbDimStyleTableRecord
  2
DWG.125
 70
     0
  3
\X
 41
0.125
 42
0.25
140
0.125
170
     1
171
     0
176
   256
177
   256
178
   256
274
     0
276
     1
277
     4
289
     2
340
59231
  0
DIMSTYLE
105
59236
330
59016
100
AcDbSymbolTableRecord
100
AcDbDimStyleTableRecord
  2
DWG.5
 70
     0
  3
\X
 41
0.5
 42
0.25
140
0.5
170
     1
171
     0
176
   256
177
   256
178
   256
274
     0
276
     1
277
     4
289
     2
340
59231
  0
DIMSTYLE
105
59237
330
59016
100
AcDbSymbolTableRecord
100
AcDbDimStyleTableRecord
  2
DWG1.0
 70
     0
  3
\X
 41
1.0
 42
0.25
140
1.0
170
     1
171
     0
176
   256
177
   256
178
   256
274
     0
276
     1
277
     4
289
     2
340
59231
  0
DIMSTYLE
105
59238
330
59016
100
AcDbSymbolTableRecord
100
AcDbDimStyleTableRecord
  2
DWG.75
 70
     0
  3
\X
 41
0.75
 42
0.25
140
0.75
170
     1
171
     0
176
   256
177
   256
178
   256
274
     0
276
     1
277
     4
289
     2
340
59231
  0
DIMSTYLE
105
59239
330
59016
100
AcDbSymbolTableRecord
100
AcDbDimStyleTableRecord
  2
DWG3.0
 70
     0
  3
\X
 41
3.0
 42
0.25
140
2.0
170
     1
171
     0
176
   256
177
   256
178
   256
274
     0
276
     1
277
     4
279
     1
289
     2
340
59231
  0
DIMSTYLE
105
5923A
330
59016
100
AcDbSymbolTableRecord
100
AcDbDimStyleTableRecord
  2
DWG .375
 70
     0
  3
\X
 41
0.375
 42
0.25
140
0.375
170
     1
171
     0
176
   256
177
   256
178
   256
274
     0
276
     1
277
     4
340
59231
345
59020
371
    -1
  0
DIMSTYLE
105
5923B
330
59016
100
AcDbSymbolTableRecord
100
AcDbDimStyleTableRecord
  2
DWG .5625
 70
     0
  3
\X
 41
0.5625
 42
0.25
140
0.5625
170
     1
171
     0
176
   256
177
   256
178
   256
274
     0
276
     1
277
     4
340
59231
345
59020
371
    -1
  0
ENDTAB
  0
TABLE
  2
BLOCK_RECORD
  5
5900D
330
0
100
AcDbSymbolTable
 70
    39
  0
BLOCK_RECORD
  5
5902E
102
{ACAD_XDICTIONARY
360
59280
102
}
330
5900D
100
AcDbSymbolTableRecord
100
AcDbBlockTableRecord
  2
*Model_Space
340
59031
 70
     0
280
     1
281
     0
  0
BLOCK_RECORD
  5
5902A
330
5900D
100
AcDbSymbolTableRecord
100
AcDbBlockTableRecord
  2
*Paper_Space
340
5902D
 70
     0
280
     1
281
     0
  0
BLOCK_RECORD
  5
59032
330
5900D
100
AcDbSymbolTableRecord
100
AcDbBlockTableRecord
  2
SSINFO_NIL
340
0
102
{BLKREFS
331
5981E
331
58FC6
102
}
 70
     0
280
     1
281
     0
  0
BLOCK_RECORD
  5
59077
330
5900D
100
AcDbSymbolTableRecord
100
AcDbBlockTableRecord
  2
_ArchTick
340
0
 70
     0
280
     1
281
     0
  0
BLOCK_RECORD
  5
5907B
330
5900D
100
AcDbSymbolTableRecord
100
AcDbBlockTableRecord
  2
_Dot
340
0
 70
     0
280
     1
281
     0
  0
BLOCK_RECORD
  5
59080
102
{ACAD_XDICTIONARY
360
59081
102
}
330
5900D
100
AcDbSymbolTableRecord
100
AcDbBlockTableRecord
  2
REVBLK
340
0
 70
     1
280
     1
281
     0
1001
AcDbDynamicBlockTrueName
1000
REVBLK
1001
AcDbDynamicBlockGUID
1000
{B0F704D1-A338-4E28-8297-0C265D20C23D}
  0
BLOCK_RECORD
  5
59099
102
{ACAD_XDICTIONARY
360
5909A
102
}
330
5900D
100
AcDbSymbolTableRecord
100
AcDbBlockTableRecord
  2
GRBBLK
340
0
 70
     1
280
     1
281
     0
1001
AcDbDynamicBlockTrueName
1000
GRBBLK
1001
AcDbDynamicBlockGUID
1000
{638A91BA-B7FA-4A4D-A324-F45560384064}
  0
BLOCK_RECORD
  5
590AC
102
{ACAD_XDICTIONARY
360
590AD
102
}
330
5900D
100
AcDbSymbolTableRecord
100
AcDbBlockTableRecord
  2
TTLBLK
340
0
 70
     1
280
     1
281
     0
1001
AcDbDynamicBlockTrueName
1000
TTLBLK
1001
AcDbDynamicBlockGUID
1000
{66C68A87-1518-43E9-95E6-55150D46106E}
1001
AcDbBlockRepETag
1070
     1
1071
       39
  0
BLOCK_RECORD
  5
5910B
330
5900D
100
AcDbSymbolTableRecord
100
AcDbBlockTableRecord
  2
*D6
340
0
 70
     0
280
     1
281
     0
  0
BLOCK_RECORD
  5
59118
330
5900D
100
AcDbSymbolTableRecord
100
AcDbBlockTableRecord
  2
*D7
340
0
 70
     0
280
     1
281
     0
  0
BLOCK_RECORD
  5
59126
330
5900D
100
AcDbSymbolTableRecord
100
AcDbBlockTableRecord
  2
*D8
340
0
 70
     0
280
     1
281
     0
  0
BLOCK_RECORD
  5
59133
330
5900D
100
AcDbSymbolTableRecord
100
AcDbBlockTableRecord
  2
*D9
340
0
 70
     0
280
     1
281
     0
  0
BLOCK_RECORD
  5
59140
330
5900D
100
AcDbSymbolTableRecord
100
AcDbBlockTableRecord
  2
*D10
340
0
 70
     0
280
     1
281
     0
  0
BLOCK_RECORD
  5
5914D
330
5900D
100
AcDbSymbolTableRecord
100
AcDbBlockTableRecord
  2
*D11
340
0
 70
     0
280
     1
281
     0
  0
BLOCK_RECORD
  5
5915A
330
5900D
100
AcDbSymbolTableRecord
100
AcDbBlockTableRecord
  2
*D12
340
0
 70
     0
280
     1
281
     0
  0
BLOCK_RECORD
  5
59167
330
5900D
100
AcDbSymbolTableRecord
100
AcDbBlockTableRecord
  2
*D13
340
0
 70
     0
280
     1
281
     0
  0
BLOCK_RECORD
  5
59174
330
5900D
100
AcDbSymbolTableRecord
100
AcDbBlockTableRecord
  2
*D14
340
0
 70
     0
280
     1
281
     0
  0
BLOCK_RECORD
  5
59182
330
5900D
100
AcDbSymbolTableRecord
100
AcDbBlockTableRecord
  2
*D15
340
0
 70
     0
280
     1
281
     0
  0
BLOCK_RECORD
  5
5918F
330
5900D
100
AcDbSymbolTableRecord
100
AcDbBlockTableRecord
  2
*D16
340
0
 70
     0
280
     1
281
     0
  0
BLOCK_RECORD
  5
5919D
102
{ACAD_XDICTIONARY
360
5919E
102
}
330
5900D
100
AcDbSymbolTableRecord
100
AcDbBlockTableRecord
  2
0702061146
340
0
 70
     1
280
     1
281
     0
  0
BLOCK_RECORD
  5
59209
330
5900D
100
AcDbSymbolTableRecord
100
AcDbBlockTableRecord
  2
SECTION TAG
340
0
310
2800000020000000200000000100080000000000000400000000000000000000000000000000000000000000000080000080000000808000800000008000800080800000C0C0C000C0DCC000F0CAA6000020400000206000002080000020A0000020C0000020E00000400000004020000040400000406000004080000040A0
310
000040C0000040E00000600000006020000060400000606000006080000060A0000060C0000060E00000800000008020000080400000806000008080000080A0000080C0000080E00000A0000000A0200000A0400000A0600000A0800000A0A00000A0C00000A0E00000C0000000C0200000C0400000C0600000C0800000C0
310
A00000C0C00000C0E00000E0000000E0200000E0400000E0600000E0800000E0A00000E0C00000E0E00040000000400020004000400040006000400080004000A0004000C0004000E00040200000402020004020400040206000402080004020A0004020C0004020E000404000004040200040404000404060004040800040
310
40A0004040C0004040E00040600000406020004060400040606000406080004060A0004060C0004060E00040800000408020004080400040806000408080004080A0004080C0004080E00040A0000040A0200040A0400040A0600040A0800040A0A00040A0C00040A0E00040C0000040C0200040C0400040C0600040C08000
310
40C0A00040C0C00040C0E00040E0000040E0200040E0400040E0600040E0800040E0A00040E0C00040E0E00080000000800020008000400080006000800080008000A0008000C0008000E00080200000802020008020400080206000802080008020A0008020C0008020E00080400000804020008040400080406000804080
310
008040A0008040C0008040E00080600000806020008060400080606000806080008060A0008060C0008060E00080800000808020008080400080806000808080008080A0008080C0008080E00080A0000080A0200080A0400080A0600080A0800080A0A00080A0C00080A0E00080C0000080C0200080C0400080C0600080C0
310
800080C0A00080C0C00080C0E00080E0000080E0200080E0400080E0600080E0800080E0A00080E0C00080E0E000C0000000C0002000C0004000C0006000C0008000C000A000C000C000C000E000C0200000C0202000C0204000C0206000C0208000C020A000C020C000C020E000C0400000C0402000C0404000C0406000C0
310
408000C040A000C040C000C040E000C0600000C0602000C0604000C0606000C0608000C060A000C060C000C060E000C0800000C0802000C0804000C0806000C0808000C080A000C080C000C080E000C0A00000C0A02000C0A04000C0A06000C0A08000C0A0A000C0A0C000C0A0E000C0C00000C0C02000C0C04000C0C06000
310
C0C08000C0C0A000F0FBFF00A4A0A000808080000000FF0000FF000000FFFF00FF000000FF00FF00FFFF0000FFFFFF00000000000000000000000000000000000000000000000000000000000000000000000000000000000000000000FF00000000000000000000000000000000000000000000000000000000000000FF00
310
0000000000000000000000000000000000000000000000000000000000FFFF000000000000000000000000000000000000000000000000000000000000FFFF0000FF000000FFFF000000000000000000000000000000000000000000FFFFFF0000FFFF0000FFFF000000000000000000000000000000000000000000FFFFFF
310
000000FFFFFFFF000000000000000000000000000000000000000000FFFFFFFF000000FFFFFFFF00000000000000000000000000000000000000000000FFFFFF000000FFFFFFFF00000000000000000000000000000000000000000000FFFFFF00000000FFFF000000000000000000000000000000000000000000000000FF
310
FF00000000FFFF000000000000000000000000000000000000000000000000FFFF000000000000000000000000000000000000000000000000000000000000FFFF000000000000000000000000000000000000000000000000000000000000FFFF000000000000000000000000000000000000000000000000000000000000
310
FFFF000000000000000000000000000000000000000000000000000000000000FFFF000000000000000000000000000000000000000000000000000000000000FFFF000000000000000000000000000000000000000000000000000000000000FFFF0000000000000000000000000000000000000000000000000000000000
310
00FFFF000000000000000000000000000000000000000000000000000000000000FFFF000000000000000000000000000000000000000000000000000000000000FFFF000000000000000000000000000000000000000000000000000000000000FFFF00000000000000000000000000000000000000000000000000000000
310
0000FFFF000000000000000000000000000000000000000000000000000000000000FFFF000000000000000000000000000000000000000000000000000000000000FFFF000000000000000000000000000000000000000000000000000000000000FFFF000000000000000000000000000000000000000000000000000000
310
000000FFFF000000000000000000000000000000000000000000000000000000000000FFFF000000000000000000000000000000000000000000000000000000000000FFFF000000000000000000000000000000000000000000000000000000000000FFFF0000000000000000000000000000000000000000000000000000
310
00000000FFFF0000000000000000000000000000000000000000000000000000000000000000000000000000000000000000000000000000
 70
     1
280
     1
281
     0
  0
BLOCK_RECORD
  5
5924E
102
{ACAD_XDICTIONARY
360
59272
102
}
330
5900D
100
AcDbSymbolTableRecord
100
AcDbBlockTableRecord
  2
ASIANSIATTLBLK
340
0
 70
     1
280
     1
281
     0
  0
BLOCK_RECORD
  5
592AD
330
5900D
100
AcDbSymbolTableRecord
100
AcDbBlockTableRecord
  2
*D20
340
0
 70
     0
280
     1
281
     0
  0
BLOCK_RECORD
  5
592E8
330
5900D
100
AcDbSymbolTableRecord
100
AcDbBlockTableRecord
  2
*D21
340
0
 70
     0
280
     1
281
     0
  0
BLOCK_RECORD
  5
59326
330
5900D
100
AcDbSymbolTableRecord
100
AcDbBlockTableRecord
  2
*D22
340
0
 70
     0
280
     1
281
     0
  0
BLOCK_RECORD
  5
5934D
330
5900D
100
AcDbSymbolTableRecord
100
AcDbBlockTableRecord
  2
*D23
340
0
 70
     0
280
     1
281
     0
  0
BLOCK_RECORD
  5
5937F
330
5900D
100
AcDbSymbolTableRecord
100
AcDbBlockTableRecord
  2
*D24
340
0
 70
     0
280
     1
281
     0
  0
BLOCK_RECORD
  5
594A7
330
5900D
100
AcDbSymbolTableRecord
100
AcDbBlockTableRecord
  2
*D25
340
0
 70
     0
280
     1
281
     0
  0
BLOCK_RECORD
  5
594FD
330
5900D
100
AcDbSymbolTableRecord
100
AcDbBlockTableRecord
  2
*D26
340
0
 70
     0
280
     1
281
     0
  0
BLOCK_RECORD
  5
59724
330
5900D
100
AcDbSymbolTableRecord
100
AcDbBlockTableRecord
  2
*D27
340
0
 70
     0
280
     1
281
     0
  0
BLOCK_RECORD
  5
59749
330
5900D
100
AcDbSymbolTableRecord
100
AcDbBlockTableRecord
  2
*D28
340
0
 70
     0
280
     1
281
     0
  0
BLOCK_RECORD
  5
59798
330
5900D
100
AcDbSymbolTableRecord
100
AcDbBlockTableRecord
  2
*D29
340
0
 70
     0
280
     1
281
     0
  0
BLOCK_RECORD
  5
597A6
330
5900D
100
AcDbSymbolTableRecord
100
AcDbBlockTableRecord
  2
*D30
340
0
 70
     0
280
     1
281
     0
  0
BLOCK_RECORD
  5
597B4
330
5900D
100
AcDbSymbolTableRecord
100
AcDbBlockTableRecord
  2
*D31
340
0
 70
     0
280
     1
281
     0
  0
BLOCK_RECORD
  5
597C2
330
5900D
100
AcDbSymbolTableRecord
100
AcDbBlockTableRecord
  2
*D32
340
0
 70
     0
280
     1
281
     0
  0
BLOCK_RECORD
  5
597CF
330
5900D
100
AcDbSymbolTableRecord
100
AcDbBlockTableRecord
  2
*D33
340
0
 70
     0
280
     1
281
     0
  0
BLOCK_RECORD
  5
597DD
330
5900D
100
AcDbSymbolTableRecord
100
AcDbBlockTableRecord
  2
*D34
340
0
 70
     0
280
     1
281
     0
  0
BLOCK_RECORD
  5
597EB
330
5900D
100
AcDbSymbolTableRecord
100
AcDbBlockTableRecord
  2
*D35
340
0
 70
     0
280
     1
281
     0
  0
BLOCK_RECORD
  5
597F9
330
5900D
100
AcDbSymbolTableRecord
100
AcDbBlockTableRecord
  2
*D36
340
0
 70
     0
280
     1
281
     0
  0
BLOCK_RECORD
  5
59807
330
5900D
100
AcDbSymbolTableRecord
100
AcDbBlockTableRecord
  2
*D37
340
0
 70
     0
280
     1
281
     0
  0
BLOCK_RECORD
  5
59815
102
{ACAD_XDICTIONARY
360
59842
102
}
330
5900D
100
AcDbSymbolTableRecord
100
AcDbBlockTableRecord
  2
A$C63D37935
340
0
 70
     0
280
     1
281
     0
  0
ENDTAB
  0
ENDSEC
  0
SECTION
  2
BLOCKS
  0
BLOCK
  5
5903F
330
5902E
100
AcDbEntity
  8
0
100
AcDbBlockBegin
  2
*Model_Space
 70
     0
 10
0.0
 20
0.0
 30
0.0
  3
*Model_Space
  1

  0
ENDBLK
  5
59040
330
5902E
100
AcDbEntity
  8
0
100
AcDbBlockEnd
  0
BLOCK
  5
5903D
330
5902A
100
AcDbEntity
 67
     1
  8
0
100
AcDbBlockBegin
  2
*Paper_Space
 70
     0
 10
0.0
 20
0.0
 30
0.0
  3
*Paper_Space
  1

  0
ENDBLK
  5
5903E
330
5902A
100
AcDbEntity
 67
     1
  8
0
100
AcDbBlockEnd
  0
BLOCK
  5
58FC4
330
59032
100
AcDbEntity
  8
0
100
AcDbBlockBegin
  2
SSINFO_NIL
 70
     0
 10
1.0
 20
1.0
 30
1.0
  3
SSINFO_NIL
  1
SSINFO_NIL
  0
ENDBLK
  5
58FC5
330
59032
100
AcDbEntity
  8
0
100
AcDbBlockEnd
  0
BLOCK
  5
59078
330
59077
100
AcDbEntity
  8
0
100
AcDbBlockBegin
  2
_ArchTick
 70
     0
 10
0.0
 20
0.0
 30
0.0
  3
_ArchTick
  1

  0
LWPOLYLINE
  5
59079
330
59077
100
AcDbEntity
  8
0
  6
ByBlock
 62
     0
100
AcDbPolyline
 90
        2
 70
     0
 43
0.15
 10
-0.5
 20
-0.5
 10
0.5
 20
0.5
  0
ENDBLK
  5
5907A
330
59077
100
AcDbEntity
  8
0
100
AcDbBlockEnd
  0
BLOCK
  5
5907C
330
5907B
100
AcDbEntity
  8
0
100
AcDbBlockBegin
  2
_Dot
 70
     0
 10
0.0
 20
0.0
 30
0.0
  3
_Dot
  1

  0
LWPOLYLINE
  5
5907D
330
5907B
100
AcDbEntity
  8
0
  6
ByBlock
 62
     0
100
AcDbPolyline
 90
        2
 70
     1
 43
0.5
 10
-0.25
 20
0.0
 42
1.0
 10
0.25
 20
0.0
 42
1.0
  0
LINE
  5
5907E
330
5907B
100
AcDbEntity
  8
0
  6
ByBlock
 62
     0
370
    -2
100
AcDbLine
 10
-0.5
 20
0.0
 30
0.0
 11
-1.0
 21
0.0
 31
0.0
  0
ENDBLK
  5
5907F
330
5907B
100
AcDbEntity
  8
0
100
AcDbBlockEnd
  0
BLOCK
  5
5908A
330
59080
100
AcDbEntity
  8
0
100
AcDbBlockBegin
  2
REVBLK
 70
     2
 10
0.0
 20
0.0
 30
0.0
  3
REVBLK
  1

  0
LWPOLYLINE
  5
5908B
330
59080
100
AcDbEntity
  8
BLKLINE
100
AcDbPolyline
 90
        4
 70
     1
 43
0.0
 10
0.5
 20
0.375
 10
4.0
 20
0.375
 10
4.0
 20
0.75
 10
0.5
 20
0.75
  0
LWPOLYLINE
  5
5908C
330
59080
100
AcDbEntity
  8
BLKLINE
100
AcDbPolyline
 90
        2
 70
     0
 43
0.0
 10
1.0
 20
0.75
 10
1.0
 20
0.0
1001
AcDbBlockRepETag
1070
     1
1071
       13
1005
0
  0
ATTDEF
  5
5908D
330
59080
100
AcDbEntity
  8
BLKTEXTB
100
AcDbText
 10
0.5714285714285714
 20
0.5
 30
0.0
 40
0.125
  1
XXX
  7
BLKTXTB
 72
     1
 11
0.75
 21
0.5625
 31
0.0
100
AcDbAttributeDefinition
280
     0
  3
KEY
  2
KEY
 70
     0
 74
     2
280
     1
  0
LWPOLYLINE
  5
5908E
330
59080
100
AcDbEntity
  8
BLKLINE
100
AcDbPolyline
 90
        4
 70
     1
 43
0.0
 10
0.5
 20
0.0
 10
4.0
 20
0.0
 10
4.0
 20
0.375
 10
0.5
 20
0.375
  0
LWPOLYLINE
  5
5908F
330
59080
100
AcDbEntity
  8
BLKLINE
100
AcDbPolyline
 90
        2
 70
     0
 43
0.0
 10
2.625
 20
0.75
 10
2.625
 20
0.0
1001
AcDbBlockRepETag
1070
     1
1071
       13
1005
0
  0
ATTDEF
  5
59090
330
59080
100
AcDbEntity
  8
BLKTEXTB
100
AcDbText
 10
1.071428571428571
 20
0.5
 30
0.0
 40
0.125
  1
XXX
  7
BLKTXTB
 72
     1
 11
1.25
 21
0.5625
 31
0.0
100
AcDbAttributeDefinition
280
     0
  3
REVISION
  2
REVISION
 70
     0
 74
     2
280
     1
  0
ATTDEF
  5
59091
330
59080
100
AcDbEntity
  8
BLKTEXTB
100
AcDbText
 10
1.883928571428571
 20
0.5
 30
0.0
 40
0.125
  1
XXX
  7
BLKTXTB
 72
     1
 11
2.0625
 21
0.5625
 31
0.0
100
AcDbAttributeDefinition
280
     0
  3
AUTHORIZED BY
  2
AUTHORIZED
 70
     0
 74
     2
280
     1
  0
ATTDEF
  5
59092
330
59080
100
AcDbEntity
  8
BLKTEXTB
100
AcDbText
 10
2.708333333333333
 20
0.5
 30
0.0
 40
0.125
  1
99-WWW-99
  7
BLKTXTB
 72
     1
 11
3.3125
 21
0.5625
 31
0.0
100
AcDbAttributeDefinition
280
     0
  3
DATE
  2
DATE
 70
     0
 74
     2
280
     1
  0
MTEXT
  5
59093
330
59080
100
AcDbEntity
  8
BLKTEXTA
100
AcDbMText
 10
0.75
 20
0.1875
 30
0.0
 40
0.0625
 41
0.875
 46
0.0
 71
     5
 72
     5
  1
KEY
  7
BLKTXTA
 73
     1
 44
1.0
  0
MTEXT
  5
59094
330
59080
100
AcDbEntity
  8
BLKTEXTA
100
AcDbMText
 10
1.25
 20
0.1875
 30
0.0
 40
0.0625
 41
0.875
 46
0.0
 71
     5
 72
     5
  1
REVISION
  7
BLKTXTA
 73
     1
 44
1.0
  0
MTEXT
  5
59095
330
59080
100
AcDbEntity
  8
BLKTEXTA
100
AcDbMText
 10
2.0625
 20
0.1875
 30
0.0
 40
0.0625
 41
0.875
 46
0.0
 71
     5
 72
     5
  1
AUTHORIZED BY
  7
BLKTXTA
 73
     1
 44
1.0
  0
MTEXT
  5
59096
330
59080
100
AcDbEntity
  8
BLKTEXTA
100
AcDbMText
 10
3.3125
 20
0.1875
 30
0.0
 40
0.0625
 41
0.875
 46
0.0
 71
     5
 72
     5
  1
DATE
  7
BLKTXTA
 73
     1
 44
1.0
  0
LWPOLYLINE
  5
59097
330
59080
100
AcDbEntity
  8
BLKLINE
100
AcDbPolyline
 90
        2
 70
     0
 43
0.0
 10
1.5
 20
0.75
 10
1.5
 20
0.0
1001
AcDbBlockRepETag
1070
     1
1071
       13
1005
0
  0
ENDBLK
  5
59098
330
59080
100
AcDbEntity
  8
0
100
AcDbBlockEnd
  0
BLOCK
  5
590A3
330
59099
100
AcDbEntity
  8
0
100
AcDbBlockBegin
  2
GRBBLK
 70
     2
 10
0.0
 20
0.0
 30
0.0
  3
GRBBLK
  1

  0
LWPOLYLINE
  5
590A4
330
59099
100
AcDbEntity
  8
BLKLINE
100
AcDbPolyline
 90
        4
 70
     1
 43
0.0
 10
0.5
 20
0.375
 10
4.0
 20
0.375
 10
4.0
 20
0.75
 10
0.5
 20
0.75
  0
LWPOLYLINE
  5
590A5
330
59099
100
AcDbEntity
  8
BLKLINE
100
AcDbPolyline
 90
        2
 70
     0
 43
0.0
 10
2.819444444444444
 20
0.75
 10
2.819444444444444
 20
0.375
1001
AcDbBlockRepETag
1070
     1
1071
       13
1005
0
  0
MTEXT
  5
590A6
330
59099
100
AcDbEntity
  8
BLKTEXTA
100
AcDbMText
 10
3.409722222222222
 20
0.5625
 30
0.0
 40
0.09375
 41
1.0
 46
0.375
 71
     5
 72
     5
  1
PEENED IF P IN BOX
  7
BLKTXTA
 73
     1
 44
1.0
1001
ACAD
1000
ACAD_MTEXT_DEFINED_HEIGHT_BEGIN
1070
    46
1040
0.375
1000
ACAD_MTEXT_DEFINED_HEIGHT_END
  0
ATTDEF
  5
590A7
330
59099
100
AcDbEntity
  8
BLKTEXTB
100
AcDbText
 10
2.468253968253968
 20
0.40625
 30
0.0
 40
0.3125
  1
P
  7
PEENED
 72
     1
 11
2.631944444444444
 21
0.5625
 31
0.0
100
AcDbAttributeDefinition
280
     0
  3
PEENED?
  2
PEENING
 70
     0
 74
     2
280
     1
  0
MTEXT
  5
590A8
330
59099
100
AcDbEntity
  8
BLKTEXTA
100
AcDbMText
 10
0.53125
 20
0.71875
 30
0.0
 40
0.0625
 41
1.726261931479588
 46
0.0
 71
     1
 72
     5
  1
GRAB BAR # STYLE AND TYPE
  7
BLKTXTA
 73
     1
 44
1.0
  0
ATTDEF
  5
590A9
330
59099
100
AcDbEntity
  8
BLKTEXTB
100
AcDbText
 10
0.5
 20
0.4375
 30
0.0
 40
0.125
  1
XXXX-M
  7
BLKTXTB
 11
0.5
 21
0.5625
 31
0.0
100
AcDbAttributeDefinition
280
     0
  3
GRAB BAR
  2
GRABARSTYLETYPE
 70
     0
 74
     3
280
     1
  0
LWPOLYLINE
  5
590AA
330
59099
100
AcDbEntity
  8
BLKLINE
100
AcDbPolyline
 90
        2
 70
     0
 43
0.0
 10
2.444444444444444
 20
0.75
 10
2.444444444444444
 20
0.375
1001
AcDbBlockRepETag
1070
     1
1071
       13
1005
0
  0
ENDBLK
  5
590AB
330
59099
100
AcDbEntity
  8
0
100
AcDbBlockEnd
  0
BLOCK
  5
590B6
330
590AC
100
AcDbEntity
  8
0
100
AcDbBlockBegin
  2
TTLBLK
 70
     2
 10
0.0
 20
0.0
 30
0.0
  3
TTLBLK
  1

  0
LWPOLYLINE
  5
590B7
330
590AC
100
AcDbEntity
  8
BLKLINE
100
AcDbPolyline
 90
        2
 70
     0
 43
0.0
 10
0.5
 20
2.6875
 10
4.0
 20
2.6875
1001
AcDbBlockRepETag
1070
     1
1071
        0
1005
590B7
  0
LWPOLYLINE
  5
590B8
330
590AC
100
AcDbEntity
  8
BLKLINE
100
AcDbPolyline
 90
        2
 70
     0
 43
0.0
 10
0.5
 20
2.3125
 10
4.0
 20
2.3125
1001
AcDbBlockRepETag
1070
     1
1071
        1
1005
590B8
  0
LWPOLYLINE
  5
590B9
330
590AC
100
AcDbEntity
  8
BLKLINE
100
AcDbPolyline
 90
        2
 70
     0
 43
0.0
 10
0.5
 20
1.9375
 10
4.0
 20
1.9375
1001
AcDbBlockRepETag
1070
     1
1071
        2
1005
590B9
  0
LWPOLYLINE
  5
590BA
330
590AC
100
AcDbEntity
  8
BLKLINE
100
AcDbPolyline
 90
        2
 70
     0
 43
0.0
 10
0.5
 20
1.75
 10
4.0
 20
1.75
1001
AcDbBlockRepETag
1070
     1
1071
        3
1005
590BA
  0
LWPOLYLINE
  5
590BB
330
590AC
100
AcDbEntity
  8
BLKLINE
100
AcDbPolyline
 90
        2
 70
     0
 43
0.0
 10
0.5
 20
1.5625
 10
4.0
 20
1.5625
1001
AcDbBlockRepETag
1070
     1
1071
        4
1005
590BB
  0
LWPOLYLINE
  5
590BC
330
590AC
100
AcDbEntity
  8
BLKLINE
100
AcDbPolyline
 90
        2
 70
     0
 43
0.0
 10
0.5
 20
1.375
 10
4.0
 20
1.375
1001
AcDbBlockRepETag
1070
     1
1071
        5
1005
590BC
  0
LWPOLYLINE
  5
590BD
330
590AC
100
AcDbEntity
  8
BLKLINE
100
AcDbPolyline
 90
        2
 70
     0
 43
0.0
 10
0.5
 20
1.1875
 10
4.0
 20
1.1875
1001
AcDbBlockRepETag
1070
     1
1071
        6
1005
590BD
  0
LWPOLYLINE
  5
590BE
330
590AC
100
AcDbEntity
  8
BLKLINE
100
AcDbPolyline
 90
        2
 70
     0
 43
0.0
 10
0.5
 20
0.75
 10
4.0
 20
0.75
1001
AcDbBlockRepETag
1070
     1
1071
        7
1005
590BE
  0
LWPOLYLINE
  5
590BF
330
590AC
100
AcDbEntity
  8
BLKLINE
100
AcDbPolyline
 90
        2
 70
     0
 43
0.0
 10
2.75
 20
2.3125
 10
2.75
 20
3.125
1001
AcDbBlockRepETag
1070
     1
1071
        8
1005
590BF
  0
LWPOLYLINE
  5
590C0
330
590AC
100
AcDbEntity
  8
BLKLINE
100
AcDbPolyline
 90
        2
 70
     0
 43
0.0
 10
1.5
 20
2.6875
 10
1.5
 20
3.125
1001
AcDbBlockRepETag
1070
     1
1071
        9
1005
590C0
  0
LWPOLYLINE
  5
590C1
330
590AC
100
AcDbEntity
  8
BLKLINE
100
AcDbPolyline
 90
        4
 70
     1
 43
0.0
 10
0.5
 20
3.125
 10
4.0
 20
3.125
 10
4.0
 20
0.375
 10
0.5
 20
0.375
1001
AcDbBlockRepETag
1070
     1
1071
       10
1005
590C1
  0
LWPOLYLINE
  5
590C2
330
590AC
100
AcDbEntity
  8
BLKLINE
100
AcDbPolyline
 90
        2
 70
     0
 43
0.0
 10
0.5
 20
1.9375
 10
4.0
 20
1.9375
1001
AcDbBlockRepETag
1070
     1
1071
       11
1005
590C2
  0
LWPOLYLINE
  5
590C3
330
590AC
100
AcDbEntity
  8
BLKLINE
100
AcDbPolyline
 90
        2
 70
     0
 43
0.0
 10
0.5
 20
0.75
 10
4.0
 20
0.75
1001
AcDbBlockRepETag
1070
     1
1071
       12
1005
590C3
  0
LWPOLYLINE
  5
590C4
330
590AC
100
AcDbEntity
  8
BLKLINE
100
AcDbPolyline
 90
        2
 70
     0
 43
0.0
 10
1.5
 20
0.75
 10
1.5
 20
0.375
1001
AcDbBlockRepETag
1070
     1
1071
       13
1005
590C4
  0
LWPOLYLINE
  5
590C5
330
590AC
100
AcDbEntity
  8
BLKLINE
100
AcDbPolyline
 90
        2
 70
     0
 43
0.0
 10
2.375
 20
0.75
 10
2.375
 20
0.375
1001
AcDbBlockRepETag
1070
     1
1071
       14
1005
590C5
  0
MTEXT
  5
590C6
330
590AC
100
AcDbEntity
  8
BLKTEXTA
100
AcDbMText
 10
0.53125
 20
3.0625
 30
0.0
 40
0.0625
 41
1.0
 46
0.0
 71
     1
 72
     5
  1
CUST NO:
  7
BLKTXTA
 73
     1
 44
1.0
1001
AcDbBlockRepETag
1070
     1
1071
       15
1005
590C6
  0
MTEXT
  5
590C7
330
590AC
100
AcDbEntity
  8
BLKTEXTA
100
AcDbMText
 10
1.53125
 20
3.0625
 30
0.0
 40
0.0625
 41
1.0
 46
0.0625
 71
     1
 72
     5
  1
CUSTOMER NAME:
  7
BLKTXTA
 73
     1
 44
1.0
1001
AcDbBlockRepETag
1070
     1
1071
       16
1005
590C7
1001
ACAD
1000
ACAD_MTEXT_DEFINED_HEIGHT_BEGIN
1070
    46
1040
0.0625
1000
ACAD_MTEXT_DEFINED_HEIGHT_END
  0
MTEXT
  5
590C8
330
590AC
100
AcDbEntity
  8
BLKTEXTA
100
AcDbMText
 10
2.78125
 20
3.0625
 30
0.0
 40
0.0625
 41
1.0
 46
0.0625
 71
     1
 72
     5
  1
WO NO:
  7
BLKTXTA
 73
     1
 44
1.0
1001
AcDbBlockRepETag
1070
     1
1071
       17
1005
590C8
1001
ACAD
1000
ACAD_MTEXT_DEFINED_HEIGHT_BEGIN
1070
    46
1040
0.0625
1000
ACAD_MTEXT_DEFINED_HEIGHT_END
  0
MTEXT
  5
590C9
330
590AC
100
AcDbEntity
  8
BLKTEXTA
100
AcDbMText
 10
2.78125
 20
2.625
 30
0.0
 40
0.0625
 41
1.0
 46
0.0
 71
     1
 72
     5
  1
DATE:
  7
BLKTXTA
 73
     1
 44
1.0
1001
AcDbBlockRepETag
1070
     1
1071
       18
1005
590C9
  0
MTEXT
  5
590CA
330
590AC
100
AcDbEntity
  8
BLKTEXTA
100
AcDbMText
 10
0.5312499999999999
 20
2.625
 30
0.0
 40
0.0625
 41
1.0
 46
0.0937499999999996
 71
     1
 72
     5
  1
CUST PO NO:
  7
BLKTXTA
 73
     1
 44
1.0
1001
AcDbBlockRepETag
1070
     1
1071
       19
1005
590CA
1001
ACAD
1000
ACAD_MTEXT_DEFINED_HEIGHT_BEGIN
1070
    46
1040
0.0937499999999996
1000
ACAD_MTEXT_DEFINED_HEIGHT_END
  0
MTEXT
  5
590CB
330
590AC
100
AcDbEntity
  8
BLKTEXTA
100
AcDbMText
 10
0.53125
 20
1.90625
 30
0.0
 40
0.0625
 41
1.0
 46
0.0625
 71
     1
 72
     5
  1
PROJECT NAME:
  7
BLKTXTA
 73
     1
 44
1.0
1001
AcDbBlockRepETag
1070
     1
1071
       20
1005
590CB
1001
ACAD
1000
ACAD_MTEXT_DEFINED_HEIGHT_BEGIN
1070
    46
1040
0.0625
1000
ACAD_MTEXT_DEFINED_HEIGHT_END
  0
MTEXT
  5
590CC
330
590AC
100
AcDbEntity
  8
BLKTEXTA
100
AcDbMText
 10
0.53125
 20
1.71875
 30
0.0
 40
0.0625
 41
1.0
 46
0.0625
 71
     1
 72
     5
  1
LOCATION:
  7
BLKTXTA
 73
     1
 44
1.0
1001
AcDbBlockRepETag
1070
     1
1071
       21
1005
590CC
1001
ACAD
1000
ACAD_MTEXT_DEFINED_HEIGHT_BEGIN
1070
    46
1040
0.0625
1000
ACAD_MTEXT_DEFINED_HEIGHT_END
  0
MTEXT
  5
590CD
330
590AC
100
AcDbEntity
  8
BLKTEXTA
100
AcDbMText
 10
0.53125
 20
1.53125
 30
0.0
 40
0.0625
 41
1.0
 46
0.0625
 71
     1
 72
     5
  1
ARCHITECT:
  7
BLKTXTA
 73
     1
 44
1.0
1001
AcDbBlockRepETag
1070
     1
1071
       22
1005
590CD
1001
ACAD
1000
ACAD_MTEXT_DEFINED_HEIGHT_BEGIN
1070
    46
1040
0.0625
1000
ACAD_MTEXT_DEFINED_HEIGHT_END
  0
MTEXT
  5
590CE
330
590AC
100
AcDbEntity
  8
BLKTEXTA
100
AcDbMText
 10
0.53125
 20
1.34375
 30
0.0
 40
0.0625
 41
1.0
 46
0.0625
 71
     1
 72
     5
  1
CONTRACTOR:
  7
BLKTXTA
 73
     1
 44
1.0
1001
AcDbBlockRepETag
1070
     1
1071
       23
1005
590CE
1001
ACAD
1000
ACAD_MTEXT_DEFINED_HEIGHT_BEGIN
1070
    46
1040
0.0625
1000
ACAD_MTEXT_DEFINED_HEIGHT_END
  0
MTEXT
  5
590CF
330
590AC
100
AcDbEntity
  8
BLKTEXTA
100
AcDbMText
 10
0.53125
 20
1.125
 30
0.0
 40
0.0625
 41
1.0
 46
0.0625
 71
     1
 72
     5
  1
TITLE;
  7
BLKTXTA
 73
     1
 44
1.0
1001
AcDbBlockRepETag
1070
     1
1071
       24
1005
590CF
1001
ACAD
1000
ACAD_MTEXT_DEFINED_HEIGHT_BEGIN
1070
    46
1040
0.0625
1000
ACAD_MTEXT_DEFINED_HEIGHT_END
  0
MTEXT
  5
590D0
330
590AC
100
AcDbEntity
  8
BLKTEXTA
100
AcDbMText
 10
1.53125
 20
0.6875
 30
0.0
 40
0.0625
 41
1.0
 46
0.0625
 71
     1
 72
     5
  1
JOB NO:
  7
BLKTXTA
 73
     1
 44
1.0
1001
AcDbBlockRepETag
1070
     1
1071
       25
1005
590D0
1001
ACAD
1000
ACAD_MTEXT_DEFINED_HEIGHT_BEGIN
1070
    46
1040
0.0625
1000
ACAD_MTEXT_DEFINED_HEIGHT_END
  0
MTEXT
  5
590D1
330
590AC
100
AcDbEntity
  8
BLKTEXTA
100
AcDbMText
 10
2.40625
 20
0.6875
 30
0.0
 40
0.0625
 41
1.0
 46
0.0625
 71
     1
 72
     5
  1
DWG NO:
  7
BLKTXTA
 73
     1
 44
1.0
1001
AcDbBlockRepETag
1070
     1
1071
       26
1005
590D1
1001
ACAD
1000
ACAD_MTEXT_DEFINED_HEIGHT_BEGIN
1070
    46
1040
0.0625
1000
ACAD_MTEXT_DEFINED_HEIGHT_END
  0
MTEXT
  5
590D2
330
590AC
100
AcDbEntity
  8
BLKTEXTA
100
AcDbMText
 10
0.53125
 20
0.6875
 30
0.0
 40
0.0625
 41
1.0
 46
0.0625
 71
     1
 72
     5
  1
DRAWN BY:
  7
BLKTXTA
 73
     1
 44
1.0
1001
AcDbBlockRepETag
1070
     1
1071
       27
1005
590D2
1001
ACAD
1000
ACAD_MTEXT_DEFINED_HEIGHT_BEGIN
1070
    46
1040
0.0625
1000
ACAD_MTEXT_DEFINED_HEIGHT_END
  0
TEXT
  5
590D3
330
590AC
100
AcDbEntity
  8
BLKLOGO
  6
Continuous
 62
     7
100
AcDbText
 10
0.5274053669565415
 20
2.018338080174006
 30
0.0
 40
0.25
  1
ASI
  7
LOGO
 11
0.5274053669565415
 21
2.268338080174006
 31
0.0
100
AcDbText
 73
     3
1001
AcDbBlockRepETag
1070
     1
1071
       28
1005
590D3
  0
TEXT
  5
590D4
330
590AC
100
AcDbEntity
  8
BLKLOGO
  6
Continuous
 62
     7
100
AcDbText
 10
1.122933515542868
 20
2.163172835326942
 30
0.0
 40
0.09375
  1
AMERICAN SPECIALTIES, INC.
  7
LOGOA
 11
1.122933515542868
 21
2.256922835326942
 31
0.0
100
AcDbText
 73
     3
1001
AcDbBlockRepETag
1070
     1
1071
       29
1005
590D4
  0
TEXT
  5
590D5
330
590AC
100
AcDbEntity
  8
BLKLOGO
  6
Continuous
 62
     7
100
AcDbText
 10
1.122933515542868
 20
2.006393454253374
 30
0.0
 40
0.09375
  1
441 Saw Mill River Rd, Yonkers, NY 10701-4913
  7
LOGOA
 11
1.122933515542868
 21
2.100143454253374
 31
0.0
100
AcDbText
 73
     3
1001
AcDbBlockRepETag
1070
     1
1071
       30
1005
590D5
  0
ATTDEF
  5
590D6
330
590AC
100
AcDbEntity
  8
BLKTEXTB
100
AcDbText
 10
2.78125
 20
2.8125
 30
0.0
 40
0.125
  1
99999999
  7
BLKTXTB
 11
2.78125
 21
2.9375
 31
0.0
100
AcDbAttributeDefinition
280
     0
  3
WORK ORDER NO
  2
WORKORDERNO
 70
     0
 74
     3
280
     1
1001
AcDbBlockRepETag
1070
     1
1071
       31
1005
0
  0
ATTDEF
  5
590D7
330
590AC
100
AcDbEntity
  8
BLKTEXTB
100
AcDbText
 10
0.53125
 20
2.8125
 30
0.0
 40
0.125
  1
WWW 999
  7
BLKTXTB
 11
0.53125
 21
2.9375
 31
0.0
100
AcDbAttributeDefinition
280
     0
  3
CUST #
  2
CUSTNO
 70
     0
 74
     3
280
     1
1001
AcDbBlockRepETag
1070
     1
1071
       32
1005
0
  0
ATTDEF
  5
590D8
330
590AC
100
AcDbEntity
  8
BLKTEXTB
100
AcDbText
 10
0.53125
 20
2.375
 30
0.0
 40
0.125
  1
WWWWWWWWW
  7
BLKTXTB
 11
0.53125
 21
2.5
 31
0.0
100
AcDbAttributeDefinition
280
     0
  3
CUSTPONO
  2
CUSTPONO
 70
     0
 74
     3
280
     1
1001
AcDbBlockRepETag
1070
     1
1071
       33
1005
0
  0
ATTDEF
  5
590D9
330
590AC
100
AcDbEntity
  8
BLKTEXTB
100
AcDbText
 10
2.78125
 20
2.375
 30
0.0
 40
0.125
  1
99-WWW-99
  7
BLKTXTB
 11
2.78125
 21
2.5
 31
0.0
100
AcDbAttributeDefinition
280
     0
  3
DATE
  2
DATE
 70
     0
 74
     3
280
     1
1001
AcDbBlockRepETag
1070
     1
1071
       34
1005
0
  0
ATTDEF
  5
590DA
330
590AC
100
AcDbEntity
  8
BLKTEXTB
100
AcDbText
 10
0.53125
 20
0.875
 30
0.0
 40
0.125
  1
W9W9W9W9W9W9W9W9W9WW
  7
BLKTXTB
 11
0.53125
 21
1.0
 31
0.0
100
AcDbAttributeDefinition
280
     0
  3
DRAWING TITLE
  2
DRAWINGTITLE
 70
     0
 74
     3
280
     1
1001
AcDbBlockRepETag
1070
     1
1071
       35
1005
0
  0
ATTDEF
  5
590DB
330
590AC
100
AcDbEntity
  8
BLKTEXTB
100
AcDbText
 10
0.53125
 20
0.4375
 30
0.0
 40
0.125
  1
XXX
  7
BLKTXTB
 11
0.53125
 21
0.5625
 31
0.0
100
AcDbAttributeDefinition
280
     0
  3
DRAWN BY
  2
DWRNBY
 70
     0
 74
     3
280
     1
1001
AcDbBlockRepETag
1070
     1
1071
       36
1005
0
  0
ATTDEF
  5
590DC
330
590AC
100
AcDbEntity
  8
BLKTEXTB
100
AcDbText
 10
1.53125
 20
0.4375
 30
0.0
 40
0.125
  1
9999999
  7
BLKTXTB
 11
1.53125
 21
0.5625
 31
0.0
100
AcDbAttributeDefinition
280
     0
  3
JOB NO
  2
JOBNO
 70
     0
 74
     3
280
     1
1001
AcDbBlockRepETag
1070
     1
1071
       37
1005
0
  0
ATTDEF
  5
590DD
330
590AC
100
AcDbEntity
  8
BLKTEXTB
100
AcDbText
 10
2.40625
 20
0.4375
 30
0.0
 40
0.125
  1
YRMTDYTIMEXXX
  7
BLKTXTB
 11
2.40625
 21
0.5625
 31
0.0
100
AcDbAttributeDefinition
280
     0
  3
DWG NO
  2
DWGNO
 70
     0
 74
     3
280
     1
1001
AcDbBlockRepETag
1070
     1
1071
       38
1005
0
  0
ENDBLK
  5
590DE
330
590AC
100
AcDbEntity
  8
0
100
AcDbBlockEnd
  0
BLOCK
  5
5910C
330
5910B
100
AcDbEntity
  8
0
100
AcDbBlockBegin
  2
*D6
 70
     1
 10
0.0
 20
0.0
 30
0.0
  3
*D6
  1

  0
LINE
  5
5910D
330
5910B
100
AcDbEntity
  8
DWGDIM
 62
     0
370
    -2
100
AcDbLine
 10
1.331893594863622
 20
7.218406776012738
 30
0.0
 11
0.7566269565756301
 21
7.218406776012738
 31
0.0
  0
LINE
  5
5910E
330
5910B
100
AcDbEntity
  8
DWGDIM
 62
     0
370
    -2
100
AcDbLine
 10
1.331893594863622
 20
5.218406776012738
 30
0.0
 11
0.7566269565756297
 21
5.218406776012738
 31
0.0
  0
LINE
  5
5910F
330
5910B
100
AcDbEntity
  8
DWGDIM
 62
     0
370
    -2
100
AcDbLine
 10
0.9366269565756301
 20
7.093406776012738
 30
0.0
 11
0.9366269565756299
 21
6.519716299822261
 31
0.0
  0
LINE
  5
59110
330
5910B
100
AcDbEntity
  8
DWGDIM
 62
     0
370
    -2
100
AcDbLine
 10
0.9366269565756297
 20
5.343406776012738
 30
0.0
 11
0.9366269565756299
 21
5.917097252203214
 31
0.0
  0
SOLID
  5
59111
330
5910B
100
AcDbEntity
  8
DWGDIM
 62
     0
100
AcDbTrace
 10
0.9157936232422967
 20
7.093406776012738
 30
0.0
 11
0.9574602899089635
 21
7.093406776012738
 31
0.0
 12
0.9366269565756301
 22
7.218406776012738
 32
0.0
 13
0.9366269565756301
 23
7.218406776012738
 33
0.0
  0
SOLID
  5
59112
330
5910B
100
AcDbEntity
  8
DWGDIM
 62
     0
100
AcDbTrace
 10
0.9157936232422963
 20
5.343406776012738
 30
0.0
 11
0.9574602899089631
 21
5.343406776012738
 31
0.0
 12
0.9366269565756295
 22
5.218406776012738
 32
0.0
 13
0.9366269565756295
 23
5.218406776012738
 33
0.0
  0
MTEXT
  5
59113
330
5910B
100
AcDbEntity
  8
DWGDIM
 62
     0
100
AcDbMText
 10
0.9366269565756288
 20
6.218406776012738
 30
0.0
 40
0.125
 41
0.0
 46
0.0
 71
     5
 72
     1
  1
\A1;2"\P [51MM]
  7
Roman
 73
     1
 44
1.0
  0
POINT
  5
59114
330
5910B
100
AcDbEntity
  8
Defpoints
 62
     0
100
AcDbPoint
 10
1.394393594863622
 20
7.218406776012738
 30
0.0
  0
POINT
  5
59115
330
5910B
100
AcDbEntity
  8
Defpoints
 62
     0
100
AcDbPoint
 10
1.394393594863622
 20
5.218406776012738
 30
0.0
  0
POINT
  5
59116
330
5910B
100
AcDbEntity
  8
Defpoints
 62
     0
100
AcDbPoint
 10
0.9366269565756295
 20
5.218406776012738
 30
0.0
  0
ENDBLK
  5
59117
330
5910B
100
AcDbEntity
  8
0
100
AcDbBlockEnd
  0
BLOCK
  5
59119
330
59118
100
AcDbEntity
  8
0
100
AcDbBlockBegin
  2
*D7
 70
     1
 10
0.0
 20
0.0
 30
0.0
  3
*D7
  1

  0
LINE
  5
5911A
330
59118
100
AcDbEntity
  8
DWGDIM
 62
     0
370
    -2
100
AcDbLine
 10
1.394393594863622
 20
5.155906776012738
 30
0.0
 11
1.394393594863622
 21
4.722945090025012
 31
0.0
  0
LINE
  5
5911B
330
59118
100
AcDbEntity
  8
DWGDIM
 62
     0
370
    -2
100
AcDbLine
 10
2.394393594863622
 20
5.155906776012738
 30
0.0
 11
2.394393594863622
 21
4.722945090025012
 31
0.0
  0
LINE
  5
5911C
330
59118
100
AcDbEntity
  8
DWGDIM
 62
     0
370
    -2
100
AcDbLine
 10
1.269393594863622
 20
4.902945090025012
 30
0.0
 11
1.144393594863622
 21
4.902945090025012
 31
0.0
  0
LINE
  5
5911D
330
59118
100
AcDbEntity
  8
DWGDIM
 62
     0
370
    -2
100
AcDbLine
 10
2.519393594863622
 20
4.902945090025012
 30
0.0
 11
2.644393594863622
 21
4.902945090025012
 31
0.0
  0
SOLID
  5
5911E
330
59118
100
AcDbEntity
  8
DWGDIM
 62
     0
100
AcDbTrace
 10
1.269393594863622
 20
4.923778423358345
 30
0.0
 11
1.269393594863622
 21
4.882111756691679
 31
0.0
 12
1.394393594863622
 22
4.902945090025012
 32
0.0
 13
1.394393594863622
 23
4.902945090025012
 33
0.0
  0
SOLID
  5
5911F
330
59118
100
AcDbEntity
  8
DWGDIM
 62
     0
100
AcDbTrace
 10
2.519393594863622
 20
4.923778423358345
 30
0.0
 11
2.519393594863622
 21
4.882111756691679
 31
0.0
 12
2.394393594863622
 22
4.902945090025012
 32
0.0
 13
2.394393594863622
 23
4.902945090025012
 33
0.0
  0
MTEXT
  5
59120
330
59118
100
AcDbEntity
  8
DWGDIM
 62
     0
100
AcDbMText
 10
1.894393594863622
 20
5.067349851929773
 30
0.0
 40
0.125
 41
0.0
 46
0.0
 71
     5
 72
     1
  1
\A1;1"
  7
Roman
 73
     1
 44
1.0
  0
MTEXT
  5
59121
330
59118
100
AcDbEntity
  8
DWGDIM
 62
     0
100
AcDbMText
 10
1.894393594863622
 20
4.717706994786917
 30
0.0
 40
0.125
 41
0.0
 46
0.0
 71
     5
 72
     1
  1
\A1;[25MM]
  7
Roman
 73
     1
 44
1.0
  0
POINT
  5
59122
330
59118
100
AcDbEntity
  8
Defpoints
 62
     0
100
AcDbPoint
 10
1.394393594863622
 20
5.218406776012738
 30
0.0
  0
POINT
  5
59123
330
59118
100
AcDbEntity
  8
Defpoints
 62
     0
100
AcDbPoint
 10
2.394393594863622
 20
5.218406776012738
 30
0.0
  0
POINT
  5
59124
330
59118
100
AcDbEntity
  8
Defpoints
 62
     0
100
AcDbPoint
 10
2.394393594863622
 20
4.902945090025012
 30
0.0
  0
ENDBLK
  5
59125
330
59118
100
AcDbEntity
  8
0
100
AcDbBlockEnd
  0
BLOCK
  5
59127
330
59126
100
AcDbEntity
  8
0
100
AcDbBlockBegin
  2
*D8
 70
     1
 10
0.0
 20
0.0
 30
0.0
  3
*D8
  1

  0
LINE
  5
59128
330
59126
100
AcDbEntity
  8
DWGDIM
 62
     0
370
    -2
100
AcDbLine
 10
3.394393594863622
 20
1.780906776012737
 30
0.0
 11
3.394393594863622
 21
2.535290400577118
 31
0.0
  0
LINE
  5
59129
330
59126
100
AcDbEntity
  8
DWGDIM
 62
     0
370
    -2
100
AcDbLine
 10
5.644393594863622
 20
1.780906776012738
 30
0.0
 11
5.644393594863622
 21
2.535290400577118
 31
0.0
  0
LINE
  5
5912A
330
59126
100
AcDbEntity
  8
DWGDIM
 62
     0
370
    -2
100
AcDbLine
 10
3.519393594863622
 20
2.355290400577119
 30
0.0
 11
4.081179309149336
 21
2.355290400577119
 31
0.0
  0
LINE
  5
5912B
330
59126
100
AcDbEntity
  8
DWGDIM
 62
     0
370
    -2
100
AcDbLine
 10
5.519393594863622
 20
2.355290400577119
 30
0.0
 11
4.957607880577907
 21
2.355290400577119
 31
0.0
  0
SOLID
  5
5912C
330
59126
100
AcDbEntity
  8
DWGDIM
 62
     0
100
AcDbTrace
 10
3.519393594863622
 20
2.376123733910452
 30
0.0
 11
3.519393594863622
 21
2.334457067243785
 31
0.0
 12
3.394393594863622
 22
2.355290400577119
 32
0.0
 13
3.394393594863622
 23
2.355290400577119
 33
0.0
  0
SOLID
  5
5912D
330
59126
100
AcDbEntity
  8
DWGDIM
 62
     0
100
AcDbTrace
 10
5.519393594863622
 20
2.376123733910452
 30
0.0
 11
5.519393594863622
 21
2.334457067243785
 31
0.0
 12
5.644393594863622
 22
2.355290400577119
 32
0.0
 13
5.644393594863622
 23
2.355290400577119
 33
0.0
  0
MTEXT
  5
5912E
330
59126
100
AcDbEntity
  8
DWGDIM
 62
     0
100
AcDbMText
 10
4.519393594863622
 20
2.355290400577119
 30
0.0
 40
0.125
 41
0.0
 46
0.0
 71
     5
 72
     1
  1
\A1;2-1/4"\P[57MM]
  7
Roman
 73
     1
 44
1.0
  0
POINT
  5
5912F
330
59126
100
AcDbEntity
  8
Defpoints
 62
     0
100
AcDbPoint
 10
3.394393594863622
 20
1.718406776012737
 30
0.0
  0
POINT
  5
59130
330
59126
100
AcDbEntity
  8
Defpoints
 62
     0
100
AcDbPoint
 10
5.644393594863622
 20
1.718406776012738
 30
0.0
  0
POINT
  5
59131
330
59126
100
AcDbEntity
  8
Defpoints
 62
     0
100
AcDbPoint
 10
5.644393594863622
 20
2.355290400577119
 30
0.0
  0
ENDBLK
  5
59132
330
59126
100
AcDbEntity
  8
0
100
AcDbBlockEnd
  0
BLOCK
  5
59134
330
59133
100
AcDbEntity
  8
0
100
AcDbBlockBegin
  2
*D9
 70
     1
 10
0.0
 20
0.0
 30
0.0
  3
*D9
  1

  0
LINE
  5
59135
330
59133
100
AcDbEntity
  8
DWGDIM
 62
     0
370
    -2
100
AcDbLine
 10
5.644393594863622
 20
1.780906776012738
 30
0.0
 11
5.644393594863622
 21
2.535290400577118
 31
0.0
  0
LINE
  5
59136
330
59133
100
AcDbEntity
  8
DWGDIM
 62
     0
370
    -2
100
AcDbLine
 10
7.644393594863622
 20
2.280906776012737
 30
0.0
 11
7.644393594863622
 21
2.535290400577119
 31
0.0
  0
LINE
  5
59137
330
59133
100
AcDbEntity
  8
DWGDIM
 62
     0
370
    -2
100
AcDbLine
 10
5.769393594863622
 20
2.355290400577119
 30
0.0
 11
6.176417404387431
 21
2.355290400577119
 31
0.0
  0
LINE
  5
59138
330
59133
100
AcDbEntity
  8
DWGDIM
 62
     0
370
    -2
100
AcDbLine
 10
7.519393594863622
 20
2.355290400577119
 30
0.0
 11
7.112369785339812
 21
2.355290400577119
 31
0.0
  0
SOLID
  5
59139
330
59133
100
AcDbEntity
  8
DWGDIM
 62
     0
100
AcDbTrace
 10
5.769393594863622
 20
2.376123733910452
 30
0.0
 11
5.769393594863622
 21
2.334457067243785
 31
0.0
 12
5.644393594863622
 22
2.355290400577119
 32
0.0
 13
5.644393594863622
 23
2.355290400577119
 33
0.0
  0
SOLID
  5
5913A
330
59133
100
AcDbEntity
  8
DWGDIM
 62
     0
100
AcDbTrace
 10
7.519393594863622
 20
2.376123733910452
 30
0.0
 11
7.519393594863622
 21
2.334457067243785
 31
0.0
 12
7.644393594863622
 22
2.355290400577119
 32
0.0
 13
7.644393594863622
 23
2.355290400577119
 33
0.0
  0
MTEXT
  5
5913B
330
59133
100
AcDbEntity
  8
DWGDIM
 62
     0
100
AcDbMText
 10
6.644393594863622
 20
2.355290400577119
 30
0.0
 40
0.125
 41
0.0
 46
0.0
 71
     5
 72
     1
  1
\A1;17"\P[432MM]
  7
Roman
 73
     1
 44
1.0
  0
POINT
  5
5913C
330
59133
100
AcDbEntity
  8
Defpoints
 62
     0
100
AcDbPoint
 10
5.644393594863622
 20
1.718406776012738
 30
0.0
  0
POINT
  5
5913D
330
59133
100
AcDbEntity
  8
Defpoints
 62
     0
100
AcDbPoint
 10
7.644393594863622
 20
2.218406776012737
 30
0.0
  0
POINT
  5
5913E
330
59133
100
AcDbEntity
  8
Defpoints
 62
     0
100
AcDbPoint
 10
7.644393594863622
 20
2.355290400577119
 30
0.0
  0
ENDBLK
  5
5913F
330
59133
100
AcDbEntity
  8
0
100
AcDbBlockEnd
  0
BLOCK
  5
59141
330
59140
100
AcDbEntity
  8
0
100
AcDbBlockBegin
  2
*D10
 70
     1
 10
0.0
 20
0.0
 30
0.0
  3
*D10
  1

  0
LINE
  5
59142
330
59140
100
AcDbEntity
  8
DWGDIM
 62
     0
370
    -2
100
AcDbLine
 10
7.644393594863622
 20
2.280906776012737
 30
0.0
 11
7.644393594863622
 21
2.535290400577119
 31
0.0
  0
LINE
  5
59143
330
59140
100
AcDbEntity
  8
DWGDIM
 62
     0
370
    -2
100
AcDbLine
 10
10.64439359486362
 20
2.280906776012737
 30
0.0
 11
10.64439359486362
 21
2.535290400577119
 31
0.0
  0
LINE
  5
59144
330
59140
100
AcDbEntity
  8
DWGDIM
 62
     0
370
    -2
100
AcDbLine
 10
7.769393594863622
 20
2.355290400577119
 30
0.0
 11
8.676417404387432
 21
2.355290400577119
 31
0.0
  0
LINE
  5
59145
330
59140
100
AcDbEntity
  8
DWGDIM
 62
     0
370
    -2
100
AcDbLine
 10
10.51939359486362
 20
2.355290400577119
 30
0.0
 11
9.612369785339812
 21
2.355290400577119
 31
0.0
  0
SOLID
  5
59146
330
59140
100
AcDbEntity
  8
DWGDIM
 62
     0
100
AcDbTrace
 10
7.769393594863622
 20
2.376123733910452
 30
0.0
 11
7.769393594863622
 21
2.334457067243785
 31
0.0
 12
7.644393594863622
 22
2.355290400577119
 32
0.0
 13
7.644393594863622
 23
2.355290400577119
 33
0.0
  0
SOLID
  5
59147
330
59140
100
AcDbEntity
  8
DWGDIM
 62
     0
100
AcDbTrace
 10
10.51939359486362
 20
2.376123733910452
 30
0.0
 11
10.51939359486362
 21
2.334457067243785
 31
0.0
 12
10.64439359486362
 22
2.355290400577119
 32
0.0
 13
10.64439359486362
 23
2.355290400577119
 33
0.0
  0
MTEXT
  5
59148
330
59140
100
AcDbEntity
  8
DWGDIM
 62
     0
100
AcDbMText
 10
9.144393594863622
 20
2.355290400577119
 30
0.0
 40
0.125
 41
0.0
 46
0.0
 71
     5
 72
     1
  1
\A1;18"\P[457MM]
  7
Roman
 73
     1
 44
1.0
  0
POINT
  5
59149
330
59140
100
AcDbEntity
  8
Defpoints
 62
     0
100
AcDbPoint
 10
7.644393594863622
 20
2.218406776012737
 30
0.0
  0
POINT
  5
5914A
330
59140
100
AcDbEntity
  8
Defpoints
 62
     0
100
AcDbPoint
 10
10.64439359486362
 20
2.218406776012737
 30
0.0
  0
POINT
  5
5914B
330
59140
100
AcDbEntity
  8
Defpoints
 62
     0
100
AcDbPoint
 10
10.64439359486362
 20
2.355290400577119
 30
0.0
  0
ENDBLK
  5
5914C
330
59140
100
AcDbEntity
  8
0
100
AcDbBlockEnd
  0
BLOCK
  5
5914E
330
5914D
100
AcDbEntity
  8
0
100
AcDbBlockBegin
  2
*D11
 70
     1
 10
0.0
 20
0.0
 30
0.0
  3
*D11
  1

  0
LINE
  5
5914F
330
5914D
100
AcDbEntity
  8
DWGDIM
 62
     0
370
    -2
100
AcDbLine
 10
10.64439359486362
 20
2.280906776012737
 30
0.0
 11
10.64439359486362
 21
2.535290400577119
 31
0.0
  0
LINE
  5
59150
330
5914D
100
AcDbEntity
  8
DWGDIM
 62
     0
370
    -2
100
AcDbLine
 10
13.64439359486362
 20
2.280906776012737
 30
0.0
 11
13.64439359486362
 21
2.535290400577119
 31
0.0
  0
LINE
  5
59151
330
5914D
100
AcDbEntity
  8
DWGDIM
 62
     0
370
    -2
100
AcDbLine
 10
10.76939359486362
 20
2.355290400577119
 30
0.0
 11
11.67641740438743
 21
2.355290400577119
 31
0.0
  0
LINE
  5
59152
330
5914D
100
AcDbEntity
  8
DWGDIM
 62
     0
370
    -2
100
AcDbLine
 10
13.51939359486362
 20
2.355290400577119
 30
0.0
 11
12.61236978533981
 21
2.355290400577119
 31
0.0
  0
SOLID
  5
59153
330
5914D
100
AcDbEntity
  8
DWGDIM
 62
     0
100
AcDbTrace
 10
10.76939359486362
 20
2.376123733910452
 30
0.0
 11
10.76939359486362
 21
2.334457067243785
 31
0.0
 12
10.64439359486362
 22
2.355290400577119
 32
0.0
 13
10.64439359486362
 23
2.355290400577119
 33
0.0
  0
SOLID
  5
59154
330
5914D
100
AcDbEntity
  8
DWGDIM
 62
     0
100
AcDbTrace
 10
13.51939359486362
 20
2.376123733910452
 30
0.0
 11
13.51939359486362
 21
2.334457067243785
 31
0.0
 12
13.64439359486362
 22
2.355290400577119
 32
0.0
 13
13.64439359486362
 23
2.355290400577119
 33
0.0
  0
MTEXT
  5
59155
330
5914D
100
AcDbEntity
  8
DWGDIM
 62
     0
100
AcDbMText
 10
12.14439359486362
 20
2.355290400577119
 30
0.0
 40
0.125
 41
0.0
 46
0.0
 71
     5
 72
     1
  1
\A1;18"\P[457MM]
  7
Roman
 73
     1
 44
1.0
  0
POINT
  5
59156
330
5914D
100
AcDbEntity
  8
Defpoints
 62
     0
100
AcDbPoint
 10
10.64439359486362
 20
2.218406776012737
 30
0.0
  0
POINT
  5
59157
330
5914D
100
AcDbEntity
  8
Defpoints
 62
     0
100
AcDbPoint
 10
13.64439359486362
 20
2.218406776012737
 30
0.0
  0
POINT
  5
59158
330
5914D
100
AcDbEntity
  8
Defpoints
 62
     0
100
AcDbPoint
 10
13.64439359486362
 20
2.355290400577119
 30
0.0
  0
ENDBLK
  5
59159
330
5914D
100
AcDbEntity
  8
0
100
AcDbBlockEnd
  0
BLOCK
  5
5915B
330
5915A
100
AcDbEntity
  8
0
100
AcDbBlockBegin
  2
*D12
 70
     1
 10
0.0
 20
0.0
 30
0.0
  3
*D12
  1

  0
LINE
  5
5915C
330
5915A
100
AcDbEntity
  8
DWGDIM
 62
     0
370
    -2
100
AcDbLine
 10
13.64439359486362
 20
2.280906776012737
 30
0.0
 11
13.64439359486362
 21
2.535290400577119
 31
0.0
  0
LINE
  5
5915D
330
5915A
100
AcDbEntity
  8
DWGDIM
 62
     0
370
    -2
100
AcDbLine
 10
15.89439359486361
 20
1.780906776012738
 30
0.0
 11
15.89439359486361
 21
2.535290400577118
 31
0.0
  0
LINE
  5
5915E
330
5915A
100
AcDbEntity
  8
DWGDIM
 62
     0
370
    -2
100
AcDbLine
 10
13.76939359486362
 20
2.355290400577119
 30
0.0
 11
14.33117930914933
 21
2.355290400577119
 31
0.0
  0
LINE
  5
5915F
330
5915A
100
AcDbEntity
  8
DWGDIM
 62
     0
370
    -2
100
AcDbLine
 10
15.76939359486361
 20
2.355290400577119
 30
0.0
 11
15.2076078805779
 21
2.355290400577119
 31
0.0
  0
SOLID
  5
59160
330
5915A
100
AcDbEntity
  8
DWGDIM
 62
     0
100
AcDbTrace
 10
13.76939359486362
 20
2.376123733910452
 30
0.0
 11
13.76939359486362
 21
2.334457067243785
 31
0.0
 12
13.64439359486362
 22
2.355290400577119
 32
0.0
 13
13.64439359486362
 23
2.355290400577119
 33
0.0
  0
SOLID
  5
59161
330
5915A
100
AcDbEntity
  8
DWGDIM
 62
     0
100
AcDbTrace
 10
15.76939359486361
 20
2.376123733910452
 30
0.0
 11
15.76939359486361
 21
2.334457067243785
 31
0.0
 12
15.89439359486361
 22
2.355290400577119
 32
0.0
 13
15.89439359486361
 23
2.355290400577119
 33
0.0
  0
MTEXT
  5
59162
330
5915A
100
AcDbEntity
  8
DWGDIM
 62
     0
100
AcDbMText
 10
14.76939359486362
 20
2.355290400577119
 30
0.0
 40
0.125
 41
0.0
 46
0.0
 71
     5
 72
     1
  1
\A1;2-1/4"\P[57MM]
  7
Roman
 73
     1
 44
1.0
  0
POINT
  5
59163
330
5915A
100
AcDbEntity
  8
Defpoints
 62
     0
100
AcDbPoint
 10
13.64439359486362
 20
2.218406776012737
 30
0.0
  0
POINT
  5
59164
330
5915A
100
AcDbEntity
  8
Defpoints
 62
     0
100
AcDbPoint
 10
15.89439359486361
 20
1.718406776012738
 30
0.0
  0
POINT
  5
59165
330
5915A
100
AcDbEntity
  8
Defpoints
 62
     0
100
AcDbPoint
 10
15.89439359486361
 20
2.355290400577119
 30
0.0
  0
ENDBLK
  5
59166
330
5915A
100
AcDbEntity
  8
0
100
AcDbBlockEnd
  0
BLOCK
  5
59168
330
59167
100
AcDbEntity
  8
0
100
AcDbBlockBegin
  2
*D13
 70
     1
 10
0.0
 20
0.0
 30
0.0
  3
*D13
  1

  0
LINE
  5
59169
330
59167
100
AcDbEntity
  8
DWGDIM
 62
     0
370
    -2
100
AcDbLine
 10
3.394393594863622
 20
5.55569870442509
 30
0.0
 11
3.394393594863622
 21
6.451238230023165
 31
0.0
  0
LINE
  5
5916A
330
59167
100
AcDbEntity
  8
DWGDIM
 62
     0
370
    -2
100
AcDbLine
 10
15.89439359486361
 20
5.555698704425091
 30
0.0
 11
15.89439359486361
 21
6.451238230023165
 31
0.0
  0
LINE
  5
5916B
330
59167
100
AcDbEntity
  8
DWGDIM
 62
     0
370
    -2
100
AcDbLine
 10
3.519393594863622
 20
6.271238230023166
 30
0.0
 11
9.116893594863618
 21
6.271238230023166
 31
0.0
  0
LINE
  5
5916C
330
59167
100
AcDbEntity
  8
DWGDIM
 62
     0
370
    -2
100
AcDbLine
 10
15.76939359486361
 20
6.271238230023166
 30
0.0
 11
10.17189359486362
 21
6.271238230023166
 31
0.0
  0
SOLID
  5
5916D
330
59167
100
AcDbEntity
  8
DWGDIM
 62
     0
100
AcDbTrace
 10
3.519393594863622
 20
6.292071563356499
 30
0.0
 11
3.519393594863622
 21
6.250404896689833
 31
0.0
 12
3.394393594863622
 22
6.271238230023166
 32
0.0
 13
3.394393594863622
 23
6.271238230023166
 33
0.0
  0
SOLID
  5
5916E
330
59167
100
AcDbEntity
  8
DWGDIM
 62
     0
100
AcDbTrace
 10
15.76939359486361
 20
6.292071563356499
 30
0.0
 11
15.76939359486361
 21
6.250404896689833
 31
0.0
 12
15.89439359486361
 22
6.271238230023166
 32
0.0
 13
15.89439359486361
 23
6.271238230023166
 33
0.0
  0
MTEXT
  5
5916F
330
59167
100
AcDbEntity
  8
DWGDIM
 62
     0
100
AcDbMText
 10
9.644393594863618
 20
6.271238230023166
 30
0.0
 40
0.125
 41
0.0
 46
0.0
 71
     5
 72
     1
  1
\A1;57-1/2"\P[1461MM]
  7
Roman
 73
     1
 44
1.0
  0
POINT
  5
59170
330
59167
100
AcDbEntity
  8
Defpoints
 62
     0
100
AcDbPoint
 10
3.394393594863622
 20
5.49319870442509
 30
0.0
  0
POINT
  5
59171
330
59167
100
AcDbEntity
  8
Defpoints
 62
     0
100
AcDbPoint
 10
15.89439359486361
 20
5.493198704425091
 30
0.0
  0
POINT
  5
59172
330
59167
100
AcDbEntity
  8
Defpoints
 62
     0
100
AcDbPoint
 10
15.89439359486361
 20
6.271238230023166
 30
0.0
  0
ENDBLK
  5
59173
330
59167
100
AcDbEntity
  8
0
100
AcDbBlockEnd
  0
BLOCK
  5
59175
330
59174
100
AcDbEntity
  8
0
100
AcDbBlockBegin
  2
*D14
 70
     1
 10
0.0
 20
0.0
 30
0.0
  3
*D14
  1

  0
LINE
  5
59176
330
59174
100
AcDbEntity
  8
DWGDIM
 62
     0
370
    -2
100
AcDbLine
 10
-4.466178135395683
 20
3.250498788277405
 30
0.0
 11
-3.942031900166973
 21
3.250498788277405
 31
0.0
  0
LINE
  5
59177
330
59174
100
AcDbEntity
  8
DWGDIM
 62
     0
370
    -2
100
AcDbLine
 10
-4.466178135395683
 20
1.2535977115189
 30
0.0
 11
-3.942031900166973
 21
1.2535977115189
 31
0.0
  0
LINE
  5
59178
330
59174
100
AcDbEntity
  8
DWGDIM
 62
     0
370
    -2
100
AcDbLine
 10
-4.122031900166972
 20
3.125498788277405
 30
0.0
 11
-4.122031900166972
 21
2.60169110704101
 31
0.0
  0
LINE
  5
59179
330
59174
100
AcDbEntity
  8
DWGDIM
 62
     0
370
    -2
100
AcDbLine
 10
-4.122031900166973
 20
1.3785977115189
 30
0.0
 11
-4.122031900166973
 21
1.902405392755295
 31
0.0
  0
SOLID
  5
5917A
330
59174
100
AcDbEntity
  8
DWGDIM
 62
     0
100
AcDbTrace
 10
-4.142865233500305
 20
3.125498788277405
 30
0.0
 11
-4.101198566833639
 21
3.125498788277405
 31
0.0
 12
-4.122031900166972
 22
3.250498788277405
 32
0.0
 13
-4.122031900166972
 23
3.250498788277405
 33
0.0
  0
SOLID
  5
5917B
330
59174
100
AcDbEntity
  8
DWGDIM
 62
     0
100
AcDbTrace
 10
-4.142865233500306
 20
1.3785977115189
 30
0.0
 11
-4.10119856683364
 21
1.3785977115189
 31
0.0
 12
-4.122031900166973
 22
1.2535977115189
 32
0.0
 13
-4.122031900166973
 23
1.2535977115189
 33
0.0
  0
MTEXT
  5
5917C
330
59174
100
AcDbEntity
  8
DWGDIM
 62
     0
100
AcDbMText
 10
-4.122031900166973
 20
2.416453011802914
 30
0.0
 40
0.125
 41
0.0
 46
0.0
 71
     5
 72
     1
  1
\A1;2"
  7
Roman
 73
     1
 44
1.0
  0
MTEXT
  5
5917D
330
59174
100
AcDbEntity
  8
DWGDIM
 62
     0
100
AcDbMText
 10
-4.122031900166973
 20
2.066810154660057
 30
0.0
 40
0.125
 41
0.0
 46
0.0
 71
     5
 72
     1
  1
\A1;[51MM]
  7
Roman
 73
     1
 44
1.0
  0
POINT
  5
5917E
330
59174
100
AcDbEntity
  8
Defpoints
 62
     0
100
AcDbPoint
 10
-4.528678135395683
 20
3.250498788277405
 30
0.0
  0
POINT
  5
5917F
330
59174
100
AcDbEntity
  8
Defpoints
 62
     0
100
AcDbPoint
 10
-4.528678135395683
 20
1.2535977115189
 30
0.0
  0
POINT
  5
59180
330
59174
100
AcDbEntity
  8
Defpoints
 62
     0
100
AcDbPoint
 10
-4.122031900166973
 20
1.2535977115189
 30
0.0
  0
ENDBLK
  5
59181
330
59174
100
AcDbEntity
  8
0
100
AcDbBlockEnd
  0
BLOCK
  5
59183
330
59182
100
AcDbEntity
  8
0
100
AcDbBlockBegin
  2
*D15
 70
     1
 10
0.0
 20
0.0
 30
0.0
  3
*D15
  1

  0
LINE
  5
59184
330
59182
100
AcDbEntity
  8
DWGDIM
 62
     0
370
    -2
100
AcDbLine
 10
-4.489634694923531
 20
1.204793410928711
 30
0.0
 11
-4.109585754532043
 21
0.7297322354393501
 31
0.0
  0
LINE
  5
59185
330
59182
100
AcDbEntity
  8
DWGDIM
 62
     0
370
    -2
100
AcDbLine
 10
-5.270503504366563
 20
0.5800983633742876
 30
0.0
 11
-4.890454563975073
 21
0.1050371878849257
 31
0.0
  0
LINE
  5
59186
330
59182
100
AcDbEntity
  8
DWGDIM
 62
     0
370
    -2
100
AcDbLine
 10
-4.12442226191146
 20
0.9483755020833983
 30
0.0
 11
-4.026813660731081
 21
1.026462383027701
 31
0.0
  0
LINE
  5
59187
330
59182
100
AcDbEntity
  8
DWGDIM
 62
     0
370
    -2
100
AcDbLine
 10
-5.100508273715249
 20
0.1675066926403677
 30
0.0
 11
-5.198116874895628
 21
0.0894198116960645
 31
0.0
  0
SOLID
  5
59188
330
59182
100
AcDbEntity
  8
DWGDIM
 62
     0
100
AcDbTrace
 10
-4.137436742068843
 20
0.9646436022801285
 30
0.0
 11
-4.111407781754076
 21
0.9321074018866685
 31
0.0
 12
-4.222030863091839
 22
0.8702886211390952
 32
0.0
 13
-4.222030863091839
 23
0.8702886211390952
 33
0.0
  0
SOLID
  5
59189
330
59182
100
AcDbEntity
  8
DWGDIM
 62
     0
100
AcDbTrace
 10
-5.113522753872633
 20
0.1837747928370978
 30
0.0
 11
-5.087493793557865
 21
0.1512385924436379
 31
0.0
 12
-5.002899672534869
 22
0.2455935735846708
 32
0.0
 13
-5.002899672534869
 23
0.2455935735846708
 33
0.0
  0
MTEXT
  5
5918A
330
59182
100
AcDbEntity
  8
DWGDIM
 62
     0
100
AcDbMText
 10
-4.532637338871023
 20
0.6218034405157478
 30
0.0
 40
0.125
 41
0.0
 46
0.0
 71
     5
 72
     1
  1
\A1;1"\P [25MM]
  7
Roman
 73
     1
 44
1.0
  0
POINT
  5
5918B
330
59182
100
AcDbEntity
  8
Defpoints
 62
     0
100
AcDbPoint
 10
-4.528678135395683
 20
1.2535977115189
 30
0.0
  0
POINT
  5
5918C
330
59182
100
AcDbEntity
  8
Defpoints
 62
     0
100
AcDbPoint
 10
-5.309546944838714
 20
0.6289026639644768
 30
0.0
  0
POINT
  5
5918D
330
59182
100
AcDbEntity
  8
Defpoints
 62
     0
100
AcDbPoint
 10
-5.002899672534869
 20
0.2455935735846708
 30
0.0
  0
ENDBLK
  5
5918E
330
59182
100
AcDbEntity
  8
0
100
AcDbBlockEnd
  0
BLOCK
  5
59190
330
5918F
100
AcDbEntity
  8
0
100
AcDbBlockBegin
  2
*D16
 70
     1
 10
0.0
 20
0.0
 30
0.0
  3
*D16
  1

  0
LINE
  5
59191
330
5918F
100
AcDbEntity
  8
DWGDIM
 62
     0
370
    -2
100
AcDbLine
 10
-5.340796944838714
 20
0.5747760762279491
 30
0.0
 11
-5.611226596006295
 21
0.1063781805325741
 31
0.0
  0
LINE
  5
59192
330
5918F
100
AcDbEntity
  8
DWGDIM
 62
     0
370
    -2
100
AcDbLine
 10
-7.289354103353701
 20
1.699776076227951
 30
0.0
 11
-7.55978375452128
 21
1.231378180532576
 31
0.0
  0
LINE
  5
59193
330
5918F
100
AcDbEntity
  8
DWGDIM
 62
     0
370
    -2
100
AcDbLine
 10
-5.629479771479349
 20
0.3247627532137725
 30
0.0
 11
-6.087052794311405
 21
0.5889426611197722
 31
0.0
  0
LINE
  5
59194
330
5918F
100
AcDbEntity
  8
DWGDIM
 62
     0
370
    -2
100
AcDbLine
 10
-7.361530579048225
 20
1.324762753213774
 30
0.0
 11
-6.903957556216167
 21
1.060582845307774
 31
0.0
  0
SOLID
  5
59195
330
5918F
100
AcDbEntity
  8
DWGDIM
 62
     0
100
AcDbTrace
 10
-5.619063104812683
 20
0.3428049491259486
 30
0.0
 11
-5.639896438146016
 21
0.3067205573015967
 31
0.0
 12
-5.521226596006294
 22
0.2622627532137725
 32
0.0
 13
-5.521226596006294
 23
0.2622627532137725
 33
0.0
  0
SOLID
  5
59196
330
5918F
100
AcDbEntity
  8
DWGDIM
 62
     0
100
AcDbTrace
 10
-7.351113912381558
 20
1.34280494912595
 30
0.0
 11
-7.371947245714892
 21
1.306720557301598
 31
0.0
 12
-7.46978375452128
 22
1.387262753213774
 32
0.0
 13
-7.46978375452128
 23
1.387262753213774
 33
0.0
  0
MTEXT
  5
59197
330
5918F
100
AcDbEntity
  8
DWGDIM
 62
     0
100
AcDbMText
 10
-6.495505175263787
 20
1.060596086547107
 30
0.0
 40
0.125
 41
0.0
 46
0.0
 71
     5
 72
     1
  1
\A1;2{\H1.000000x;\S1/4;}"
  7
Roman
 73
     1
 44
1.0
  0
MTEXT
  5
59198
330
5918F
100
AcDbEntity
  8
DWGDIM
 62
     0
100
AcDbMText
 10
-6.495505175263787
 20
0.6395246579756786
 30
0.0
 40
0.125
 41
0.0
 46
0.0
 71
     5
 72
     1
  1
\A1;[57MM]
  7
Roman
 73
     1
 44
1.0
  0
POINT
  5
59199
330
5918F
100
AcDbEntity
  8
Defpoints
 62
     0
100
AcDbPoint
 10
-5.309546944838714
 20
0.6289026639644766
 30
0.0
  0
POINT
  5
5919A
330
5918F
100
AcDbEntity
  8
Defpoints
 62
     0
100
AcDbPoint
 10
-7.258104103353701
 20
1.753902663964478
 30
0.0
  0
POINT
  5
5919B
330
5918F
100
AcDbEntity
  8
Defpoints
 62
     0
100
AcDbPoint
 10
-7.46978375452128
 20
1.387262753213774
 30
0.0
  0
ENDBLK
  5
5919C
330
5918F
100
AcDbEntity
  8
0
100
AcDbBlockEnd
  0
BLOCK
  5
591A0
330
5919D
100
AcDbEntity
  8
0
100
AcDbBlockBegin
  2
0702061146
 70
     0
 10
0.0
 20
0.0
 30
0.0
  3
0702061146
  1

  0
LWPOLYLINE
  5
591A1
330
5919D
100
AcDbEntity
  8
DWGLNS
100
AcDbPolyline
 90
        3
 70
     0
 43
0.0
 10
1.394393594863622
 20
7.218406776012738
 10
1.394393594863622
 20
5.218406776012738
 10
2.394393594863622
 20
5.218406776012738
  0
LWPOLYLINE
  5
591A2
330
5919D
100
AcDbEntity
  8
DWGLNS
100
AcDbPolyline
 90
        4
 70
     0
 43
0.0
 10
1.442193594863622
 20
7.218406776012738
 10
1.442193594863622
 20
5.266206776012737
 10
2.394393594863622
 20
5.266206776012738
 10
2.394393594863622
 20
5.218406776012738
  0
LWPOLYLINE
  5
591A3
330
5919D
100
AcDbEntity
  8
DWGLNS
100
AcDbPolyline
 90
        2
 70
     0
 43
0.0
 10
1.442193594863622
 20
7.218406776012738
 10
1.394393594863622
 20
7.218406776012738
  0
DIMENSION
  5
591A4
330
5919D
100
AcDbEntity
  8
DWGDIM
100
AcDbDimension
280
     0
  2
*D6
 10
0.9366269565756295
 20
5.218406776012738
 30
0.0
 11
0.9366269565756288
 21
6.218406776012738
 31
0.0
 70
   160
 71
     5
 42
2.0
 73
     0
 74
     0
 75
     0
  3
DWG.125
100
AcDbAlignedDimension
 13
1.394393594863622
 23
7.218406776012738
 33
0.0
 14
1.394393594863622
 24
5.218406776012738
 34
0.0
 50
90.0
100
AcDbRotatedDimension
  0
DIMENSION
  5
591A5
330
5919D
100
AcDbEntity
  8
DWGDIM
100
AcDbDimension
280
     0
  2
*D7
 10
2.394393594863622
 20
4.902945090025012
 30
0.0
 11
1.894393594863622
 21
4.902945090025012
 31
0.0
 70
    32
 71
     5
 73
     0
 74
     0
 75
     0
  3
DWG.125
100
AcDbAlignedDimension
 13
1.394393594863622
 23
5.218406776012738
 33
0.0
 14
2.394393594863622
 24
5.218406776012738
 34
0.0
100
AcDbRotatedDimension
  0
MTEXT
  5
591A6
330
5919D
100
AcDbEntity
  8
DWGDIM
100
AcDbMText
 10
1.439005521512591
 20
4.395705383179077
 30
0.0
 40
0.125
 41
1.01398866885583
 46
0.0
 71
     1
 72
     5
  1
{\LELEVATION}
  7
Roman
 73
     1
 44
1.0
  0
MTEXT
  5
591A7
330
5919D
100
AcDbEntity
  8
DWGDIM
100
AcDbMText
 10
3.439005521512591
 20
4.353613687027049
 30
0.0
 40
0.125
 41
1.01398866885583
 46
0.0
 71
     1
 72
     5
  1
{\LPLAN VIEW}
  7
Roman
 73
     1
 44
1.0
  0
LINE
  5
591A8
330
5919D
100
AcDbEntity
  8
DWGLNS
100
AcDbLine
 10
3.394393594863622
 20
5.49319870442509
 30
0.0
 11
3.394393594863622
 21
4.493198704425091
 31
0.0
  0
LINE
  5
591A9
330
5919D
100
AcDbEntity
  8
DWGLNS
100
AcDbLine
 10
3.394393594863622
 20
4.493198704425091
 30
0.0
 11
15.8943935948636
 21
4.49319870442509
 31
0.0
  0
LINE
  5
591AA
330
5919D
100
AcDbEntity
  8
DWGLNS
100
AcDbLine
 10
3.394393594863622
 20
4.540998704425091
 30
0.0
 11
15.89439359486361
 21
4.540998704425091
 31
0.0
  0
LINE
  5
591AB
330
5919D
100
AcDbEntity
  8
DWGLNS
100
AcDbLine
 10
3.394393594863622
 20
5.493198704425091
 30
0.0
 11
15.89439359486361
 21
5.493198704425091
 31
0.0
  0
LINE
  5
591AC
330
5919D
100
AcDbEntity
  8
DWGLNS
100
AcDbLine
 10
3.394393594863622
 20
5.44539870442509
 30
0.0
 11
15.89439359486361
 21
5.445398704425089
 31
0.0
  0
LINE
  5
591AD
330
5919D
100
AcDbEntity
  8
DWGLNS
100
AcDbLine
 10
15.89439359486361
 20
5.493198704425091
 30
0.0
 11
15.8943935948636
 21
4.49319870442509
 31
0.0
  0
LINE
  5
591AE
330
5919D
100
AcDbEntity
  8
DWGCTR
100
AcDbLine
 10
7.51939359486362
 20
5.493198704425091
 30
0.0
 11
7.51939359486362
 21
5.445398704425091
 31
0.0
  0
LINE
  5
591AF
330
5919D
100
AcDbEntity
  8
DWGCTR
100
AcDbLine
 10
7.51939359486362
 20
4.540998704425091
 30
0.0
 11
7.51939359486362
 21
4.493198704425091
 31
0.0
  0
LINE
  5
591B0
330
5919D
100
AcDbEntity
  8
DWGCTR
100
AcDbLine
 10
7.76939359486362
 20
5.493198704425091
 30
0.0
 11
7.76939359486362
 21
5.445398704425091
 31
0.0
  0
LINE
  5
591B1
330
5919D
100
AcDbEntity
  8
DWGCTR
100
AcDbLine
 10
7.76939359486362
 20
4.540998704425091
 30
0.0
 11
7.76939359486362
 21
4.493198704425091
 31
0.0
  0
LINE
  5
591B2
330
5919D
100
AcDbEntity
  8
DWGCTR
100
AcDbLine
 10
10.51939359486362
 20
5.493198704425091
 30
0.0
 11
10.51939359486362
 21
5.445398704425091
 31
0.0
  0
LINE
  5
591B3
330
5919D
100
AcDbEntity
  8
DWGCTR
100
AcDbLine
 10
10.51939359486362
 20
4.540998704425091
 30
0.0
 11
10.51939359486362
 21
4.493198704425091
 31
0.0
  0
LINE
  5
591B4
330
5919D
100
AcDbEntity
  8
DWGCTR
100
AcDbLine
 10
10.76939359486362
 20
5.493198704425091
 30
0.0
 11
10.76939359486362
 21
5.445398704425091
 31
0.0
  0
LINE
  5
591B5
330
5919D
100
AcDbEntity
  8
DWGCTR
100
AcDbLine
 10
10.76939359486362
 20
4.540998704425091
 30
0.0
 11
10.76939359486362
 21
4.493198704425091
 31
0.0
  0
LINE
  5
591B6
330
5919D
100
AcDbEntity
  8
DWGCTR
100
AcDbLine
 10
13.51939359486362
 20
5.493198704425091
 30
0.0
 11
13.51939359486362
 21
5.445398704425091
 31
0.0
  0
LINE
  5
591B7
330
5919D
100
AcDbEntity
  8
DWGCTR
100
AcDbLine
 10
13.51939359486362
 20
4.540998704425091
 30
0.0
 11
13.51939359486362
 21
4.493198704425091
 31
0.0
  0
LINE
  5
591B8
330
5919D
100
AcDbEntity
  8
DWGCTR
100
AcDbLine
 10
13.76939359486362
 20
5.493198704425091
 30
0.0
 11
13.76939359486362
 21
5.445398704425091
 31
0.0
  0
LINE
  5
591B9
330
5919D
100
AcDbEntity
  8
DWGCTR
100
AcDbLine
 10
13.76939359486362
 20
4.540998704425091
 30
0.0
 11
13.76939359486362
 21
4.493198704425091
 31
0.0
  0
CIRCLE
  5
591BA
330
5919D
100
AcDbEntity
  8
DWGLNS
100
AcDbCircle
 10
5.644393594863622
 20
4.993198704425091
 30
0.0
 40
0.125
  0
CIRCLE
  5
591BB
330
5919D
100
AcDbEntity
  8
DWGLNS
100
AcDbCircle
 10
7.64439359486362
 20
4.993198704425091
 30
0.0
 40
0.125
  0
CIRCLE
  5
591BC
330
5919D
100
AcDbEntity
  8
DWGLNS
100
AcDbCircle
 10
10.64439359486362
 20
4.993198704425091
 30
0.0
 40
0.125
  0
CIRCLE
  5
591BD
330
5919D
100
AcDbEntity
  8
DWGLNS
100
AcDbCircle
 10
13.64439359486362
 20
4.993198704425091
 30
0.0
 40
0.125
  0
MTEXT
  5
591BE
330
5919D
100
AcDbEntity
  8
DWGDIM
100
AcDbMText
 10
3.365661732717982
 20
0.1403375905300166
 30
0.0
 40
0.125
 41
1.977036008686631
 46
0.0
 71
     1
 72
     5
  1
{\LSECTION VIEW}
  7
Roman
 73
     1
 44
1.0
  0
LINE
  5
591BF
330
5919D
100
AcDbEntity
  8
DWGLNS
100
AcDbLine
 10
3.394393594863622
 20
1.718406776012737
 30
0.0
 11
3.394393594863622
 21
0.7184067760127384
 31
0.0
  0
LINE
  5
591C0
330
5919D
100
AcDbEntity
  8
DWGCTR
100
AcDbLine
 10
5.644393594863622
 20
2.218406776012737
 30
0.0
 11
5.644393594863622
 21
0.2184067760127384
 31
0.0
  0
LINE
  5
591C1
330
5919D
100
AcDbEntity
  8
DWGCTR
100
AcDbLine
 10
5.519393594863622
 20
1.718406776012738
 30
0.0
 11
5.519393594863622
 21
1.670606776012738
 31
0.0
  0
LINE
  5
591C2
330
5919D
100
AcDbEntity
  8
DWGCTR
100
AcDbLine
 10
5.519393594863623
 20
0.7662067760127389
 30
0.0
 11
5.519393594863623
 21
0.7184067760127384
 31
0.0
  0
LINE
  5
591C3
330
5919D
100
AcDbEntity
  8
DWGCTR
100
AcDbLine
 10
5.769393594863622
 20
1.718406776012738
 30
0.0
 11
5.769393594863621
 21
1.670606776012738
 31
0.0
  0
LINE
  5
591C4
330
5919D
100
AcDbEntity
  8
DWGCTR
100
AcDbLine
 10
5.769393594863621
 20
0.7662067760127389
 30
0.0
 11
5.769393594863622
 21
0.7184067760127384
 31
0.0
  0
LINE
  5
591C5
330
5919D
100
AcDbEntity
  8
DWGCTR
100
AcDbLine
 10
7.644393594863622
 20
2.218406776012737
 30
0.0
 11
7.644393594863622
 21
0.2184067760127384
 31
0.0
  0
LINE
  5
591C6
330
5919D
100
AcDbEntity
  8
DWGCTR
100
AcDbLine
 10
10.64439359486362
 20
2.218406776012737
 30
0.0
 11
10.64439359486362
 21
0.2184067760127384
 31
0.0
  0
LINE
  5
591C7
330
5919D
100
AcDbEntity
  8
DWGCTR
100
AcDbLine
 10
13.64439359486362
 20
2.218406776012737
 30
0.0
 11
13.64439359486362
 21
0.2184067760127384
 31
0.0
  0
LINE
  5
591C8
330
5919D
100
AcDbEntity
  8
DWGLNS
100
AcDbLine
 10
15.89439359486361
 20
1.718406776012738
 30
0.0
 11
15.8943935948636
 21
0.7184067760127375
 31
0.0
  0
LINE
  5
591C9
330
5919D
100
AcDbEntity
  8
DWGLNS
100
AcDbLine
 10
3.394393594863622
 20
0.7184067760127384
 30
0.0
 11
15.8943935948636
 21
0.7184067760127375
 31
0.0
  0
LINE
  5
591CA
330
5919D
100
AcDbEntity
  8
DWGLNS
100
AcDbLine
 10
3.394393594863622
 20
1.718406776012738
 30
0.0
 11
15.89439359486361
 21
1.718406776012738
 31
0.0
  0
LINE
  5
591CB
330
5919D
100
AcDbEntity
  8
DWGLNS
100
AcDbLine
 10
3.394393594863622
 20
1.670606776012737
 30
0.0
 11
15.89439359486361
 21
1.670606776012736
 31
0.0
  0
LINE
  5
591CC
330
5919D
100
AcDbEntity
  8
DWGLNS
100
AcDbLine
 10
3.394393594863622
 20
0.7662067760127389
 30
0.0
 11
15.89439359486361
 21
0.7662067760127389
 31
0.0
  0
LINE
  5
591CD
330
5919D
100
AcDbEntity
  8
DWGCTR
100
AcDbLine
 10
7.519393594863622
 20
1.718406776012738
 30
0.0
 11
7.519393594863622
 21
1.670606776012738
 31
0.0
  0
LINE
  5
591CE
330
5919D
100
AcDbEntity
  8
DWGCTR
100
AcDbLine
 10
7.519393594863622
 20
0.7662067760127389
 30
0.0
 11
7.519393594863622
 21
0.7184067760127384
 31
0.0
  0
LINE
  5
591CF
330
5919D
100
AcDbEntity
  8
DWGCTR
100
AcDbLine
 10
7.769393594863622
 20
1.718406776012738
 30
0.0
 11
7.769393594863622
 21
1.670606776012738
 31
0.0
  0
LINE
  5
591D0
330
5919D
100
AcDbEntity
  8
DWGCTR
100
AcDbLine
 10
7.769393594863622
 20
0.7662067760127389
 30
0.0
 11
7.769393594863622
 21
0.7184067760127384
 31
0.0
  0
LINE
  5
591D1
330
5919D
100
AcDbEntity
  8
DWGCTR
100
AcDbLine
 10
10.51939359486362
 20
1.718406776012738
 30
0.0
 11
10.51939359486362
 21
1.670606776012738
 31
0.0
  0
LINE
  5
591D2
330
5919D
100
AcDbEntity
  8
DWGCTR
100
AcDbLine
 10
10.51939359486362
 20
0.7662067760127389
 30
0.0
 11
10.51939359486362
 21
0.7184067760127384
 31
0.0
  0
LINE
  5
591D3
330
5919D
100
AcDbEntity
  8
DWGCTR
100
AcDbLine
 10
10.76939359486362
 20
1.718406776012738
 30
0.0
 11
10.76939359486362
 21
1.670606776012738
 31
0.0
  0
LINE
  5
591D4
330
5919D
100
AcDbEntity
  8
DWGCTR
100
AcDbLine
 10
10.76939359486362
 20
0.7662067760127389
 30
0.0
 11
10.76939359486362
 21
0.7184067760127384
 31
0.0
  0
LINE
  5
591D5
330
5919D
100
AcDbEntity
  8
DWGCTR
100
AcDbLine
 10
13.51939359486362
 20
1.718406776012738
 30
0.0
 11
13.51939359486362
 21
1.670606776012738
 31
0.0
  0
LINE
  5
591D6
330
5919D
100
AcDbEntity
  8
DWGCTR
100
AcDbLine
 10
13.51939359486362
 20
0.7662067760127389
 30
0.0
 11
13.51939359486362
 21
0.7184067760127384
 31
0.0
  0
LINE
  5
591D7
330
5919D
100
AcDbEntity
  8
DWGCTR
100
AcDbLine
 10
13.76939359486362
 20
1.718406776012738
 30
0.0
 11
13.76939359486362
 21
1.670606776012738
 31
0.0
  0
LINE
  5
591D8
330
5919D
100
AcDbEntity
  8
DWGCTR
100
AcDbLine
 10
13.76939359486362
 20
0.7662067760127389
 30
0.0
 11
13.76939359486362
 21
0.7184067760127384
 31
0.0
  0
CIRCLE
  5
591D9
330
5919D
100
AcDbEntity
  8
DWGDIM
100
AcDbCircle
 10
5.644393594863622
 20
1.218406776012738
 30
0.0
 40
0.125
  0
CIRCLE
  5
591DA
330
5919D
100
AcDbEntity
  8
DWGDIM
100
AcDbCircle
 10
7.644393594863622
 20
1.218406776012738
 30
0.0
 40
0.125
  0
CIRCLE
  5
591DB
330
5919D
100
AcDbEntity
  8
DWGDIM
100
AcDbCircle
 10
10.64439359486362
 20
1.218406776012738
 30
0.0
 40
0.125
  0
CIRCLE
  5
591DC
330
5919D
100
AcDbEntity
  8
DWGDIM
100
AcDbCircle
 10
13.64439359486362
 20
1.218406776012738
 30
0.0
 40
0.125
  0
DIMENSION
  5
591DD
330
5919D
100
AcDbEntity
  8
DWGDIM
100
AcDbDimension
280
     0
  2
*D8
 10
5.644393594863622
 20
2.355290400577119
 30
0.0
 11
4.519393594863622
 21
2.355290400577119
 31
0.0
 70
    32
  1
2-1/4"\P[57MM]
 71
     5
 42
2.25
 73
     0
 74
     0
 75
     0
  3
DWG.125
100
AcDbAlignedDimension
 13
3.394393594863622
 23
1.718406776012737
 33
0.0
 14
5.644393594863622
 24
1.718406776012738
 34
0.0
100
AcDbRotatedDimension
  0
DIMENSION
  5
591DE
330
5919D
100
AcDbEntity
  8
DWGDIM
100
AcDbDimension
280
     0
  2
*D9
 10
7.644393594863622
 20
2.355290400577119
 30
0.0
 11
6.644393594863622
 21
2.355290400577119
 31
0.0
 70
    32
  1
17"\P[432MM]
 71
     5
 42
2.0
 73
     0
 74
     0
 75
     0
  3
DWG.125
100
AcDbAlignedDimension
 13
5.644393594863622
 23
1.718406776012738
 33
0.0
 14
7.644393594863622
 24
2.218406776012737
 34
0.0
100
AcDbRotatedDimension
1001
ACAD
1000
DSTYLE
1002
{
1070
   279
1070
     1
1002
}
  0
DIMENSION
  5
591DF
330
5919D
100
AcDbEntity
  8
DWGDIM
100
AcDbDimension
280
     0
  2
*D10
 10
10.64439359486362
 20
2.355290400577119
 30
0.0
 11
9.144393594863622
 21
2.355290400577119
 31
0.0
 70
    32
  1
18"\P[457MM]
 71
     5
 42
3.0
 73
     0
 74
     0
 75
     0
  3
DWG.125
100
AcDbAlignedDimension
 13
7.644393594863622
 23
2.218406776012737
 33
0.0
 14
10.64439359486362
 24
2.218406776012737
 34
0.0
100
AcDbRotatedDimension
1001
ACAD
1000
DSTYLE
1002
{
1070
   279
1070
     1
1002
}
  0
DIMENSION
  5
591E0
330
5919D
100
AcDbEntity
  8
DWGDIM
100
AcDbDimension
280
     0
  2
*D11
 10
13.64439359486362
 20
2.355290400577119
 30
0.0
 11
12.14439359486362
 21
2.355290400577119
 31
0.0
 70
    32
  1
18"\P[457MM]
 71
     5
 42
3.0
 73
     0
 74
     0
 75
     0
  3
DWG.125
100
AcDbAlignedDimension
 13
10.64439359486362
 23
2.218406776012737
 33
0.0
 14
13.64439359486362
 24
2.218406776012737
 34
0.0
100
AcDbRotatedDimension
1001
ACAD
1000
DSTYLE
1002
{
1070
   279
1070
     1
1002
}
  0
DIMENSION
  5
591E1
330
5919D
100
AcDbEntity
  8
DWGDIM
100
AcDbDimension
280
     0
  2
*D12
 10
15.89439359486361
 20
2.355290400577119
 30
0.0
 11
14.76939359486362
 21
2.355290400577119
 31
0.0
 70
    32
  1
2-1/4"\P[57MM]
 71
     5
 42
2.249999999999992
 73
     0
 74
     0
 75
     0
  3
DWG.125
100
AcDbAlignedDimension
 13
13.64439359486362
 23
2.218406776012737
 33
0.0
 14
15.89439359486361
 24
1.718406776012738
 34
0.0
100
AcDbRotatedDimension
1001
ACAD
1000
DSTYLE
1002
{
1070
   279
1070
     1
1002
}
  0
DIMENSION
  5
591E2
330
5919D
100
AcDbEntity
  8
DWGDIM
100
AcDbDimension
280
     0
  2
*D13
 10
15.89439359486361
 20
6.271238230023166
 30
0.0
 11
9.644393594863618
 21
6.271238230023166
 31
0.0
 70
   160
  1
57-1/2"\P[1461MM]
 71
     5
 42
12.49999999999999
 73
     0
 74
     0
 75
     0
  3
DWG.125
100
AcDbAlignedDimension
 13
3.394393594863622
 23
5.49319870442509
 33
0.0
 14
15.89439359486361
 24
5.493198704425091
 34
0.0
100
AcDbRotatedDimension
  0
LWPOLYLINE
  5
591E3
330
5919D
100
AcDbEntity
  8
DWGLNS
100
AcDbPolyline
 90
        6
 70
     0
 43
0.0
 10
2.394393594863622
 20
7.203706776012738
 10
2.394393594863622
 20
5.266206776012738
 10
1.456893594863622
 20
5.266206776012738
 10
1.456893594863622
 20
5.314006776012736
 10
2.346593594863621
 20
5.314006776012737
 10
2.346593594863622
 20
7.203706776012738
  0
LWPOLYLINE
  5
591E4
330
5919D
100
AcDbEntity
  8
DWGLNS
100
AcDbPolyline
 90
        2
 70
     0
 43
0.0
 10
2.346593594863622
 20
7.203706776012738
 10
2.394393594863622
 20
7.203706776012738
  0
LWPOLYLINE
  5
591E5
330
5919D
100
AcDbEntity
  8
DWGCTR
100
AcDbPolyline
 90
        2
 70
     0
 43
0.0
 10
1.442193594863622
 20
7.225323543331015
 10
1.692193594863622
 20
7.225323543331015
  0
LWPOLYLINE
  5
591E6
330
5919D
100
AcDbEntity
  8
DWGCTR
100
AcDbPolyline
 90
        2
 70
     0
 43
0.0
 10
1.317193594863622
 20
6.725323543331015
 10
1.567193594863622
 20
6.725323543331015
  0
LWPOLYLINE
  5
591E7
330
5919D
100
AcDbEntity
  8
DWGCTR
100
AcDbPolyline
 90
        2
 70
     0
 43
0.0
 10
1.317193594863622
 20
6.225323543331015
 10
1.567193594863622
 20
6.225323543331015
  0
LWPOLYLINE
  5
591E8
330
5919D
100
AcDbEntity
  8
DWGCTR
100
AcDbPolyline
 90
        2
 70
     0
 43
0.0
 10
2.244962876444885
 20
6.725323543331015
 10
2.494962876444885
 20
6.725323543331015
  0
LWPOLYLINE
  5
591E9
330
5919D
100
AcDbEntity
  8
DWGCTR
100
AcDbPolyline
 90
        2
 70
     0
 43
0.0
 10
2.244962876444885
 20
6.225323543331015
 10
2.494962876444885
 20
6.225323543331015
  0
LWPOLYLINE
  5
591EA
330
5919D
100
AcDbEntity
  8
DWGCTR
100
AcDbPolyline
 90
        2
 70
     0
 43
0.0
 10
2.026743594863622
 20
5.126506776012737
 10
2.026743594863622
 20
5.376506776012737
  0
LWPOLYLINE
  5
591EB
330
5919D
100
AcDbEntity
  8
DWGCTR
100
AcDbPolyline
 90
        2
 70
     0
 43
0.0
 10
1.776743594863622
 20
5.126506776012737
 10
1.776743594863622
 20
5.376506776012737
  0
LWPOLYLINE
  5
591EC
330
5919D
100
AcDbEntity
  8
DWGLNS
100
AcDbPolyline
 90
        3
 70
     0
 43
0.0
 10
-5.247046944838715
 20
0.7589417169323865
 10
-4.528678135395683
 20
1.33363676448681
 10
-4.528678135395683
 20
3.250498788277405
  0
LWPOLYLINE
  5
591ED
330
5919D
100
AcDbEntity
  8
DWGLNS
100
AcDbPolyline
 90
        2
 70
     0
 43
0.0
 10
-5.309546944838714
 20
0.6289026639644764
 10
-7.907623156192029
 20
2.128902663964478
  0
LWPOLYLINE
  5
591EE
330
5919D
100
AcDbEntity
  8
DWGLNS
100
AcDbPolyline
 90
        2
 70
     0
 43
0.0
 10
-5.309546944838714
 20
2.625803740722981
 10
-7.907623156192029
 20
4.125803740722982
  0
LINE
  5
591EF
330
5919D
100
AcDbEntity
  8
DWGLNS
100
AcDbLine
 10
-4.528678135395683
 20
1.2535977115189
 30
0.0
 11
-5.309546944838714
 21
0.6289026639644764
 31
0.0
  0
LINE
  5
591F0
330
5919D
100
AcDbEntity
  8
DWGLNS
100
AcDbLine
 10
-5.309546944838714
 20
0.6289026639644764
 30
0.0
 11
-5.309546944838714
 21
2.625803740722981
 31
0.0
  0
LINE
  5
591F1
330
5919D
100
AcDbEntity
  8
DWGLNS
100
AcDbLine
 10
-4.528678135395683
 20
3.250498788277405
 30
0.0
 11
-4.591178135395683
 21
3.200498788277405
 31
0.0
  0
LINE
  5
591F2
330
5919D
100
AcDbEntity
  8
DWGLNS
100
AcDbLine
 10
-5.247046944838715
 20
0.7589417169323865
 30
0.0
 11
-5.247046944838714
 21
2.675803740722979
 31
0.0
  0
LWPOLYLINE
  5
591F3
330
5919D
100
AcDbEntity
  8
DWGLNS
100
AcDbPolyline
 90
        3
 70
     0
 43
0.0
 10
-5.247046944838715
 20
0.8389807699002975
 10
-4.591178135395683
 20
1.36367581745472
 10
-4.591178135395683
 20
3.200498788277405
  0
LWPOLYLINE
  5
591F4
330
5919D
100
AcDbEntity
  8
DWGLNS
100
AcDbPolyline
 90
        2
 70
     0
 43
0.0
 10
-4.528678135395683
 20
1.33363676448681
 10
-4.528678135395683
 20
1.2535977115189
  0
LINE
  5
591F5
330
5919D
100
AcDbEntity
  8
DWGLNS
100
AcDbLine
 10
-5.247046944838714
 20
2.675803740722979
 30
0.0
 11
-5.309546944838714
 21
2.625803740722981
 31
0.0
  0
LWPOLYLINE
  5
591F6
330
5919D
100
AcDbEntity
  8
DWGLNS
100
AcDbPolyline
 90
        2
 70
     0
 43
0.0
 10
-5.247046944838714
 20
2.675803740722979
 10
-7.845123156192029
 20
4.17580374072298
  0
LWPOLYLINE
  5
591F7
330
5919D
100
AcDbEntity
  8
DWGLNS
100
AcDbPolyline
 90
        2
 70
     0
 43
0.0
 10
-4.591178135395683
 20
3.200498788277405
 10
-7.189254346748997
 20
4.700498788277407
  0
LWPOLYLINE
  5
591F8
330
5919D
100
AcDbEntity
  8
DWGLNS
100
AcDbPolyline
 90
        2
 70
     0
 43
0.0
 10
-4.528678135395683
 20
3.250498788277405
 10
-7.126754346748997
 20
4.750498788277407
  0
LWPOLYLINE
  5
591F9
330
5919D
100
AcDbEntity
  8
DWGCTR
  6
DASHED2
100
AcDbPolyline
 90
        2
 70
     0
 43
0.0
 10
-5.247046944838714
 20
1.742341851139735
 10
-7.407628913448398
 20
2.989754432322789
  0
LWPOLYLINE
  5
591FA
330
5919D
100
AcDbEntity
  8
DWGLNS
100
AcDbPolyline
 90
        2
 70
     0
 43
0.0
 10
-5.247046944838714
 20
1.742341851139735
 10
-4.591178135395683
 20
1.36367581745472
  0
DIMENSION
  5
591FB
330
5919D
100
AcDbEntity
  8
DWGDIM
100
AcDbDimension
280
     0
  2
*D14
 10
-4.122031900166973
 20
1.2535977115189
 30
0.0
 11
-4.122031900166973
 21
2.252048249898152
 31
0.0
 70
    32
 71
     5
 42
1.996901076758504
 73
     0
 74
     0
 75
     0
  3
DWG.125
100
AcDbAlignedDimension
 13
-4.528678135395683
 23
3.250498788277405
 33
0.0
 14
-4.528678135395683
 24
1.2535977115189
 34
0.0
 50
90.0
100
AcDbRotatedDimension
  0
DIMENSION
  5
591FC
330
5919D
100
AcDbEntity
  8
DWGDIM
100
AcDbDimension
280
     0
  2
*D15
 10
-5.002899672534869
 20
0.2455935735846708
 30
0.0
 11
-4.532637338871023
 21
0.6218034405157478
 31
0.0
 70
   161
 71
     5
 42
1.0
 73
     0
 74
     0
 75
     0
  3
DWG.125
100
AcDbAlignedDimension
 13
-4.528678135395683
 23
1.2535977115189
 33
0.0
 14
-5.309546944838714
 24
0.6289026639644764
 34
0.0
  0
DIMENSION
  5
591FD
330
5919D
100
AcDbEntity
  8
DWGDIM
100
AcDbDimension
280
     0
  2
*D16
 10
-7.46978375452128
 20
1.387262753213774
 30
0.0
 11
-6.495505175263787
 21
0.8247627532137737
 31
0.0
 70
    33
 71
     5
 42
2.25
 73
     0
 74
     0
 75
     0
  3
DWG.125
100
AcDbAlignedDimension
 13
-5.309546944838714
 23
0.6289026639644764
 33
0.0
 14
-7.258104103353701
 24
1.753902663964478
 34
0.0
  0
ELLIPSE
  5
591FE
330
5919D
100
AcDbEntity
  8
DWGLNS
100
AcDbEllipse
 10
-7.258104103353701
 20
3.173453471533356
 30
0.0
 11
-0.1250000000000008
 21
0.2165063509461098
 31
0.0
210
0.0
220
0.0
230
1.0
 40
0.5773502691896236
 41
0.0
 42
6.283185307179586
  0
ELLIPSE
  5
591FF
330
5919D
100
AcDbEntity
  8
DWGLNS
100
AcDbEllipse
 10
-7.195604103353701
 20
3.223453471533353
 30
0.0
 11
-0.1250000000000008
 21
0.2165063509461098
 31
0.0
210
0.0
220
0.0
230
1.0
 40
0.5773502691896235
 41
0.3664633080687171
 42
2.950543302526512
  0
ELLIPSE
  5
59200
330
5919D
100
AcDbEntity
  8
DWGLNS
100
AcDbEllipse
 10
-6.539735293910669
 20
3.748148519087781
 30
0.0
 11
-0.1250000000000008
 21
0.2165063509461098
 31
0.0
210
0.0
220
0.0
230
1.0
 40
0.5773502691896235
 41
0.0
 42
6.283185307179586
  0
ELLIPSE
  5
59201
330
5919D
100
AcDbEntity
  8
DWGLNS
100
AcDbEllipse
 10
-6.477235293910669
 20
3.798148519087778
 30
0.0
 11
-0.1250000000000008
 21
0.2165063509461098
 31
0.0
210
0.0
220
0.0
230
1.0
 40
0.5773502691896235
 41
0.3664633080687171
 42
2.950543302526512
  0
ELLIPSE
  5
59202
330
5919D
100
AcDbEntity
  8
DWGCTR
  6
DASHED2
100
AcDbEllipse
 10
-6.841178135395683
 20
2.177784791495167
 30
0.0
 11
-0.2672905455146426
 21
-0.0202379770455801
 31
0.0
210
0.0
220
0.0
230
0.9999999999999998
 40
0.6829188168378609
 41
0.0
 42
6.283185307179586
  0
ELLIPSE
  5
59203
330
5919D
100
AcDbEntity
  8
DWGCTR
  6
DASHED2
100
AcDbEllipse
 10
-6.841178135395683
 20
2.04872181858441
 30
0.0
 11
-0.2672905455146426
 21
-0.0202379770455801
 31
0.0
210
0.0
220
0.0
230
0.9999999999999998
 40
0.6829188168378609
 41
3.449615343292879
 42
5.871839863542657
  0
ELLIPSE
  5
59204
330
5919D
100
AcDbEntity
  8
DWGCTR
  6
DASHED2
100
AcDbEllipse
 10
-6.841178135395683
 20
1.919658845673653
 30
0.0
 11
-0.2672905455146426
 21
-0.0202379770455801
 31
0.0
210
0.0
220
0.0
230
0.9999999999999998
 40
0.6829188168378609
 41
3.870884937045353
 42
5.450570269789415
  0
MTEXT
  5
59205
330
5919D
100
AcDbEntity
  8
DWGDIM
100
AcDbMText
 10
-9.63796864919076
 20
2.258582059929475
 30
0.0
 40
0.125
 41
1.977036008686631
 46
0.0
 71
     1
 72
     5
  1
{\LISOMETRIC VIEW}
  7
Roman
 73
     1
 44
1.0
  0
MTEXT
  5
59206
102
{ACAD_XDICTIONARY
360
598C8
102
}
330
5919D
100
AcDbEntity
  8
DWGDIM
100
AcDbMText
 10
-9.667992020551729
 20
3.602012367166818
 30
0.0
 40
0.125
 41
1.977036008686631
 46
0.0
 71
     1
 72
     5
  1
\A1;{\H0.7x;\S1#4;}"%%C HOLES
  7
Roman
 73
     1
 44
1.0
  0
LEADER
  5
59207
330
5919D
100
AcDbEntity
  8
DWGDIM
100
AcDbLeader
  3
DWG.125
 76
     3
 10
-7.434715026222939
 20
3.266581892701313
 30
0.0
 10
-7.921924630510915
 20
3.523491604105732
 30
0.0
 10
-8.582598791871021
 20
3.523491604105732
 30
0.0
  0
ENDBLK
  5
59208
330
5919D
100
AcDbEntity
  8
0
100
AcDbBlockEnd
  0
BLOCK
  5
5920A
330
59209
100
AcDbEntity
  8
0
100
AcDbBlockBegin
  2
SECTION TAG
 70
     2
 10
0.0
 20
0.0
 30
0.0
  3
SECTION TAG
  1

  0
HATCH
  5
5920B
330
59209
100
AcDbEntity
  8
DWGTXT
100
AcDbHatch
 10
0.0
 20
0.0
 30
0.0
210
0.0
220
0.0
230
1.0
  2
SOLID
 70
     1
 71
     1
 91
        1
 92
        7
 72
     0
 73
     1
 93
        3
 10
0.0
 20
1.0
 10
-0.5
 20
0.0
 10
0.0
 20
-1.0
 97
        2
330
5920D
330
5920C
 75
     0
 76
     1
 47
0.0159456146732341
 98
        1
 10
-0.1496301180679467
 20
0.0056859437375039
450
        0
451
        0
460
0.0
461
0.0
452
        0
462
0.0
453
        0
470

1001
ACAD
1010
0.0
1020
0.0
1030
0.0
  0
LWPOLYLINE
  5
5920C
102
{ACAD_REACTORS
330
5920B
102
}
330
59209
100
AcDbEntity
  8
DWGTXT
100
AcDbPolyline
 90
        2
 70
     0
 43
0.0
 10
0.0
 20
1.0
 10
0.0
 20
-1.0
  0
LWPOLYLINE
  5
5920D
102
{ACAD_REACTORS
330
5920B
102
}
330
59209
100
AcDbEntity
  8
DWGTXT
100
AcDbPolyline
 90
        3
 70
     0
 43
0.0
 10
0.0
 20
1.0
 10
-0.5
 20
0.0
 10
0.0
 20
-1.0
  0
LWPOLYLINE
  5
5920E
330
59209
100
AcDbEntity
  8
DWGTXT
  6
ACAD_ISO06W100
100
AcDbPolyline
 90
        2
 70
     0
 43
0.0625
 10
-0.03125
 20
0.0
 10
-0.03125
 20
4.0
  0
ATTDEF
  5
5920F
330
59209
100
AcDbEntity
  8
DWGTXT
100
AcDbText
 10
0.4955661664392907
 20
-0.5
 30
0.0
 40
1.0
  1
C
  7
ARIAL
 72
     1
 11
1.0
 21
-0.5
 31
0.0
100
AcDbAttributeDefinition
280
     0
  3
B
  2
A
 70
     0
280
     1
  0
ENDBLK
  5
59210
330
59209
100
AcDbEntity
  8
0
100
AcDbBlockEnd
  0
BLOCK
  5
59274
330
5924E
100
AcDbEntity
  8
0
100
AcDbBlockBegin
  2
ASIANSIATTLBLK
 70
     0
 10
0.0
 20
0.0
 30
0.0
  3
ASIANSIATTLBLK
  1

  0
LWPOLYLINE
  5
5924F
102
{ACAD_REACTORS
330
59253
102
}
330
5924E
100
AcDbEntity
  8
DWGTXT
100
AcDbPolyline
 90
        2
 70
     0
 43
0.0
 10
-2.184973825999321
 20
8.784625491866435
 10
-2.184973825999321
 20
6.784625491866435
  0
LWPOLYLINE
  5
59250
102
{ACAD_REACTORS
330
59253
102
}
330
5924E
100
AcDbEntity
  8
DWGTXT
100
AcDbPolyline
 90
        3
 70
     0
 43
0.0
 10
-2.184973825999321
 20
8.784625491866435
 10
-2.684973825999321
 20
7.784625491866435
 10
-2.184973825999321
 20
6.784625491866435
  0
MTEXT
  5
59251
330
5924E
100
AcDbEntity
  8
DWGTXT
100
AcDbMText
 10
-1.184973825999321
 20
7.784625491866435
 30
0.0
 40
1.0
 41
0.8214986191701285
 46
0.0
 71
     5
 72
     5
  1
A
  7
ARIAL
 73
     1
 44
1.0
  0
LWPOLYLINE
  5
59252
330
5924E
100
AcDbEntity
  8
DWGTXT
  6
ACAD_ISO06W100
100
AcDbPolyline
 90
        2
 70
     0
 43
0.0625
 10
-2.216223825999321
 20
7.784625491866435
 10
-2.216223825999321
 20
11.78462549186643
  0
HATCH
  5
59253
330
5924E
100
AcDbEntity
  8
DWGTXT
100
AcDbHatch
 10
0.0
 20
0.0
 30
0.0
210
0.0
220
0.0
230
1.0
  2
SOLID
 70
     1
 71
     1
 91
        1
 92
        7
 72
     0
 73
     1
 93
        3
 10
-2.184973825999321
 20
8.784625491866435
 10
-2.684973825999321
 20
7.784625491866435
 10
-2.184973825999321
 20
6.784625491866435
 97
        2
330
59250
330
5924F
 75
     0
 76
     1
 47
0.0159456146732341
 98
        1
 10
-2.334603944067268
 20
7.790311435603939
450
        0
451
        0
460
0.0
461
0.0
452
        0
462
0.0
453
        0
470

1001
ACAD
1010
0.0
1020
0.0
1030
0.0
  0
LWPOLYLINE
  5
59254
330
5924E
100
AcDbEntity
  8
DWGLNS
 62
     1
100
AcDbPolyline
 90
        2
 70
     0
 43
0.025
 10
-13.20926613973675
 20
18.8786840274551
 10
-3.52618213656676
 20
18.8786840274551
  0
LWPOLYLINE
  5
59255
330
5924E
100
AcDbEntity
  8
DWGLNS
 62
     2
100
AcDbPolyline
 90
        2
 70
     0
 43
0.025
 10
-13.20926613973675
 20
16.8786840274551
 10
-3.52618213656676
 20
16.8786840274551
  0
LWPOLYLINE
  5
59256
330
5924E
100
AcDbEntity
  8
DWGLNS
 62
     3
100
AcDbPolyline
 90
        2
 70
     0
 43
0.025
 10
-13.20926613973675
 20
14.8786840274551
 10
-3.52618213656676
 20
14.8786840274551
  0
LWPOLYLINE
  5
59257
330
5924E
100
AcDbEntity
  8
DWGLNS
 62
     4
100
AcDbPolyline
 90
        2
 70
     0
 43
0.025
 10
-13.20926613973675
 20
12.8786840274551
 10
-3.52618213656676
 20
12.8786840274551
  0
LWPOLYLINE
  5
59258
330
5924E
100
AcDbEntity
  8
DWGLNS
 62
     5
100
AcDbPolyline
 90
        2
 70
     0
 43
0.025
 10
-13.20926613973675
 20
10.8786840274551
 10
-3.52618213656676
 20
10.8786840274551
  0
LWPOLYLINE
  5
59259
330
5924E
100
AcDbEntity
  8
DWGLNS
 62
     6
100
AcDbPolyline
 90
        2
 70
     0
 43
0.025
 10
-13.20926613973675
 20
8.878684027455101
 10
-3.52618213656676
 20
8.878684027455101
  0
LWPOLYLINE
  5
5925A
330
5924E
100
AcDbEntity
  8
DWGLNS
 62
     7
100
AcDbPolyline
 90
        2
 70
     0
 43
0.025
 10
-13.20926613973675
 20
6.878684027455101
 10
-3.52618213656676
 20
6.878684027455101
  0
MTEXT
  5
5925B
330
5924E
100
AcDbEntity
  8
0
100
AcDbMText
 10
-13.20926613973675
 20
19.1286840274551
 30
0.0
 40
1.0
 41
2.997730803239107
 46
0.0
 71
     8
 72
     5
  1
RED
  7
ARIAL
 73
     1
 44
1.0
  0
MTEXT
  5
5925C
330
5924E
100
AcDbEntity
  8
0
100
AcDbMText
 10
-13.20926613973675
 20
17.1286840274551
 30
0.0
 40
1.0
 41
2.997730803239107
 46
0.0
 71
     8
 72
     5
  1
YEL
  7
ARIAL
 73
     1
 44
1.0
  0
MTEXT
  5
5925D
330
5924E
100
AcDbEntity
  8
0
100
AcDbMText
 10
-13.20926613973675
 20
15.1286840274551
 30
0.0
 40
1.0
 41
2.997730803239107
 46
0.0
 71
     8
 72
     5
  1
GRE
  7
ARIAL
 73
     1
 44
1.0
  0
MTEXT
  5
5925E
330
5924E
100
AcDbEntity
  8
0
100
AcDbMText
 10
-13.20926613973675
 20
13.1286840274551
 30
0.0
 40
1.0
 41
2.997730803239107
 46
0.0
 71
     8
 72
     5
  1
CYA
  7
ARIAL
 73
     1
 44
1.0
  0
MTEXT
  5
5925F
330
5924E
100
AcDbEntity
  8
0
100
AcDbMText
 10
-13.20926613973675
 20
11.1286840274551
 30
0.0
 40
1.0
 41
2.997730803239107
 46
0.0
 71
     8
 72
     5
  1
BLU
  7
ARIAL
 73
     1
 44
1.0
  0
MTEXT
  5
59260
330
5924E
100
AcDbEntity
  8
0
100
AcDbMText
 10
-13.20926613973675
 20
9.128684027455101
 30
0.0
 40
1.0
 41
2.997730803239107
 46
0.0
 71
     8
 72
     5
  1
MAG
  7
ARIAL
 73
     1
 44
1.0
  0
MTEXT
  5
59261
330
5924E
100
AcDbEntity
  8
0
100
AcDbMText
 10
-13.20926613973675
 20
7.128684027455101
 30
0.0
 40
1.0
 41
2.997730803239107
 46
0.0
 71
     8
 72
     5
  1
WHI
  7
ARIAL
 73
     1
 44
1.0
  0
LWPOLYLINE
  5
59262
330
5924E
100
AcDbEntity
  8
DWGLNS
  6
HIDDEN
370
    -3
100
AcDbPolyline
 90
        2
 70
     0
 43
0.0
 10
-2.089061400169981
 20
17.03462552502894
 10
9.91093859983002
 20
17.03462552502894
  0
LWPOLYLINE
  5
59263
330
5924E
100
AcDbEntity
  8
DWGLNS
  6
CENTER
370
    -3
100
AcDbPolyline
 90
        2
 70
     0
 43
0.03
 10
-2.089061400169981
 20
16.03462552502894
 10
9.91093859983002
 20
16.03462552502894
  0
LWPOLYLINE
  5
59264
330
5924E
100
AcDbEntity
  8
DWGLNS
370
    -3
100
AcDbPolyline
 90
        2
 70
     0
 43
0.05
 10
-2.089061400169981
 20
15.03462552502894
 10
9.91093859983002
 20
15.03462552502894
  0
LWPOLYLINE
  5
59265
330
5924E
100
AcDbEntity
  8
DWGLNS
370
    -3
100
AcDbPolyline
 90
        2
 70
     0
 43
0.13
 10
-2.089061400169981
 20
14.03462552502894
 10
9.91093859983002
 20
14.03462552502894
  0
LWPOLYLINE
  5
59266
330
5924E
100
AcDbEntity
  8
DWGLNS
370
    -3
100
AcDbPolyline
 90
        2
 70
     0
 43
0.25
 10
-2.089061400169981
 20
13.03462552502894
 10
9.91093859983002
 20
13.03462552502894
  0
LWPOLYLINE
  5
59267
330
5924E
100
AcDbEntity
  8
DWGLNS
370
    -3
100
AcDbPolyline
 90
        2
 70
     0
 43
0.5
 10
-2.089061400169981
 20
12.03462552502894
 10
9.91093859983002
 20
12.03462552502894
  0
MTEXT
  5
59268
330
5924E
100
AcDbEntity
  8
DWGLNS
370
    -3
100
AcDbMText
 10
9.91093859983002
 20
12.64231886760615
 30
0.0
 40
0.5
 41
1.573303484558406
 46
0.0
 71
     1
 72
     5
  1
.5
  7
ARIAL
 73
     1
 44
1.0
  0
MTEXT
  5
59269
330
5924E
100
AcDbEntity
  8
DWGLNS
370
    -3
100
AcDbMText
 10
9.91093859983002
 20
13.64231886760615
 30
0.0
 40
0.5
 41
1.573303484558406
 46
0.0
 71
     1
 72
     5
  1
.25
  7
ARIAL
 73
     1
 44
1.0
  0
MTEXT
  5
5926A
330
5924E
100
AcDbEntity
  8
DWGLNS
370
    -3
100
AcDbMText
 10
9.91093859983002
 20
14.64231886760615
 30
0.0
 40
0.5
 41
1.573303484558406
 46
0.0
 71
     1
 72
     5
  1
.13
  7
ARIAL
 73
     1
 44
1.0
  0
MTEXT
  5
5926B
330
5924E
100
AcDbEntity
  8
DWGLNS
370
    -3
100
AcDbMText
 10
9.91093859983002
 20
15.64231886760615
 30
0.0
 40
0.5
 41
1.573303484558406
 46
0.0
 71
     1
 72
     5
  1
.05
  7
ARIAL
 73
     1
 44
1.0
  0
MTEXT
  5
5926C
330
5924E
100
AcDbEntity
  8
DWGLNS
370
    -3
100
AcDbMText
 10
9.91093859983002
 20
16.64231886760615
 30
0.0
 40
0.5
 41
1.573303484558406
 46
0.0
 71
     1
 72
     5
  1
.03
  7
ARIAL
 73
     1
 44
1.0
  0
MTEXT
  5
5926D
330
5924E
100
AcDbEntity
  8
DWGLNS
370
    -3
100
AcDbMText
 10
9.91093859983002
 20
17.64231886760615
 30
0.0
 40
0.5
 41
1.573303484558406
 46
0.0
 71
     1
 72
     5
  1
.0
  7
ARIAL
 73
     1
 44
1.0
  0
MTEXT
  5
5926E
330
5924E
100
AcDbEntity
  8
DWGLNS
370
    -3
100
AcDbMText
 10
-2.089061400169981
 20
14.64231886760615
 30
0.0
 40
0.5
 41
1.573303484558406
 46
0.0
 71
     1
 72
     5
  1
RWO
  7
ARIAL
 73
     1
 44
1.0
  0
MTEXT
  5
5926F
330
5924E
100
AcDbEntity
  8
DWGLNS
370
    -3
100
AcDbMText
 10
-2.089061400169981
 20
15.64231886760615
 30
0.0
 40
0.5
 41
1.573303484558406
 46
0.0
 71
     1
 72
     5
  1
OUTLINE
  7
ARIAL
 73
     1
 44
1.0
  0
MTEXT
  5
59270
330
5924E
100
AcDbEntity
  8
DWGLNS
370
    -3
100
AcDbMText
 10
-2.089061400169981
 20
16.64231886760615
 30
0.0
 40
0.5
 41
5.242886693962104
 46
0.0
 71
     1
 72
     5
  1
CENTER LINE
  7
ARIAL
 73
     1
 44
1.0
  0
MTEXT
  5
59271
330
5924E
100
AcDbEntity
  8
DWGLNS
370
    -3
100
AcDbMText
 10
-2.089061400169981
 20
17.64231886760615
 30
0.0
 40
0.5
 41
1.573303484558406
 46
0.0
 71
     1
 72
     5
  1
HIDDEN
  7
ARIAL
 73
     1
 44
1.0
  0
ENDBLK
  5
59275
330
5924E
100
AcDbEntity
  8
0
100
AcDbBlockEnd
  0
BLOCK
  5
592B9
330
592AD
100
AcDbEntity
  8
0
100
AcDbBlockBegin
  2
*D20
 70
     1
 10
0.0
 20
0.0
 30
0.0
  3
*D20
  1

  0
LINE
  5
59700
330
592AD
100
AcDbEntity
  8
DWGDIM
440
 16777216
370
    -2
100
AcDbLine
 10
25.4661319600212
 20
13.21369957921277
 30
0.0
 11
25.4661319600212
 21
13.68554908356904
 31
0.0
  0
LINE
  5
59701
330
592AD
100
AcDbEntity
  8
DWGDIM
440
 16777216
370
    -2
100
AcDbLine
 10
26.46032068038951
 20
9.991591531489543
 30
0.0
 11
26.46032068038951
 21
13.68554908356904
 31
0.0
  0
LINE
  5
59702
330
592AD
100
AcDbEntity
  8
DWGDIM
440
 16777216
370
    -2
100
AcDbLine
 10
25.7161319600212
 20
13.50554908356904
 30
0.0
 11
26.21032068038951
 21
13.50554908356904
 31
0.0
  0
LINE
  5
59703
330
592AD
100
AcDbEntity
  8
DWGDIM
440
 16777216
370
    -2
100
AcDbLine
 10
26.46032068038951
 20
13.50554908356904
 30
0.0
 11
26.71032068038951
 21
13.50554908356904
 31
0.0
  0
SOLID
  5
59704
330
592AD
100
AcDbEntity
  8
DWGDIM
440
 16777216
100
AcDbTrace
 10
25.7161319600212
 20
13.54721575023571
 30
0.0
 11
25.7161319600212
 21
13.46388241690238
 31
0.0
 12
25.4661319600212
 22
13.50554908356904
 32
0.0
 13
25.4661319600212
 23
13.50554908356904
 33
0.0
  0
SOLID
  5
59705
330
592AD
100
AcDbEntity
  8
DWGDIM
440
 16777216
100
AcDbTrace
 10
26.21032068038951
 20
13.54721575023571
 30
0.0
 11
26.21032068038951
 21
13.46388241690238
 31
0.0
 12
26.46032068038951
 22
13.50554908356904
 32
0.0
 13
26.46032068038951
 23
13.50554908356904
 33
0.0
  0
MTEXT
  5
59706
330
592AD
100
AcDbEntity
  8
DWGDIM
440
 16777216
100
AcDbMText
 10
27.0683970787524
 20
13.72106067974913
 30
0.0
 40
0.25
 41
0.0
 46
0.0
 71
     5
 72
     1
  1
\A1;1"
  7
ARIAL
 73
     1
 44
1.0
  0
MTEXT
  5
59707
330
592AD
100
AcDbEntity
  8
DWGDIM
440
 16777216
100
AcDbMText
 10
27.0683970787524
 20
13.25533421317341
 30
0.0
 40
0.25
 41
0.0
 46
0.0
 71
     5
 72
     1
  1
\A1;[25]
  7
ARIAL
 73
     1
 44
1.0
  0
POINT
  5
59708
330
592AD
100
AcDbEntity
  8
Defpoints
 62
     0
440
 16777216
100
AcDbPoint
 10
25.4661319600212
 20
12.96369957921277
 30
0.0
  0
POINT
  5
59709
330
592AD
100
AcDbEntity
  8
Defpoints
 62
     0
440
 16777216
100
AcDbPoint
 10
26.46032068038951
 20
9.741591531489543
 30
0.0
  0
POINT
  5
5970A
330
592AD
100
AcDbEntity
  8
Defpoints
 62
     0
440
 16777216
100
AcDbPoint
 10
26.46032068038951
 20
13.50554908356904
 30
0.0
  0
ENDBLK
  5
592BA
330
592AD
100
AcDbEntity
  8
0
100
AcDbBlockEnd
  0
BLOCK
  5
592F4
330
592E8
100
AcDbEntity
  8
0
100
AcDbBlockBegin
  2
*D21
 70
     1
 10
0.0
 20
0.0
 30
0.0
  3
*D21
  1

  0
LINE
  5
595E3
330
592E8
100
AcDbEntity
  8
DWGDIM
440
 16777216
370
    -2
100
AcDbLine
 10
25.35046482738535
 20
13.00554908356904
 30
0.0
 11
24.28613196002117
 21
13.00554908356904
 31
0.0
  0
LINE
  5
595E4
330
592E8
100
AcDbEntity
  8
DWGDIM
440
 16777216
370
    -2
100
AcDbLine
 10
25.2272825559433
 20
10.9938069832264
 30
0.0
 11
24.28613196002117
 21
10.9938069832264
 31
0.0
  0
LINE
  5
595E5
330
592E8
100
AcDbEntity
  8
DWGDIM
440
 16777216
370
    -2
100
AcDbLine
 10
24.46613196002117
 20
12.75554908356904
 30
0.0
 11
24.46613196002117
 21
12.46540449997344
 31
0.0
  0
LINE
  5
595E6
330
592E8
100
AcDbEntity
  8
DWGDIM
440
 16777216
370
    -2
100
AcDbLine
 10
24.46613196002117
 20
11.2438069832264
 30
0.0
 11
24.46613196002117
 21
11.533951566822
 31
0.0
  0
SOLID
  5
595E7
330
592E8
100
AcDbEntity
  8
DWGDIM
440
 16777216
100
AcDbTrace
 10
24.4244652933545
 20
12.75554908356904
 30
0.0
 11
24.50779862668784
 21
12.75554908356904
 31
0.0
 12
24.46613196002117
 22
13.00554908356904
 32
0.0
 13
24.46613196002117
 23
13.00554908356904
 33
0.0
  0
SOLID
  5
595E8
330
592E8
100
AcDbEntity
  8
DWGDIM
440
 16777216
100
AcDbTrace
 10
24.4244652933545
 20
11.2438069832264
 30
0.0
 11
24.50779862668784
 21
11.2438069832264
 31
0.0
 12
24.46613196002117
 22
10.9938069832264
 32
0.0
 13
24.46613196002117
 23
10.9938069832264
 33
0.0
  0
MTEXT
  5
595E9
330
592E8
100
AcDbEntity
  8
DWGDIM
440
 16777216
100
AcDbMText
 10
24.46613196002117
 20
12.21518962957781
 30
0.0
 40
0.25
 41
0.0
 46
0.0
 71
     5
 72
     1
  1
\A1;2"
  7
ARIAL
 73
     1
 44
1.0
  0
MTEXT
  5
595EA
330
592E8
100
AcDbEntity
  8
DWGDIM
440
 16777216
100
AcDbMText
 10
24.46613196002117
 20
11.74946316300209
 30
0.0
 40
0.25
 41
0.0
 46
0.0
 71
     5
 72
     1
  1
\A1;[51]
  7
ARIAL
 73
     1
 44
1.0
  0
POINT
  5
595EB
330
592E8
100
AcDbEntity
  8
Defpoints
 62
     0
440
 16777216
100
AcDbPoint
 10
25.60046482738535
 20
13.00554908356904
 30
0.0
  0
POINT
  5
595EC
330
592E8
100
AcDbEntity
  8
Defpoints
 62
     0
440
 16777216
100
AcDbPoint
 10
25.47728255594329
 20
10.9938069832264
 30
0.0
  0
POINT
  5
595ED
330
592E8
100
AcDbEntity
  8
Defpoints
 62
     0
440
 16777216
100
AcDbPoint
 10
24.46613196002117
 20
10.9938069832264
 30
0.0
  0
ENDBLK
  5
592F5
330
592E8
100
AcDbEntity
  8
0
100
AcDbBlockEnd
  0
BLOCK
  5
59332
330
59326
100
AcDbEntity
  8
0
100
AcDbBlockBegin
  2
*D22
 70
     1
 10
0.0
 20
0.0
 30
0.0
  3
*D22
  1

  0
LINE
  5
59928
330
59326
100
AcDbEntity
  8
DWGDIM
440
 16777216
370
    -2
100
AcDbLine
 10
26.71032068038951
 20
9.741591531489541
 30
0.0
 11
28.64032068038951
 21
9.74159153148954
 31
0.0
  0
LINE
  5
59929
330
59326
100
AcDbEntity
  8
DWGDIM
440
 16777216
370
    -2
100
AcDbLine
 10
25.44044531189149
 20
3.271300732262878
 30
0.0
 11
28.64032068038951
 21
3.271300732262877
 31
0.0
  0
LINE
  5
5992A
330
59326
100
AcDbEntity
  8
DWGDIM
440
 16777216
370
    -2
100
AcDbLine
 10
28.46032068038951
 20
9.49159153148954
 30
0.0
 11
28.46032068038951
 21
6.974043903590624
 31
0.0
  0
LINE
  5
5992B
330
59326
100
AcDbEntity
  8
DWGDIM
440
 16777216
370
    -2
100
AcDbLine
 10
28.46032068038951
 20
3.521300732262877
 30
0.0
 11
28.46032068038951
 21
6.038848360161793
 31
0.0
  0
SOLID
  5
5992C
330
59326
100
AcDbEntity
  8
DWGDIM
440
 16777216
100
AcDbTrace
 10
28.41865401372285
 20
9.49159153148954
 30
0.0
 11
28.50198734705618
 21
9.49159153148954
 31
0.0
 12
28.46032068038951
 22
9.74159153148954
 32
0.0
 13
28.46032068038951
 23
9.74159153148954
 33
0.0
  0
SOLID
  5
5992D
330
59326
100
AcDbEntity
  8
DWGDIM
440
 16777216
100
AcDbTrace
 10
28.41865401372284
 20
3.521300732262877
 30
0.0
 11
28.50198734705618
 21
3.521300732262877
 31
0.0
 12
28.46032068038951
 22
3.271300732262877
 32
0.0
 13
28.46032068038951
 23
3.271300732262877
 33
0.0
  0
MTEXT
  5
5992E
330
59326
100
AcDbEntity
  8
DWGDIM
440
 16777216
100
AcDbMText
 10
28.46032068038951
 20
6.506446131876213
 30
0.0
 40
0.25
 41
0.0
 46
0.0
 71
     5
 72
     1
  1
\A1;6-{\H0.7x;\S1#2;}"\P[165]
  7
ARIAL
 73
     1
 44
1.0
  0
POINT
  5
5992F
330
59326
100
AcDbEntity
  8
Defpoints
 62
     0
440
 16777216
100
AcDbPoint
 10
26.4603206803895
 20
9.741591531489541
 30
0.0
  0
POINT
  5
59930
330
59326
100
AcDbEntity
  8
Defpoints
 62
     0
440
 16777216
100
AcDbPoint
 10
25.19044531189149
 20
3.271300732262878
 30
0.0
  0
POINT
  5
59931
330
59326
100
AcDbEntity
  8
Defpoints
 62
     0
440
 16777216
100
AcDbPoint
 10
28.46032068038951
 20
3.271300732262877
 30
0.0
  0
ENDBLK
  5
59333
330
59326
100
AcDbEntity
  8
0
100
AcDbBlockEnd
  0
BLOCK
  5
59359
330
5934D
100
AcDbEntity
  8
0
100
AcDbBlockBegin
  2
*D23
 70
     1
 10
0.0
 20
0.0
 30
0.0
  3
*D23
  1

  0
LINE
  5
5991F
330
5934D
100
AcDbEntity
  8
DWGDIM
440
 16777216
370
    -2
100
AcDbLine
 10
26.46032068038951
 20
4.189687901256238
 30
0.0
 11
26.46032068038951
 21
2.432884316501197
 31
0.0
  0
LINE
  5
59920
330
5934D
100
AcDbEntity
  8
DWGDIM
440
 16777216
370
    -2
100
AcDbLine
 10
24.26814356147835
 20
3.658059050383276
 30
0.0
 11
24.26814356147835
 21
2.432884316501198
 31
0.0
  0
LINE
  5
59921
330
5934D
100
AcDbEntity
  8
DWGDIM
440
 16777216
370
    -2
100
AcDbLine
 10
26.21032068038951
 20
2.612884316501197
 30
0.0
 11
24.51814356147835
 21
2.612884316501197
 31
0.0
  0
MTEXT
  5
59922
330
5934D
100
AcDbEntity
  8
DWGDIM
440
 16777216
100
AcDbMText
 10
27.46032068038951
 20
2.612884316501197
 30
0.0
 40
0.25
 41
0.0
 46
0.0
 71
     5
 72
     1
  1
\A1;2-{\H0.7x;\S3#16;}" [56]
  7
ARIAL
 73
     1
 44
1.0
  0
SOLID
  5
59923
330
5934D
100
AcDbEntity
  8
DWGDIM
440
 16777216
100
AcDbTrace
 10
26.21032068038951
 20
2.654550983167864
 30
0.0
 11
26.21032068038951
 21
2.571217649834531
 31
0.0
 12
26.46032068038951
 22
2.612884316501197
 32
0.0
 13
26.46032068038951
 23
2.612884316501197
 33
0.0
  0
SOLID
  5
59924
330
5934D
100
AcDbEntity
  8
DWGDIM
440
 16777216
100
AcDbTrace
 10
24.51814356147835
 20
2.654550983167864
 30
0.0
 11
24.51814356147835
 21
2.571217649834531
 31
0.0
 12
24.26814356147835
 22
2.612884316501197
 32
0.0
 13
24.26814356147835
 23
2.612884316501197
 33
0.0
  0
POINT
  5
59925
330
5934D
100
AcDbEntity
  8
Defpoints
 62
     0
440
 16777216
100
AcDbPoint
 10
26.46032068038951
 20
4.439687901256238
 30
0.0
  0
POINT
  5
59926
330
5934D
100
AcDbEntity
  8
Defpoints
 62
     0
440
 16777216
100
AcDbPoint
 10
24.26814356147835
 20
3.908059050383276
 30
0.0
  0
POINT
  5
59927
330
5934D
100
AcDbEntity
  8
Defpoints
 62
     0
440
 16777216
100
AcDbPoint
 10
24.26814356147835
 20
2.612884316501197
 30
0.0
  0
ENDBLK
  5
5935A
330
5934D
100
AcDbEntity
  8
0
100
AcDbBlockEnd
  0
BLOCK
  5
5938B
330
5937F
100
AcDbEntity
  8
0
100
AcDbBlockBegin
  2
*D24
 70
     1
 10
0.0
 20
0.0
 30
0.0
  3
*D24
  1

  0
LINE
  5
5990A
330
5937F
100
AcDbEntity
  8
DWGDIM
440
 16777216
370
    -2
100
AcDbLine
 10
18.91263773455165
 20
3.263901527407864
 30
0.0
 11
16.98263773455165
 21
3.263901527407864
 31
0.0
  0
LINE
  5
5990B
330
5937F
100
AcDbEntity
  8
DWGDIM
440
 16777216
370
    -2
100
AcDbLine
 10
19.35046482738538
 20
13.00554908356905
 30
0.0
 11
16.98263773455165
 21
13.00554908356905
 31
0.0
  0
LINE
  5
5990C
330
5937F
100
AcDbEntity
  8
DWGDIM
440
 16777216
370
    -2
100
AcDbLine
 10
17.16263773455165
 20
3.513901527407864
 30
0.0
 11
17.16263773455165
 21
7.665933809353848
 31
0.0
  0
LINE
  5
5990D
330
5937F
100
AcDbEntity
  8
DWGDIM
440
 16777216
370
    -2
100
AcDbLine
 10
17.16263773455165
 20
12.75554908356905
 30
0.0
 11
17.16263773455165
 21
8.603516801623062
 31
0.0
  0
SOLID
  5
5990E
330
5937F
100
AcDbEntity
  8
DWGDIM
440
 16777216
100
AcDbTrace
 10
17.12097106788498
 20
3.513901527407864
 30
0.0
 11
17.20430440121832
 21
3.513901527407864
 31
0.0
 12
17.16263773455165
 22
3.263901527407864
 32
0.0
 13
17.16263773455165
 23
3.263901527407864
 33
0.0
  0
SOLID
  5
5990F
330
5937F
100
AcDbEntity
  8
DWGDIM
440
 16777216
100
AcDbTrace
 10
17.12097106788499
 20
12.75554908356905
 30
0.0
 11
17.20430440121832
 21
12.75554908356905
 31
0.0
 12
17.16263773455165
 22
13.00554908356905
 32
0.0
 13
17.16263773455165
 23
13.00554908356905
 33
0.0
  0
MTEXT
  5
59910
330
5937F
100
AcDbEntity
  8
DWGDIM
440
 16777216
100
AcDbMText
 10
17.16263773455165
 20
8.134725305488457
 30
0.0
 40
0.25
 41
0.0
 46
0.0
 71
     5
 72
     1
  1
\A1;9-{\H0.7x;\S3#4;}"\P[248]
  7
ARIAL
 73
     1
 44
1.0
  0
POINT
  5
59911
330
5937F
100
AcDbEntity
  8
Defpoints
 62
     0
440
 16777216
100
AcDbPoint
 10
19.16263773455165
 20
3.263901527407863
 30
0.0
  0
POINT
  5
59912
330
5937F
100
AcDbEntity
  8
Defpoints
 62
     0
440
 16777216
100
AcDbPoint
 10
19.60046482738538
 20
13.00554908356905
 30
0.0
  0
POINT
  5
59913
330
5937F
100
AcDbEntity
  8
Defpoints
 62
     0
440
 16777216
100
AcDbPoint
 10
17.16263773455165
 20
13.00554908356905
 30
0.0
  0
ENDBLK
  5
5938C
330
5937F
100
AcDbEntity
  8
0
100
AcDbBlockEnd
  0
BLOCK
  5
594B3
330
594A7
100
AcDbEntity
  8
0
100
AcDbBlockBegin
  2
*D25
 70
     1
 10
0.0
 20
0.0
 30
0.0
  3
*D25
  1

  0
LINE
  5
595FA
330
594A7
100
AcDbEntity
  8
DWGDIM
440
 16777216
370
    -2
100
AcDbLine
 10
19.1624344849651
 20
12.95248401016204
 30
0.0
 11
19.1624344849651
 21
13.68554908356905
 31
0.0
  0
LINE
  5
595FB
330
594A7
100
AcDbEntity
  8
DWGDIM
440
 16777216
370
    -2
100
AcDbLine
 10
20.03849516980565
 20
12.95248401016205
 30
0.0
 11
20.03849516980565
 21
13.68554908356905
 31
0.0
  0
LINE
  5
595FC
330
594A7
100
AcDbEntity
  8
DWGDIM
440
 16777216
370
    -2
100
AcDbLine
 10
19.4124344849651
 20
13.50554908356905
 30
0.0
 11
19.78849516980565
 21
13.50554908356905
 31
0.0
  0
LINE
  5
595FD
330
594A7
100
AcDbEntity
  8
DWGDIM
440
 16777216
370
    -2
100
AcDbLine
 10
20.03849516980565
 20
13.50554908356905
 30
0.0
 11
20.28849516980566
 21
13.50554908356905
 31
0.0
  0
SOLID
  5
595FE
330
594A7
100
AcDbEntity
  8
DWGDIM
440
 16777216
100
AcDbTrace
 10
19.4124344849651
 20
13.54721575023571
 30
0.0
 11
19.4124344849651
 21
13.46388241690238
 31
0.0
 12
19.1624344849651
 22
13.50554908356905
 32
0.0
 13
19.1624344849651
 23
13.50554908356905
 33
0.0
  0
SOLID
  5
595FF
330
594A7
100
AcDbEntity
  8
DWGDIM
440
 16777216
100
AcDbTrace
 10
19.78849516980565
 20
13.54721575023571
 30
0.0
 11
19.78849516980565
 21
13.46388241690238
 31
0.0
 12
20.03849516980565
 22
13.50554908356905
 32
0.0
 13
20.03849516980565
 23
13.50554908356905
 33
0.0
  0
MTEXT
  5
59600
102
{ACAD_XDICTIONARY
360
598EA
102
}
330
594A7
100
AcDbEntity
  8
DWGDIM
440
 16777216
100
AcDbMText
 10
20.64657156816855
 20
13.84657227592921
 30
0.0
 40
0.25
 41
0.0
 46
0.0
 71
     5
 72
     1
  1
\A1;{\H1.000000x;\S7#8;}"
  7
ARIAL
 73
     1
 44
1.0
  0
MTEXT
  5
59601
330
594A7
100
AcDbEntity
  8
DWGDIM
440
 16777216
100
AcDbMText
 10
20.64657156816855
 20
13.25533421317341
 30
0.0
 40
0.25
 41
0.0
 46
0.0
 71
     5
 72
     1
  1
\A1;[22]
  7
ARIAL
 73
     1
 44
1.0
  0
POINT
  5
59602
330
594A7
100
AcDbEntity
  8
Defpoints
 62
     0
440
 16777216
100
AcDbPoint
 10
19.1624344849651
 20
12.70248401016204
 30
0.0
  0
POINT
  5
59603
330
594A7
100
AcDbEntity
  8
Defpoints
 62
     0
440
 16777216
100
AcDbPoint
 10
20.03849516980565
 20
12.70248401016205
 30
0.0
  0
POINT
  5
59604
330
594A7
100
AcDbEntity
  8
Defpoints
 62
     0
440
 16777216
100
AcDbPoint
 10
20.03849516980565
 20
13.50554908356905
 30
0.0
  0
ENDBLK
  5
594B4
330
594A7
100
AcDbEntity
  8
0
100
AcDbBlockEnd
  0
BLOCK
  5
5950A
330
594FD
100
AcDbEntity
  8
0
100
AcDbBlockBegin
  2
*D26
 70
     1
 10
0.0
 20
0.0
 30
0.0
  3
*D26
  1

  0
LINE
  5
59914
330
594FD
100
AcDbEntity
  8
DWGDIM
440
 16777216
370
    -2
100
AcDbLine
 10
18.91263773455165
 20
3.263901527407864
 30
0.0
 11
18.48263773455165
 21
3.263901527407864
 31
0.0
  0
LINE
  5
59915
330
594FD
100
AcDbEntity
  8
DWGDIM
440
 16777216
370
    -2
100
AcDbLine
 10
19.35003610975837
 20
4.096560687874473
 30
0.0
 11
18.48263773455165
 21
4.096560687874473
 31
0.0
  0
LINE
  5
59916
330
594FD
100
AcDbEntity
  8
DWGDIM
440
 16777216
370
    -2
100
AcDbLine
 10
18.66263773455165
 20
3.513901527407864
 30
0.0
 11
18.66263773455165
 21
3.846560687874473
 31
0.0
  0
LINE
  5
59917
330
594FD
100
AcDbEntity
  8
DWGDIM
440
 16777216
370
    -2
100
AcDbLine
 10
18.41263773455165
 20
4.566565352817381
 30
0.0
 11
18.66263773455165
 21
4.566565352817381
 31
0.0
  0
LINE
  5
59918
330
594FD
100
AcDbEntity
  8
DWGDIM
440
 16777216
370
    -2
100
AcDbLine
 10
18.66263773455165
 20
4.566565352817381
 30
0.0
 11
18.66263773455165
 21
4.096560687874473
 31
0.0
  0
MTEXT
  5
59919
330
594FD
100
AcDbEntity
  8
DWGDIM
440
 16777216
100
AcDbMText
 10
17.84065728889453
 20
4.566565352817384
 30
0.0
 40
0.25
 41
0.0
 46
0.0
 71
     5
 72
     1
  1
\A1;{\H1.000000x;\S13#16;}"\P [21]
  7
ARIAL
 73
     1
 44
1.0
  0
SOLID
  5
5991A
330
594FD
100
AcDbEntity
  8
DWGDIM
440
 16777216
100
AcDbTrace
 10
18.62097106788499
 20
3.513901527407864
 30
0.0
 11
18.70430440121832
 21
3.513901527407864
 31
0.0
 12
18.66263773455165
 22
3.263901527407864
 32
0.0
 13
18.66263773455165
 23
3.263901527407864
 33
0.0
  0
SOLID
  5
5991B
330
594FD
100
AcDbEntity
  8
DWGDIM
440
 16777216
100
AcDbTrace
 10
18.62097106788499
 20
3.846560687874473
 30
0.0
 11
18.70430440121832
 21
3.846560687874473
 31
0.0
 12
18.66263773455165
 22
4.096560687874473
 32
0.0
 13
18.66263773455165
 23
4.096560687874473
 33
0.0
  0
POINT
  5
5991C
330
594FD
100
AcDbEntity
  8
Defpoints
 62
     0
440
 16777216
100
AcDbPoint
 10
19.16263773455165
 20
3.263901527407863
 30
0.0
  0
POINT
  5
5991D
330
594FD
100
AcDbEntity
  8
Defpoints
 62
     0
440
 16777216
100
AcDbPoint
 10
19.60003610975837
 20
4.096560687874473
 30
0.0
  0
POINT
  5
5991E
330
594FD
100
AcDbEntity
  8
Defpoints
 62
     0
440
 16777216
100
AcDbPoint
 10
18.66263773455165
 20
4.096560687874473
 30
0.0
  0
ENDBLK
  5
5950B
330
594FD
100
AcDbEntity
  8
0
100
AcDbBlockEnd
  0
BLOCK
  5
59730
330
59724
100
AcDbEntity
  8
0
100
AcDbBlockBegin
  2
*D27
 70
     1
 10
0.0
 20
0.0
 30
0.0
  3
*D27
  1

  0
LINE
  5
59781
330
59724
100
AcDbEntity
  8
DWGDIM
440
 16777216
370
    -2
100
AcDbLine
 10
26.71032068038951
 20
3.271300732262878
 30
0.0
 11
27.78909126780329
 21
3.271300732262877
 31
0.0
  0
LINE
  5
59782
330
59724
100
AcDbEntity
  8
DWGDIM
440
 16777216
370
    -2
100
AcDbLine
 10
26.71032068038951
 20
6.248786108878718
 30
0.0
 11
27.78909126780329
 21
6.248786108878718
 31
0.0
  0
LINE
  5
59783
330
59724
100
AcDbEntity
  8
DWGDIM
440
 16777216
370
    -2
100
AcDbLine
 10
27.60909126780329
 20
3.521300732262877
 30
0.0
 11
27.60909126780329
 21
4.292100037214726
 31
0.0
  0
LINE
  5
59784
330
59724
100
AcDbEntity
  8
DWGDIM
440
 16777216
370
    -2
100
AcDbLine
 10
27.60909126780329
 20
5.998786108878718
 30
0.0
 11
27.60909126780329
 21
5.227986803926869
 31
0.0
  0
SOLID
  5
59785
330
59724
100
AcDbEntity
  8
DWGDIM
440
 16777216
100
AcDbTrace
 10
27.56742460113662
 20
3.521300732262877
 30
0.0
 11
27.65075793446996
 21
3.521300732262877
 31
0.0
 12
27.60909126780329
 22
3.271300732262877
 32
0.0
 13
27.60909126780329
 23
3.271300732262877
 33
0.0
  0
SOLID
  5
59786
330
59724
100
AcDbEntity
  8
DWGDIM
440
 16777216
100
AcDbTrace
 10
27.56742460113662
 20
5.998786108878718
 30
0.0
 11
27.65075793446996
 21
5.998786108878718
 31
0.0
 12
27.60909126780329
 22
6.248786108878718
 32
0.0
 13
27.60909126780329
 23
6.248786108878718
 33
0.0
  0
MTEXT
  5
59787
330
59724
100
AcDbEntity
  8
DWGDIM
440
 16777216
100
AcDbMText
 10
27.60909126780329
 20
4.977771933531238
 30
0.0
 40
0.25
 41
0.0
 46
0.0
 71
     5
 72
     1
  1
\A1;3"
  7
ARIAL
 73
     1
 44
1.0
  0
MTEXT
  5
59788
330
59724
100
AcDbEntity
  8
DWGDIM
440
 16777216
100
AcDbMText
 10
27.60909126780329
 20
4.509828550175168
 30
0.0
 40
0.25
 41
0.0
 46
0.0
 71
     5
 72
     1
  1
\A1;[76]
  7
ARIAL
 73
     1
 44
1.0
  0
POINT
  5
59789
330
59724
100
AcDbEntity
  8
Defpoints
 62
     0
440
 16777216
100
AcDbPoint
 10
26.46032068038951
 20
3.271300732262878
 30
0.0
  0
POINT
  5
5978A
330
59724
100
AcDbEntity
  8
Defpoints
 62
     0
440
 16777216
100
AcDbPoint
 10
26.46032068038951
 20
6.248786108878718
 30
0.0
  0
POINT
  5
5978B
330
59724
100
AcDbEntity
  8
Defpoints
 62
     0
440
 16777216
100
AcDbPoint
 10
27.60909126780329
 20
6.248786108878718
 30
0.0
  0
ENDBLK
  5
59731
330
59724
100
AcDbEntity
  8
0
100
AcDbBlockEnd
  0
BLOCK
  5
59755
330
59749
100
AcDbEntity
  8
0
100
AcDbBlockBegin
  2
*D28
 70
     1
 10
0.0
 20
0.0
 30
0.0
  3
*D28
  1

  0
LINE
  5
59776
330
59749
100
AcDbEntity
  8
DWGDIM
440
 16777216
370
    -2
100
AcDbLine
 10
26.71032068038951
 20
6.248786108878718
 30
0.0
 11
27.78909126780329
 21
6.248786108878718
 31
0.0
  0
LINE
  5
59777
330
59749
100
AcDbEntity
  8
DWGDIM
440
 16777216
370
    -2
100
AcDbLine
 10
26.71032068038951
 20
8.248786108878718
 30
0.0
 11
27.78909126780329
 21
8.248786108878718
 31
0.0
  0
LINE
  5
59778
330
59749
100
AcDbEntity
  8
DWGDIM
440
 16777216
370
    -2
100
AcDbLine
 10
27.60909126780329
 20
6.498786108878718
 30
0.0
 11
27.60909126780329
 21
6.783059642303001
 31
0.0
  0
LINE
  5
59779
330
59749
100
AcDbEntity
  8
DWGDIM
440
 16777216
370
    -2
100
AcDbLine
 10
27.60909126780329
 20
7.998786108878717
 30
0.0
 11
27.60909126780329
 21
7.714512575454433
 31
0.0
  0
SOLID
  5
5977A
330
59749
100
AcDbEntity
  8
DWGDIM
440
 16777216
100
AcDbTrace
 10
27.56742460113662
 20
6.498786108878718
 30
0.0
 11
27.65075793446996
 21
6.498786108878718
 31
0.0
 12
27.60909126780329
 22
6.248786108878718
 32
0.0
 13
27.60909126780329
 23
6.248786108878718
 33
0.0
  0
SOLID
  5
5977B
330
59749
100
AcDbEntity
  8
DWGDIM
440
 16777216
100
AcDbTrace
 10
27.56742460113662
 20
7.998786108878717
 30
0.0
 11
27.65075793446996
 21
7.998786108878717
 31
0.0
 12
27.60909126780329
 22
8.248786108878718
 32
0.0
 13
27.60909126780329
 23
8.248786108878718
 33
0.0
  0
MTEXT
  5
5977C
330
59749
100
AcDbEntity
  8
DWGDIM
440
 16777216
100
AcDbMText
 10
27.60909126780329
 20
7.464297705058803
 30
0.0
 40
0.25
 41
0.0
 46
0.0
 71
     5
 72
     1
  1
\A1;2"
  7
ARIAL
 73
     1
 44
1.0
  0
MTEXT
  5
5977D
330
59749
100
AcDbEntity
  8
DWGDIM
440
 16777216
100
AcDbMText
 10
27.60909126780329
 20
6.998571238483087
 30
0.0
 40
0.25
 41
0.0
 46
0.0
 71
     5
 72
     1
  1
\A1;[51]
  7
ARIAL
 73
     1
 44
1.0
  0
POINT
  5
5977E
330
59749
100
AcDbEntity
  8
Defpoints
 62
     0
440
 16777216
100
AcDbPoint
 10
26.46032068038951
 20
6.248786108878718
 30
0.0
  0
POINT
  5
5977F
330
59749
100
AcDbEntity
  8
Defpoints
 62
     0
440
 16777216
100
AcDbPoint
 10
26.46032068038951
 20
8.248786108878718
 30
0.0
  0
POINT
  5
59780
330
59749
100
AcDbEntity
  8
Defpoints
 62
     0
440
 16777216
100
AcDbPoint
 10
27.60909126780329
 20
8.248786108878718
 30
0.0
  0
ENDBLK
  5
59756
330
59749
100
AcDbEntity
  8
0
100
AcDbBlockEnd
  0
BLOCK
  5
59799
330
59798
100
AcDbEntity
  8
0
100
AcDbBlockBegin
  2
*D29
 70
     1
 10
0.0
 20
0.0
 30
0.0
  3
*D29
  1

  0
LINE
  5
5979A
330
59798
100
AcDbEntity
  8
DWGDIM
370
    -2
100
AcDbLine
 10
25.4661319600212
 20
13.21369957921277
 30
0.0
 11
25.4661319600212
 21
13.68554908356904
 31
0.0
  0
LINE
  5
5979B
330
59798
100
AcDbEntity
  8
DWGDIM
370
    -2
100
AcDbLine
 10
26.46032068038951
 20
9.991591531489543
 30
0.0
 11
26.46032068038951
 21
13.68554908356904
 31
0.0
  0
LINE
  5
5979C
330
59798
100
AcDbEntity
  8
DWGDIM
370
    -2
100
AcDbLine
 10
25.7161319600212
 20
13.50554908356904
 30
0.0
 11
26.21032068038951
 21
13.50554908356904
 31
0.0
  0
LINE
  5
5979D
330
59798
100
AcDbEntity
  8
DWGDIM
370
    -2
100
AcDbLine
 10
26.46032068038951
 20
13.50554908356904
 30
0.0
 11
26.71032068038951
 21
13.50554908356904
 31
0.0
  0
SOLID
  5
5979E
330
59798
100
AcDbEntity
  8
DWGDIM
100
AcDbTrace
 10
25.7161319600212
 20
13.54721575023571
 30
0.0
 11
25.7161319600212
 21
13.46388241690238
 31
0.0
 12
25.4661319600212
 22
13.50554908356904
 32
0.0
 13
25.4661319600212
 23
13.50554908356904
 33
0.0
  0
SOLID
  5
5979F
330
59798
100
AcDbEntity
  8
DWGDIM
100
AcDbTrace
 10
26.21032068038951
 20
13.54721575023571
 30
0.0
 11
26.21032068038951
 21
13.46388241690238
 31
0.0
 12
26.46032068038951
 22
13.50554908356904
 32
0.0
 13
26.46032068038951
 23
13.50554908356904
 33
0.0
  0
MTEXT
  5
597A0
330
59798
100
AcDbEntity
  8
DWGDIM
100
AcDbMText
 10
27.0683970787524
 20
13.72106067974913
 30
0.0
 40
0.25
 41
0.0
 46
0.0
 71
     5
 72
     1
  1
\A1;1"
  7
ARIAL
 73
     1
 44
1.0
  0
MTEXT
  5
597A1
330
59798
100
AcDbEntity
  8
DWGDIM
100
AcDbMText
 10
27.0683970787524
 20
13.25533421317341
 30
0.0
 40
0.25
 41
0.0
 46
0.0
 71
     5
 72
     1
  1
\A1;[25]
  7
ARIAL
 73
     1
 44
1.0
  0
POINT
  5
597A2
330
59798
100
AcDbEntity
  8
Defpoints
 62
     0
100
AcDbPoint
 10
25.4661319600212
 20
12.96369957921277
 30
0.0
  0
POINT
  5
597A3
330
59798
100
AcDbEntity
  8
Defpoints
 62
     0
100
AcDbPoint
 10
26.46032068038951
 20
9.741591531489543
 30
0.0
  0
POINT
  5
597A4
330
59798
100
AcDbEntity
  8
Defpoints
 62
     0
100
AcDbPoint
 10
26.46032068038951
 20
13.50554908356904
 30
0.0
  0
ENDBLK
  5
597A5
330
59798
100
AcDbEntity
  8
0
100
AcDbBlockEnd
  0
BLOCK
  5
597A7
330
597A6
100
AcDbEntity
  8
0
100
AcDbBlockBegin
  2
*D30
 70
     1
 10
0.0
 20
0.0
 30
0.0
  3
*D30
  1

  0
LINE
  5
597A8
330
597A6
100
AcDbEntity
  8
DWGDIM
370
    -2
100
AcDbLine
 10
25.35046482738535
 20
13.00554908356904
 30
0.0
 11
24.28613196002117
 21
13.00554908356904
 31
0.0
  0
LINE
  5
597A9
330
597A6
100
AcDbEntity
  8
DWGDIM
370
    -2
100
AcDbLine
 10
25.2272825559433
 20
10.9938069832264
 30
0.0
 11
24.28613196002117
 21
10.9938069832264
 31
0.0
  0
LINE
  5
597AA
330
597A6
100
AcDbEntity
  8
DWGDIM
370
    -2
100
AcDbLine
 10
24.46613196002117
 20
12.75554908356904
 30
0.0
 11
24.46613196002117
 21
12.46540449997344
 31
0.0
  0
LINE
  5
597AB
330
597A6
100
AcDbEntity
  8
DWGDIM
370
    -2
100
AcDbLine
 10
24.46613196002117
 20
11.2438069832264
 30
0.0
 11
24.46613196002117
 21
11.533951566822
 31
0.0
  0
SOLID
  5
597AC
330
597A6
100
AcDbEntity
  8
DWGDIM
100
AcDbTrace
 10
24.4244652933545
 20
12.75554908356904
 30
0.0
 11
24.50779862668784
 21
12.75554908356904
 31
0.0
 12
24.46613196002117
 22
13.00554908356904
 32
0.0
 13
24.46613196002117
 23
13.00554908356904
 33
0.0
  0
SOLID
  5
597AD
330
597A6
100
AcDbEntity
  8
DWGDIM
100
AcDbTrace
 10
24.4244652933545
 20
11.2438069832264
 30
0.0
 11
24.50779862668784
 21
11.2438069832264
 31
0.0
 12
24.46613196002117
 22
10.9938069832264
 32
0.0
 13
24.46613196002117
 23
10.9938069832264
 33
0.0
  0
MTEXT
  5
597AE
330
597A6
100
AcDbEntity
  8
DWGDIM
100
AcDbMText
 10
24.46613196002117
 20
12.21518962957781
 30
0.0
 40
0.25
 41
0.0
 46
0.0
 71
     5
 72
     1
  1
\A1;2"
  7
ARIAL
 73
     1
 44
1.0
  0
MTEXT
  5
597AF
330
597A6
100
AcDbEntity
  8
DWGDIM
100
AcDbMText
 10
24.46613196002117
 20
11.74946316300209
 30
0.0
 40
0.25
 41
0.0
 46
0.0
 71
     5
 72
     1
  1
\A1;[51]
  7
ARIAL
 73
     1
 44
1.0
  0
POINT
  5
597B0
330
597A6
100
AcDbEntity
  8
Defpoints
 62
     0
100
AcDbPoint
 10
25.60046482738535
 20
13.00554908356904
 30
0.0
  0
POINT
  5
597B1
330
597A6
100
AcDbEntity
  8
Defpoints
 62
     0
100
AcDbPoint
 10
25.47728255594329
 20
10.9938069832264
 30
0.0
  0
POINT
  5
597B2
330
597A6
100
AcDbEntity
  8
Defpoints
 62
     0
100
AcDbPoint
 10
24.46613196002117
 20
10.9938069832264
 30
0.0
  0
ENDBLK
  5
597B3
330
597A6
100
AcDbEntity
  8
0
100
AcDbBlockEnd
  0
BLOCK
  5
597B5
330
597B4
100
AcDbEntity
  8
0
100
AcDbBlockBegin
  2
*D31
 70
     1
 10
0.0
 20
0.0
 30
0.0
  3
*D31
  1

  0
LINE
  5
597B6
330
597B4
100
AcDbEntity
  8
DWGDIM
370
    -2
100
AcDbLine
 10
26.71032068038951
 20
9.741591531489541
 30
0.0
 11
28.64032068038951
 21
9.74159153148954
 31
0.0
  0
LINE
  5
597B7
330
597B4
100
AcDbEntity
  8
DWGDIM
370
    -2
100
AcDbLine
 10
25.44044531189149
 20
3.271300732262878
 30
0.0
 11
28.64032068038951
 21
3.271300732262877
 31
0.0
  0
LINE
  5
597B8
330
597B4
100
AcDbEntity
  8
DWGDIM
370
    -2
100
AcDbLine
 10
28.46032068038951
 20
9.49159153148954
 30
0.0
 11
28.46032068038951
 21
7.099815845382348
 31
0.0
  0
LINE
  5
597B9
330
597B4
100
AcDbEntity
  8
DWGDIM
370
    -2
100
AcDbLine
 10
28.46032068038951
 20
3.521300732262877
 30
0.0
 11
28.46032068038951
 21
5.913076418370069
 31
0.0
  0
SOLID
  5
597BA
330
597B4
100
AcDbEntity
  8
DWGDIM
100
AcDbTrace
 10
28.41865401372285
 20
9.49159153148954
 30
0.0
 11
28.50198734705618
 21
9.49159153148954
 31
0.0
 12
28.46032068038951
 22
9.74159153148954
 32
0.0
 13
28.46032068038951
 23
9.74159153148954
 33
0.0
  0
SOLID
  5
597BB
330
597B4
100
AcDbEntity
  8
DWGDIM
100
AcDbTrace
 10
28.41865401372284
 20
3.521300732262877
 30
0.0
 11
28.50198734705618
 21
3.521300732262877
 31
0.0
 12
28.46032068038951
 22
3.271300732262877
 32
0.0
 13
28.46032068038951
 23
3.271300732262877
 33
0.0
  0
MTEXT
  5
597BC
102
{ACAD_XDICTIONARY
360
598EE
102
}
330
597B4
100
AcDbEntity
  8
DWGDIM
100
AcDbMText
 10
28.46032068038951
 20
6.849600974986717
 30
0.0
 40
0.25
 41
0.0
 46
0.0
 71
     5
 72
     1
  1
\A1;6{\H1.000000x;\S1#2;}"
  7
ARIAL
 73
     1
 44
1.0
  0
MTEXT
  5
597BD
330
597B4
100
AcDbEntity
  8
DWGDIM
100
AcDbMText
 10
28.46032068038951
 20
6.256231261480579
 30
0.0
 40
0.25
 41
0.0
 46
0.0
 71
     5
 72
     1
  1
\A1;[164]
  7
ARIAL
 73
     1
 44
1.0
  0
POINT
  5
597BE
330
597B4
100
AcDbEntity
  8
Defpoints
 62
     0
100
AcDbPoint
 10
26.4603206803895
 20
9.741591531489541
 30
0.0
  0
POINT
  5
597BF
330
597B4
100
AcDbEntity
  8
Defpoints
 62
     0
100
AcDbPoint
 10
25.19044531189149
 20
3.271300732262878
 30
0.0
  0
POINT
  5
597C0
330
597B4
100
AcDbEntity
  8
Defpoints
 62
     0
100
AcDbPoint
 10
28.46032068038951
 20
3.271300732262877
 30
0.0
  0
ENDBLK
  5
597C1
330
597B4
100
AcDbEntity
  8
0
100
AcDbBlockEnd
  0
BLOCK
  5
597C3
330
597C2
100
AcDbEntity
  8
0
100
AcDbBlockBegin
  2
*D32
 70
     1
 10
0.0
 20
0.0
 30
0.0
  3
*D32
  1

  0
LINE
  5
597C4
330
597C2
100
AcDbEntity
  8
DWGDIM
370
    -2
100
AcDbLine
 10
26.46032068038951
 20
4.189687901256238
 30
0.0
 11
26.46032068038951
 21
2.432884316501197
 31
0.0
  0
LINE
  5
597C5
330
597C2
100
AcDbEntity
  8
DWGDIM
370
    -2
100
AcDbLine
 10
24.26814356147835
 20
3.658059050383276
 30
0.0
 11
24.26814356147835
 21
2.432884316501198
 31
0.0
  0
LINE
  5
597C6
330
597C2
100
AcDbEntity
  8
DWGDIM
370
    -2
100
AcDbLine
 10
26.21032068038951
 20
2.612884316501197
 30
0.0
 11
24.51814356147835
 21
2.612884316501197
 31
0.0
  0
LINE
  5
597C7
330
597C2
100
AcDbEntity
  8
DWGDIM
370
    -2
100
AcDbLine
 10
26.92389823939639
 20
2.612884316501197
 30
0.0
 11
26.46032068038951
 21
2.612884316501197
 31
0.0
  0
MTEXT
  5
597C8
102
{ACAD_XDICTIONARY
360
598F0
102
}
330
597C2
100
AcDbEntity
  8
DWGDIM
100
AcDbMText
 10
27.45878796199757
 20
2.612884316501197
 30
0.0
 40
0.25
 41
0.0
 46
0.0
 71
     5
 72
     1
  1
\A1;2{\H1.000000x;\S3#16;}"\P [56]
  7
ARIAL
 73
     1
 44
1.0
  0
SOLID
  5
597C9
330
597C2
100
AcDbEntity
  8
DWGDIM
100
AcDbTrace
 10
26.21032068038951
 20
2.654550983167864
 30
0.0
 11
26.21032068038951
 21
2.571217649834531
 31
0.0
 12
26.46032068038951
 22
2.612884316501197
 32
0.0
 13
26.46032068038951
 23
2.612884316501197
 33
0.0
  0
SOLID
  5
597CA
330
597C2
100
AcDbEntity
  8
DWGDIM
100
AcDbTrace
 10
24.51814356147835
 20
2.654550983167864
 30
0.0
 11
24.51814356147835
 21
2.571217649834531
 31
0.0
 12
24.26814356147835
 22
2.612884316501197
 32
0.0
 13
24.26814356147835
 23
2.612884316501197
 33
0.0
  0
POINT
  5
597CB
330
597C2
100
AcDbEntity
  8
Defpoints
 62
     0
100
AcDbPoint
 10
26.46032068038951
 20
4.439687901256238
 30
0.0
  0
POINT
  5
597CC
330
597C2
100
AcDbEntity
  8
Defpoints
 62
     0
100
AcDbPoint
 10
24.26814356147835
 20
3.908059050383276
 30
0.0
  0
POINT
  5
597CD
330
597C2
100
AcDbEntity
  8
Defpoints
 62
     0
100
AcDbPoint
 10
24.26814356147835
 20
2.612884316501197
 30
0.0
  0
ENDBLK
  5
597CE
330
597C2
100
AcDbEntity
  8
0
100
AcDbBlockEnd
  0
BLOCK
  5
597D0
330
597CF
100
AcDbEntity
  8
0
100
AcDbBlockBegin
  2
*D33
 70
     1
 10
0.0
 20
0.0
 30
0.0
  3
*D33
  1

  0
LINE
  5
597D1
330
597CF
100
AcDbEntity
  8
DWGDIM
370
    -2
100
AcDbLine
 10
18.91263773455165
 20
3.263901527407864
 30
0.0
 11
16.98263773455165
 21
3.263901527407864
 31
0.0
  0
LINE
  5
597D2
330
597CF
100
AcDbEntity
  8
DWGDIM
370
    -2
100
AcDbLine
 10
19.35046482738538
 20
13.00554908356905
 30
0.0
 11
16.98263773455165
 21
13.00554908356905
 31
0.0
  0
LINE
  5
597D3
330
597CF
100
AcDbEntity
  8
DWGDIM
370
    -2
100
AcDbLine
 10
17.16263773455165
 20
3.513901527407864
 30
0.0
 11
17.16263773455165
 21
7.539650271382043
 31
0.0
  0
LINE
  5
597D4
330
597CF
100
AcDbEntity
  8
DWGDIM
370
    -2
100
AcDbLine
 10
17.16263773455165
 20
12.75554908356905
 30
0.0
 11
17.16263773455165
 21
8.729800339594866
 31
0.0
  0
SOLID
  5
597D5
330
597CF
100
AcDbEntity
  8
DWGDIM
100
AcDbTrace
 10
17.12097106788498
 20
3.513901527407864
 30
0.0
 11
17.20430440121832
 21
3.513901527407864
 31
0.0
 12
17.16263773455165
 22
3.263901527407864
 32
0.0
 13
17.16263773455165
 23
3.263901527407864
 33
0.0
  0
SOLID
  5
597D6
330
597CF
100
AcDbEntity
  8
DWGDIM
100
AcDbTrace
 10
17.12097106788499
 20
12.75554908356905
 30
0.0
 11
17.20430440121832
 21
12.75554908356905
 31
0.0
 12
17.16263773455165
 22
13.00554908356905
 32
0.0
 13
17.16263773455165
 23
13.00554908356905
 33
0.0
  0
MTEXT
  5
597D7
102
{ACAD_XDICTIONARY
360
598F2
102
}
330
597CF
100
AcDbEntity
  8
DWGDIM
100
AcDbMText
 10
17.16263773455165
 20
8.479585469199234
 30
0.0
 40
0.25
 41
0.0
 46
0.0
 71
     5
 72
     1
  1
\A1;9{\H1.000000x;\S3#4;}"
  7
ARIAL
 73
     1
 44
1.0
  0
MTEXT
  5
597D8
330
597CF
100
AcDbEntity
  8
DWGDIM
100
AcDbMText
 10
17.16263773455165
 20
7.884510435092822
 30
0.0
 40
0.25
 41
0.0
 46
0.0
 71
     5
 72
     1
  1
\A1;[247]
  7
ARIAL
 73
     1
 44
1.0
  0
POINT
  5
597D9
330
597CF
100
AcDbEntity
  8
Defpoints
 62
     0
100
AcDbPoint
 10
19.16263773455165
 20
3.263901527407863
 30
0.0
  0
POINT
  5
597DA
330
597CF
100
AcDbEntity
  8
Defpoints
 62
     0
100
AcDbPoint
 10
19.60046482738538
 20
13.00554908356905
 30
0.0
  0
POINT
  5
597DB
330
597CF
100
AcDbEntity
  8
Defpoints
 62
     0
100
AcDbPoint
 10
17.16263773455165
 20
13.00554908356905
 30
0.0
  0
ENDBLK
  5
597DC
330
597CF
100
AcDbEntity
  8
0
100
AcDbBlockEnd
  0
BLOCK
  5
597DE
330
597DD
100
AcDbEntity
  8
0
100
AcDbBlockBegin
  2
*D34
 70
     1
 10
0.0
 20
0.0
 30
0.0
  3
*D34
  1

  0
LINE
  5
597DF
330
597DD
100
AcDbEntity
  8
DWGDIM
370
    -2
100
AcDbLine
 10
19.1624344849651
 20
12.95248401016204
 30
0.0
 11
19.1624344849651
 21
13.68554908356905
 31
0.0
  0
LINE
  5
597E0
330
597DD
100
AcDbEntity
  8
DWGDIM
370
    -2
100
AcDbLine
 10
20.03849516980565
 20
12.95248401016205
 30
0.0
 11
20.03849516980565
 21
13.68554908356905
 31
0.0
  0
LINE
  5
597E1
330
597DD
100
AcDbEntity
  8
DWGDIM
370
    -2
100
AcDbLine
 10
19.4124344849651
 20
13.50554908356905
 30
0.0
 11
19.78849516980565
 21
13.50554908356905
 31
0.0
  0
LINE
  5
597E2
330
597DD
100
AcDbEntity
  8
DWGDIM
370
    -2
100
AcDbLine
 10
20.03849516980565
 20
13.50554908356905
 30
0.0
 11
20.28849516980566
 21
13.50554908356905
 31
0.0
  0
SOLID
  5
597E3
330
597DD
100
AcDbEntity
  8
DWGDIM
100
AcDbTrace
 10
19.4124344849651
 20
13.54721575023571
 30
0.0
 11
19.4124344849651
 21
13.46388241690238
 31
0.0
 12
19.1624344849651
 22
13.50554908356905
 32
0.0
 13
19.1624344849651
 23
13.50554908356905
 33
0.0
  0
SOLID
  5
597E4
330
597DD
100
AcDbEntity
  8
DWGDIM
100
AcDbTrace
 10
19.78849516980565
 20
13.54721575023571
 30
0.0
 11
19.78849516980565
 21
13.46388241690238
 31
0.0
 12
20.03849516980565
 22
13.50554908356905
 32
0.0
 13
20.03849516980565
 23
13.50554908356905
 33
0.0
  0
MTEXT
  5
597E5
102
{ACAD_XDICTIONARY
360
598F4
102
}
330
597DD
100
AcDbEntity
  8
DWGDIM
100
AcDbMText
 10
20.64657156816855
 20
13.84657227592921
 30
0.0
 40
0.25
 41
0.0
 46
0.0
 71
     5
 72
     1
  1
\A1;{\H1.000000x;\S7#8;}"
  7
ARIAL
 73
     1
 44
1.0
  0
MTEXT
  5
597E6
330
597DD
100
AcDbEntity
  8
DWGDIM
100
AcDbMText
 10
20.64657156816855
 20
13.25533421317341
 30
0.0
 40
0.25
 41
0.0
 46
0.0
 71
     5
 72
     1
  1
\A1;[22]
  7
ARIAL
 73
     1
 44
1.0
  0
POINT
  5
597E7
330
597DD
100
AcDbEntity
  8
Defpoints
 62
     0
100
AcDbPoint
 10
19.1624344849651
 20
12.70248401016204
 30
0.0
  0
POINT
  5
597E8
330
597DD
100
AcDbEntity
  8
Defpoints
 62
     0
100
AcDbPoint
 10
20.03849516980565
 20
12.70248401016205
 30
0.0
  0
POINT
  5
597E9
330
597DD
100
AcDbEntity
  8
Defpoints
 62
     0
100
AcDbPoint
 10
20.03849516980565
 20
13.50554908356905
 30
0.0
  0
ENDBLK
  5
597EA
330
597DD
100
AcDbEntity
  8
0
100
AcDbBlockEnd
  0
BLOCK
  5
597EC
330
597EB
100
AcDbEntity
  8
0
100
AcDbBlockBegin
  2
*D35
 70
     1
 10
0.0
 20
0.0
 30
0.0
  3
*D35
  1

  0
LINE
  5
597ED
330
597EB
100
AcDbEntity
  8
DWGDIM
370
    -2
100
AcDbLine
 10
18.91263773455165
 20
3.263901527407864
 30
0.0
 11
18.48263773455165
 21
3.263901527407864
 31
0.0
  0
LINE
  5
597EE
330
597EB
100
AcDbEntity
  8
DWGDIM
370
    -2
100
AcDbLine
 10
19.35003610975837
 20
4.096560687874473
 30
0.0
 11
18.48263773455165
 21
4.096560687874473
 31
0.0
  0
LINE
  5
597EF
330
597EB
100
AcDbEntity
  8
DWGDIM
370
    -2
100
AcDbLine
 10
18.66263773455165
 20
3.513901527407864
 30
0.0
 11
18.66263773455165
 21
3.846560687874473
 31
0.0
  0
LINE
  5
597F0
330
597EB
100
AcDbEntity
  8
DWGDIM
370
    -2
100
AcDbLine
 10
18.41263773455165
 20
4.566565352817381
 30
0.0
 11
18.66263773455165
 21
4.566565352817381
 31
0.0
  0
LINE
  5
597F1
330
597EB
100
AcDbEntity
  8
DWGDIM
370
    -2
100
AcDbLine
 10
18.66263773455165
 20
4.566565352817381
 30
0.0
 11
18.66263773455165
 21
4.096560687874473
 31
0.0
  0
MTEXT
  5
597F2
102
{ACAD_XDICTIONARY
360
598F6
102
}
330
597EB
100
AcDbEntity
  8
DWGDIM
100
AcDbMText
 10
17.88431349626152
 20
4.566565352817384
 30
0.0
 40
0.25
 41
0.0
 46
0.0
 71
     5
 72
     1
  1
\A1;{\H1.000000x;\S13#16;}"\P [21]
  7
ARIAL
 73
     1
 44
1.0
  0
SOLID
  5
597F3
330
597EB
100
AcDbEntity
  8
DWGDIM
100
AcDbTrace
 10
18.62097106788499
 20
3.513901527407864
 30
0.0
 11
18.70430440121832
 21
3.513901527407864
 31
0.0
 12
18.66263773455165
 22
3.263901527407864
 32
0.0
 13
18.66263773455165
 23
3.263901527407864
 33
0.0
  0
SOLID
  5
597F4
330
597EB
100
AcDbEntity
  8
DWGDIM
100
AcDbTrace
 10
18.62097106788499
 20
3.846560687874473
 30
0.0
 11
18.70430440121832
 21
3.846560687874473
 31
0.0
 12
18.66263773455165
 22
4.096560687874473
 32
0.0
 13
18.66263773455165
 23
4.096560687874473
 33
0.0
  0
POINT
  5
597F5
330
597EB
100
AcDbEntity
  8
Defpoints
 62
     0
100
AcDbPoint
 10
19.16263773455165
 20
3.263901527407863
 30
0.0
  0
POINT
  5
597F6
330
597EB
100
AcDbEntity
  8
Defpoints
 62
     0
100
AcDbPoint
 10
19.60003610975837
 20
4.096560687874473
 30
0.0
  0
POINT
  5
597F7
330
597EB
100
AcDbEntity
  8
Defpoints
 62
     0
100
AcDbPoint
 10
18.66263773455165
 20
4.096560687874473
 30
0.0
  0
ENDBLK
  5
597F8
330
597EB
100
AcDbEntity
  8
0
100
AcDbBlockEnd
  0
BLOCK
  5
597FA
330
597F9
100
AcDbEntity
  8
0
100
AcDbBlockBegin
  2
*D36
 70
     1
 10
0.0
 20
0.0
 30
0.0
  3
*D36
  1

  0
LINE
  5
597FB
330
597F9
100
AcDbEntity
  8
DWGDIM
370
    -2
100
AcDbLine
 10
26.71032068038951
 20
3.271300732262878
 30
0.0
 11
27.78909126780329
 21
3.271300732262877
 31
0.0
  0
LINE
  5
597FC
330
597F9
100
AcDbEntity
  8
DWGDIM
370
    -2
100
AcDbLine
 10
26.71032068038951
 20
6.248786108878718
 30
0.0
 11
27.78909126780329
 21
6.248786108878718
 31
0.0
  0
LINE
  5
597FD
330
597F9
100
AcDbEntity
  8
DWGDIM
370
    -2
100
AcDbLine
 10
27.60909126780329
 20
3.521300732262877
 30
0.0
 11
27.60909126780329
 21
4.292100037214726
 31
0.0
  0
LINE
  5
597FE
330
597F9
100
AcDbEntity
  8
DWGDIM
370
    -2
100
AcDbLine
 10
27.60909126780329
 20
5.998786108878718
 30
0.0
 11
27.60909126780329
 21
5.227986803926869
 31
0.0
  0
SOLID
  5
597FF
330
597F9
100
AcDbEntity
  8
DWGDIM
100
AcDbTrace
 10
27.56742460113662
 20
3.521300732262877
 30
0.0
 11
27.65075793446996
 21
3.521300732262877
 31
0.0
 12
27.60909126780329
 22
3.271300732262877
 32
0.0
 13
27.60909126780329
 23
3.271300732262877
 33
0.0
  0
SOLID
  5
59800
330
597F9
100
AcDbEntity
  8
DWGDIM
100
AcDbTrace
 10
27.56742460113662
 20
5.998786108878718
 30
0.0
 11
27.65075793446996
 21
5.998786108878718
 31
0.0
 12
27.60909126780329
 22
6.248786108878718
 32
0.0
 13
27.60909126780329
 23
6.248786108878718
 33
0.0
  0
MTEXT
  5
59801
330
597F9
100
AcDbEntity
  8
DWGDIM
100
AcDbMText
 10
27.60909126780329
 20
4.977771933531238
 30
0.0
 40
0.25
 41
0.0
 46
0.0
 71
     5
 72
     1
  1
\A1;3"
  7
ARIAL
 73
     1
 44
1.0
  0
MTEXT
  5
59802
330
597F9
100
AcDbEntity
  8
DWGDIM
100
AcDbMText
 10
27.60909126780329
 20
4.509828550175168
 30
0.0
 40
0.25
 41
0.0
 46
0.0
 71
     5
 72
     1
  1
\A1;[76]
  7
ARIAL
 73
     1
 44
1.0
  0
POINT
  5
59803
330
597F9
100
AcDbEntity
  8
Defpoints
 62
     0
100
AcDbPoint
 10
26.46032068038951
 20
3.271300732262878
 30
0.0
  0
POINT
  5
59804
330
597F9
100
AcDbEntity
  8
Defpoints
 62
     0
100
AcDbPoint
 10
26.46032068038951
 20
6.248786108878718
 30
0.0
  0
POINT
  5
59805
330
597F9
100
AcDbEntity
  8
Defpoints
 62
     0
100
AcDbPoint
 10
27.60909126780329
 20
6.248786108878718
 30
0.0
  0
ENDBLK
  5
59806
330
597F9
100
AcDbEntity
  8
0
100
AcDbBlockEnd
  0
BLOCK
  5
59808
330
59807
100
AcDbEntity
  8
0
100
AcDbBlockBegin
  2
*D37
 70
     1
 10
0.0
 20
0.0
 30
0.0
  3
*D37
  1

  0
LINE
  5
59809
330
59807
100
AcDbEntity
  8
DWGDIM
370
    -2
100
AcDbLine
 10
26.71032068038951
 20
6.248786108878718
 30
0.0
 11
27.78909126780329
 21
6.248786108878718
 31
0.0
  0
LINE
  5
5980A
330
59807
100
AcDbEntity
  8
DWGDIM
370
    -2
100
AcDbLine
 10
26.71032068038951
 20
8.248786108878718
 30
0.0
 11
27.78909126780329
 21
8.248786108878718
 31
0.0
  0
LINE
  5
5980B
330
59807
100
AcDbEntity
  8
DWGDIM
370
    -2
100
AcDbLine
 10
27.60909126780329
 20
6.498786108878718
 30
0.0
 11
27.60909126780329
 21
6.783059642303001
 31
0.0
  0
LINE
  5
5980C
330
59807
100
AcDbEntity
  8
DWGDIM
370
    -2
100
AcDbLine
 10
27.60909126780329
 20
7.998786108878717
 30
0.0
 11
27.60909126780329
 21
7.714512575454433
 31
0.0
  0
SOLID
  5
5980D
330
59807
100
AcDbEntity
  8
DWGDIM
100
AcDbTrace
 10
27.56742460113662
 20
6.498786108878718
 30
0.0
 11
27.65075793446996
 21
6.498786108878718
 31
0.0
 12
27.60909126780329
 22
6.248786108878718
 32
0.0
 13
27.60909126780329
 23
6.248786108878718
 33
0.0
  0
SOLID
  5
5980E
330
59807
100
AcDbEntity
  8
DWGDIM
100
AcDbTrace
 10
27.56742460113662
 20
7.998786108878717
 30
0.0
 11
27.65075793446996
 21
7.998786108878717
 31
0.0
 12
27.60909126780329
 22
8.248786108878718
 32
0.0
 13
27.60909126780329
 23
8.248786108878718
 33
0.0
  0
MTEXT
  5
5980F
330
59807
100
AcDbEntity
  8
DWGDIM
100
AcDbMText
 10
27.60909126780329
 20
7.464297705058803
 30
0.0
 40
0.25
 41
0.0
 46
0.0
 71
     5
 72
     1
  1
\A1;2"
  7
ARIAL
 73
     1
 44
1.0
  0
MTEXT
  5
59810
330
59807
100
AcDbEntity
  8
DWGDIM
100
AcDbMText
 10
27.60909126780329
 20
6.998571238483087
 30
0.0
 40
0.25
 41
0.0
 46
0.0
 71
     5
 72
     1
  1
\A1;[51]
  7
ARIAL
 73
     1
 44
1.0
  0
POINT
  5
59811
330
59807
100
AcDbEntity
  8
Defpoints
 62
     0
100
AcDbPoint
 10
26.46032068038951
 20
6.248786108878718
 30
0.0
  0
POINT
  5
59812
330
59807
100
AcDbEntity
  8
Defpoints
 62
     0
100
AcDbPoint
 10
26.46032068038951
 20
8.248786108878718
 30
0.0
  0
POINT
  5
59813
330
59807
100
AcDbEntity
  8
Defpoints
 62
     0
100
AcDbPoint
 10
27.60909126780329
 20
8.248786108878718
 30
0.0
  0
ENDBLK
  5
59814
330
59807
100
AcDbEntity
  8
0
100
AcDbBlockEnd
  0
BLOCK
  5
59844
330
59815
100
AcDbEntity
  8
0
100
AcDbBlockBegin
  2
A$C63D37935
 70
     0
 10
0.0
 20
0.0
 30
0.0
  3
A$C63D37935
  1

  0
LWPOLYLINE
  5
59816
102
{ACAD_REACTORS
330
59839
102
}
330
59815
100
AcDbEntity
  8
DWGLNS
100
AcDbPolyline
 90
        2
 70
     0
 43
0.015625
 10
3.279433841186406
 20
1.787318931161679
 42
0.6932485138264072
 10
2.404230591599855
 20
1.787318931161672
  0
LWPOLYLINE
  5
59817
330
59815
100
AcDbEntity
  8
DWGLNS
100
AcDbPolyline
 90
        2
 70
     0
 43
0.0
 10
3.279433841186417
 20
7.726624005834075
 10
2.404433841186417
 20
7.726624005834075
  0
CIRCLE
  5
59818
330
59815
100
AcDbEntity
  8
DWGLNS
100
AcDbCircle
 10
2.841933841186417
 20
6.25802644673103
 30
0.0
 40
0.109375
  0
LWPOLYLINE
  5
59819
330
59815
100
AcDbEntity
  8
DWGLNS
100
AcDbPolyline
 90
        2
 70
     0
 43
0.0
 10
3.279433841186403
 20
8.999674002892211
 10
2.404433841186403
 20
8.999674002892211
  0
LWPOLYLINE
  5
5981A
330
59815
100
AcDbEntity
  8
DWGLNS
100
AcDbPolyline
 90
        2
 70
     0
 43
0.0
 10
8.707928066655952
 20
10.73463322583515
 10
8.977973452435087
 20
10.73463322583515
  0
LWPOLYLINE
  5
5981B
102
{ACAD_REACTORS
330
5982F
330
59832
102
}
330
59815
100
AcDbEntity
  8
DWGLNS
100
AcDbPolyline
 90
        2
 70
     0
 43
0.015625
 10
3.280291276440408
 20
10.69660892948522
 42
0.6918814612989027
 10
2.404230591599855
 20
10.69660892948521
  0
LWPOLYLINE
  5
5981C
102
{ACAD_REACTORS
330
5982F
102
}
330
59815
100
AcDbEntity
  8
DWGLNS
100
AcDbPolyline
 90
        4
 70
     0
 43
0.015625
 10
2.404433841186424
 20
10.69884492231555
 10
2.404433841186406
 20
1.25802644673103
 10
3.279433841186406
 20
1.25802644673103
 10
3.279433841186424
 20
10.70086264438768
  0
CIRCLE
  5
5981D
330
59815
100
AcDbEntity
  8
DWGLNS
100
AcDbCircle
 10
2.84193384118641
 20
4.25802644673103
 30
0.0
 40
0.113464447806354
  0
INSERT
  5
5981E
330
59815
100
AcDbEntity
  8
SSINFO_FRZ
100
AcDbBlockReference
  2
SSINFO_NIL
 10
-16.60691796295677
 20
-1.854589150268361
 30
0.151285930408472
 41
0.1512859304084735
 42
0.1512859304084735
 43
0.1512859304084735
1001
_DES112SSJYHX
1002
{
1000
material
1000
STEEL-0.20 CARBON(MILD)
1000
sp_grav
1040
0.2833999999999999
1000
shear
1040
50000.0
1000
tensile
1040
70000.0
1000
kfac
1040
33.3333
1000
mat_thk
1040
0.062
1000
3drelief
1040
0.1
1000
hole_size
1040
0.5
1000
tap_size
1040
0.375
1000
tap_drill
1040
0.316
1000
NCHTYP
1000
SIDE
1000
NCHRL
1040
0.25
1000
NCHIL
1040
90.0
1000
NCHWL
1040
0.0
1000
NCHDL
1040
1.0
1000
NCHBL
1040
1.0
1000
NCHAL
1040
1.0
1000
NCHMETH
1070
     1
1000
NCHPR
1070
     0
1000
NCHPI
1070
     0
1000
NCHPW
1070
     0
1000
NCHPD
1070
     0
1000
NCHPB
1070
     0
1000
NCHPA
1070
     0
1000
DIMSUF
1040
0.0
1000
DIMPRE
1040
0.0
1000
DHOLEROT
1040
0.0
1000
DHOLEYL
1040
1.0
1000
DHOLEXL
1040
0.75
1000
DHOLERD
1070
     0
1000
DHOLEPROT
1070
     0
1000
DHOLEPY
1070
     0
1000
DHOLEPX
1070
     0
1000
DHOLETYPE
1070
     0
1000
RNDRD
1070
     0
1000
RNDRAD
1040
0.5
1000
RNDINSPT
1070
     0
1000
RNDPR
1070
     0
1000
KEYMF
1070
     0
1000
KEYTYPE
1070
     1
1000
KEYOCC
1070
     0
1000
KEYRD
1070
     0
1000
KEYRAD
1040
1.0
1000
KEYROT
1040
0.0
1000
KEYYL
1040
0.25
1000
KEYXL
1040
0.5
1000
KEYINSPT
1070
     0
1000
KEYPROT
1070
     0
1000
KEYPY
1070
     0
1000
KEYPR
1070
     0
1000
KEYPX
1070
     0
1000
ARCRD
1070
     0
1000
ARCYL
1040
0.5
1000
ARCPY
1070
     0
1000
ARCINSPT
1070
     1
1000
OBRROT
1040
0.0
1000
OBRYL
1040
0.5
1000
OBRXL
1040
1.0
1000
OBRTYPE
1070
     1
1000
OBRPROT
1070
     0
1000
OBRPY
1070
     0
1000
OBRPX
1070
     0
1000
OBRINSPT
1070
     1
1000
RCTROT
1040
0.0
1000
RCTYL
1040
1.0
1000
RCTXL
1040
1.0
1000
RCTINSPT
1070
     1
1000
RCTPROT
1070
     0
1000
RCTPXY
1070
     0
1000
RCTPY
1070
     0
1000
RCTPX
1070
     0
1000
Rcttoggle
1000
No
1000
Ldrtoggle
1000
Table
1000
Cnttoggle
1000
All
1000
RECTOGGLE
1000
Outside
1000
DWG_SCALE
1040
1.0
1000
cust_name
1000
cdi
1000
dim_color
1000
green
1000
dim_layer
1000
dim
1000
pha_color
1000
magenta
1000
pha_layer
1000
phan
1000
thd_color
1000
blue
1000
thd_layer
1000
thd
1000
ctr_ext
1040
0.6
1000
ctr_color
1000
red
1000
ctr_layer
1000
ctr
1000
ctr_lns
1000
Y
1000
f5key
1000
ssdraw1
1000
f6key
1000
ssedit1
1000
f7key
1000
sscreatepart
1000
f8key
1000
ssapp
1000
f9key
1000
ssdrawface
1000
f10key
1000
ssholes
1000
APP_NAME
1000
ssdesign
1000
POSTNAME
1000
ssdesign
1000
dimcolor
1000
green
1000
DIMORD
1070
     1
1000
DIMDFT
1070
     1
1000
DIMOPT
1070
     7
1000
DIMEDT
1070
     1
1000
DIMLIN
1070
     1
1000
DIMRAD
1070
     1
1000
DIMDIA
1070
     1
1000
DIMANG
1070
     1
1000
DIMNOTE
1070
     1
1000
DIMGEO
1070
     1
1000
DIMSEC
1070
     1
1002
}
1001
_LST112SSJYHX
1002
{
1000
LASTAPP
1000
_des112SSJYHX
1002
}
  0
LWPOLYLINE
  5
5981F
102
{ACAD_REACTORS
330
59823
330
5982C
330
59826
330
59829
102
}
330
59815
100
AcDbEntity
  8
DWGLNS
100
AcDbPolyline
 90
       18
 70
     0
 43
0.015625
 10
9.702116787024259
 20
2.353492084939279
 10
9.702116787024255
 20
7.735716450812708
 42
0.137011912825192
 10
9.658336262903834
 20
7.892486266176048
 10
9.021753976555526
 20
8.987960793529477
 42
-0.1370119128252254
 10
8.977973452435083
 20
9.144730608892851
 10
8.977973452435087
 20
10.96254163675939
 42
0.2924762823153382
 10
8.707928066655952
 20
10.95782449853594
 10
8.707928066655949
 20
9.069316036908377
 42
0.1370119128252375
 10
8.751708590776399
 20
8.912546221544991
 10
9.385975520850944
 20
7.82089382119746
 42
-0.137011912825238
 10
9.429756044971398
 20
7.664124005834075
 10
9.429756044971398
 20
2.468532734076746
 42
-0.4995951700244493
 10
7.980337566032044
 20
1.64485227373408
 10
7.720747727281025
 20
2.052582789952925
 42
0.2159709091647526
 10
7.509939668113098
 20
1.902183969706443
 10
7.815631324935829
 20
1.423066148846446
 42
0.5203089010584089
 10
9.702116787024259
 20
2.355219416905502
 10
9.702116787024259
 20
2.433812820579404
  0
LWPOLYLINE
  5
59820
330
59815
100
AcDbEntity
  8
DWGLNS
100
AcDbPolyline
 90
        2
 70
     0
 43
0.0
 10
7.623184534224126
 20
1.726827636827405
 10
7.838468524166312
 20
1.870295610371957
  0
DIMENSION
  5
59821
102
{ACAD_XDICTIONARY
360
59822
102
}
102
{ACAD_REACTORS
330
59823
102
}
330
59815
100
AcDbEntity
  8
DWGDIM
100
AcDbDimension
280
     0
  2
*D29
 10
9.702116787024259
 20
11.49967400289221
 30
0.0
 11
10.31019318538715
 21
11.49967400289221
 31
0.0
 12
-16.75820389336525
 22
-2.005875080676833
 32
0.0
 71
     5
 42
0.9941887203683066
 73
     0
 74
     0
 75
     0
  3
DWG.25
100
AcDbAlignedDimension
 13
8.707928066655952
 23
10.95782449853594
 33
0.0
 14
9.702116787024259
 24
7.735716450812709
 34
0.0
100
AcDbRotatedDimension
  0
DIMENSION
  5
59824
102
{ACAD_XDICTIONARY
360
59825
102
}
102
{ACAD_REACTORS
330
59826
102
}
330
59815
100
AcDbEntity
  8
DWGDIM
100
AcDbDimension
280
     0
  2
*D30
 10
7.70792806665592
 20
8.987931902549567
 30
0.0
 11
7.707928066655917
 21
9.993802952720892
 31
0.0
 12
-16.75820389336525
 22
-2.005875080676833
 32
0.0
 71
     5
 42
2.011742100342644
 73
     0
 74
     0
 75
     0
  3
DWG.25
100
AcDbAlignedDimension
 13
8.842260934020099
 23
10.99967400289221
 33
0.0
 14
8.719078662578045
 24
8.987931902549567
 34
0.0
 50
90.0
100
AcDbRotatedDimension
  0
DIMENSION
  5
59827
102
{ACAD_XDICTIONARY
360
59828
102
}
102
{ACAD_REACTORS
330
59829
102
}
330
59815
100
AcDbEntity
  8
DWGDIM
100
AcDbDimension
280
     0
  2
*D31
 10
11.70211678702426
 20
1.265425651586044
 30
0.0
 11
11.70211678702426
 21
4.500571051199379
 31
0.0
 12
-16.75820389336525
 22
-2.005875080676833
 32
0.0
 71
     5
 42
6.470290799226662
 73
     0
 74
     0
 75
     0
  3
DWG.25
100
AcDbAlignedDimension
 13
9.702116787024255
 23
7.735716450812708
 33
0.0
 14
8.432241418526235
 24
1.265425651586044
 34
0.0
 50
90.0
100
AcDbRotatedDimension
  0
DIMENSION
  5
5982A
102
{ACAD_XDICTIONARY
360
5982B
102
}
102
{ACAD_REACTORS
330
5982C
102
}
330
59815
100
AcDbEntity
  8
DWGDIM
100
AcDbDimension
280
     0
  2
*D32
 10
7.509939668113098
 20
0.6070092358243642
 30
0.0
 11
10.70058406863231
 21
0.3417729574243964
 31
0.0
 12
-16.75820389336525
 22
-2.005875080676833
 32
0.0
 70
   128
 71
     5
 42
2.19217711891116
 73
     0
 74
     0
 75
     0
  3
DWG.25
100
AcDbAlignedDimension
 13
9.702116787024259
 23
2.433812820579404
 33
0.0
 14
7.509939668113098
 24
1.902183969706442
 34
0.0
100
AcDbRotatedDimension
1001
ACAD
1000
DSTYLE
1002
{
1070
   279
1070
     1
1002
}
  0
DIMENSION
  5
5982D
102
{ACAD_XDICTIONARY
360
5982E
102
}
102
{ACAD_REACTORS
330
5982F
102
}
330
59815
100
AcDbEntity
  8
DWGDIM
100
AcDbDimension
280
     0
  2
*D33
 10
0.4044338411864068
 20
10.99967400289221
 30
0.0
 11
0.4044338411864033
 21
6.128850224811623
 31
0.0
 12
-16.75820389336525
 22
-2.005875080676833
 32
0.0
 71
     5
 42
9.741647556161183
 73
     0
 74
     0
 75
     0
  3
DWG.25
100
AcDbAlignedDimension
 13
2.404433841186406
 23
1.25802644673103
 33
0.0
 14
2.842260934020128
 24
10.99967400289221
 34
0.0
 50
90.0
100
AcDbRotatedDimension
  0
DIMENSION
  5
59830
102
{ACAD_XDICTIONARY
360
59831
102
}
102
{ACAD_REACTORS
330
59832
102
}
330
59815
100
AcDbEntity
  8
DWGDIM
100
AcDbDimension
280
     0
  2
*D34
 10
3.280291276440408
 20
11.49967400289221
 30
0.0
 11
3.888367674803301
 21
11.49967400289221
 31
0.0
 12
-16.75820389336524
 22
-2.005875080676835
 32
0.0
 71
     5
 42
0.8760606848405529
 73
     0
 74
     0
 75
     0
  3
DWG.25
100
AcDbAlignedDimension
 13
2.404230591599855
 23
10.69660892948521
 33
0.0
 14
3.280291276440408
 24
10.69660892948522
 34
0.0
100
AcDbRotatedDimension
  0
LEADER
  5
59833
330
59815
100
AcDbEntity
  8
DWGDIM
100
AcDbLeader
  3
DWG.25
 73
     0
 76
     3
 10
2.937208601004019
 20
6.204308565474429
 30
0.0
 10
3.779433841186417
 20
5.729444545559355
 30
0.0
 10
4.279433841186417
 20
5.729444545559355
 30
0.0
  0
MTEXT
  5
59834
102
{ACAD_XDICTIONARY
360
598F8
102
}
102
{ACAD_REACTORS
330
59833
102
}
330
59815
100
AcDbEntity
  8
DWGDIM
100
AcDbMText
 10
4.369433841186417
 20
5.729444545559355
 30
0.0
 40
0.25
 41
0.0
 46
0.0
 71
     4
 72
     1
  1
\A1;{\H0.7x;\S7#32;}" DIA [%%C6] TYP\PMOUNTING\PHOLES
  7
ARIAL
 73
     1
 44
1.0
  0
MTEXT
  5
59835
330
59815
100
AcDbEntity
  8
DWGTXT
100
AcDbMText
 10
2.841933841186406
 20
0.2580264467310309
 30
0.0
 40
0.25
 41
2.375
 46
0.0
 71
     5
 72
     5
  1
{\LFRONT VIEW}
  7
ARIAL
 73
     1
 44
1.0
  0
MTEXT
  5
59836
330
59815
100
AcDbEntity
  8
DWGTXT
100
AcDbMText
 10
8.920403820192031
 20
0.1914875283739565
 30
0.0
 40
0.25
 41
2.378887430753032
 46
0.0
 71
     5
 72
     5
  1
{\LEND VIEW}
  7
ARIAL
 73
     1
 44
1.0
  0
DIMENSION
  5
59837
102
{ACAD_XDICTIONARY
360
59838
102
}
102
{ACAD_REACTORS
330
59839
102
}
330
59815
100
AcDbEntity
  8
DWGDIM
100
AcDbDimension
280
     0
  2
*D35
 10
1.904433841186406
 20
2.090685607197639
 30
0.0
 11
1.804953656257218
 21
2.560690272140551
 31
0.0
 12
-16.75820389336525
 22
-2.005875080676833
 32
0.0
 70
   128
 71
     5
 42
0.8326591604666093
 73
     0
 74
     0
 75
     0
  3
DWG.25
100
AcDbAlignedDimension
 13
2.404433841186406
 23
1.25802644673103
 33
0.0
 14
2.841832216393125
 24
2.090685607197639
 34
0.0
 50
90.0
100
AcDbRotatedDimension
1001
ACAD
1000
DSTYLE
1002
{
1070
   279
1070
     1
1002
}
  0
DIMENSION
  5
5983A
330
59815
100
AcDbEntity
  8
DWGDIM
100
AcDbDimension
280
     0
  2
*D36
 10
10.85088737443804
 20
4.242911028201884
 30
0.0
 11
10.85088737443804
 21
2.754168339893968
 31
0.0
 12
-16.75820389336525
 22
-2.005875080676833
 32
0.0
 71
     5
 42
2.97748537661584
 73
     0
 74
     0
 75
     0
  3
DWG.25
100
AcDbAlignedDimension
 13
9.702116787024259
 23
1.265425651586044
 33
0.0
 14
9.702116787024259
 24
4.242911028201884
 34
0.0
 50
90.0
100
AcDbRotatedDimension
  0
DIMENSION
  5
5983B
330
59815
100
AcDbEntity
  8
DWGDIM
100
AcDbDimension
280
     0
  2
*D37
 10
10.85088737443804
 20
6.242911028201884
 30
0.0
 11
10.85088737443804
 21
5.242911028201888
 31
0.0
 12
-16.75820389336525
 22
-2.005875080676833
 32
0.0
 71
     5
 42
1.999999999999999
 73
     0
 74
     0
 75
     0
  3
DWG.25
100
AcDbAlignedDimension
 13
9.702116787024259
 23
4.242911028201884
 33
0.0
 14
9.702116787024259
 24
6.242911028201884
 34
0.0
 50
90.0
100
AcDbRotatedDimension
  0
LWPOLYLINE
  5
5983C
330
59815
100
AcDbEntity
  8
DWGCTR
  6
CENTER2
100
AcDbPolyline
 90
        2
 70
     0
 43
0.015625
 10
10.49150208073115
 20
6.242911028201884
 10
9.179756044971398
 20
6.242911028201884
  0
LWPOLYLINE
  5
5983D
330
59815
100
AcDbEntity
  8
DWGHID
  6
HIDDEN2
100
AcDbPolyline
 90
        2
 70
     0
 43
0.0
 10
9.702116787024259
 20
6.133536028201884
 10
9.429756044971398
 20
6.133536028201884
  0
LWPOLYLINE
  5
5983E
330
59815
100
AcDbEntity
  8
DWGHID
  6
HIDDEN2
100
AcDbPolyline
 90
        2
 70
     0
 43
0.0
 10
9.702116787024259
 20
6.352286028201884
 10
9.429756044971398
 20
6.352286028201884
  0
LWPOLYLINE
  5
5983F
330
59815
100
AcDbEntity
  8
DWGCTR
  6
CENTER2
100
AcDbPolyline
 90
        2
 70
     0
 43
0.015625
 10
10.49150208073115
 20
4.242911028201884
 10
9.179756044971394
 20
4.242911028201884
  0
LWPOLYLINE
  5
59840
330
59815
100
AcDbEntity
  8
DWGHID
  6
HIDDEN2
100
AcDbPolyline
 90
        2
 70
     0
 43
0.0
 10
9.702116787024255
 20
4.133536028201884
 10
9.429756044971394
 20
4.133536028201884
  0
LWPOLYLINE
  5
59841
330
59815
100
AcDbEntity
  8
DWGHID
  6
HIDDEN2
100
AcDbPolyline
 90
        2
 70
     0
 43
0.0
 10
9.702116787024255
 20
4.352286028201884
 10
9.429756044971394
 20
4.352286028201884
  0
ENDBLK
  5
59845
330
59815
100
AcDbEntity
  8
0
100
AcDbBlockEnd
  0
ENDSEC
  0
SECTION
  2
ENTITIES
  0
CIRCLE
  5
2BE38
330
5902E
100
AcDbEntity
  8
DWGLNS
100
AcDbCircle
 10
19.60013773455166
 20
8.263901527407863
 30
0.0
 40
0.109375
  0
CIRCLE
  5
58FB3
330
5902E
100
AcDbEntity
  8
DWGLNS
100
AcDbCircle
 10
19.60013773455166
 20
6.263901527407863
 30
0.0
 40
0.113464447806354
  0
INSERT
  5
58FC6
330
5902E
100
AcDbEntity
  8
SSINFO_FRZ
100
AcDbBlockReference
  2
SSINFO_NIL
 10
0.151285930408472
 20
0.151285930408472
 30
0.151285930408472
 41
0.151285930408472
 42
0.151285930408472
 43
0.151285930408472
1001
_DES112SSJYHX
1002
{
1000
material
1000
STEEL-0.20 CARBON(MILD)
1000
sp_grav
1040
0.2833999999999999
1000
shear
1040
50000.0
1000
tensile
1040
70000.0
1000
kfac
1040
33.3333
1000
mat_thk
1040
0.062
1000
3drelief
1040
0.1
1000
hole_size
1040
0.5
1000
tap_size
1040
0.375
1000
tap_drill
1040
0.316
1000
NCHTYP
1000
SIDE
1000
NCHRL
1040
0.25
1000
NCHIL
1040
90.0
1000
NCHWL
1040
0.0
1000
NCHDL
1040
1.0
1000
NCHBL
1040
1.0
1000
NCHAL
1040
1.0
1000
NCHMETH
1070
     1
1000
NCHPR
1070
     0
1000
NCHPI
1070
     0
1000
NCHPW
1070
     0
1000
NCHPD
1070
     0
1000
NCHPB
1070
     0
1000
NCHPA
1070
     0
1000
DIMSUF
1040
0.0
1000
DIMPRE
1040
0.0
1000
DHOLEROT
1040
0.0
1000
DHOLEYL
1040
1.0
1000
DHOLEXL
1040
0.75
1000
DHOLERD
1070
     0
1000
DHOLEPROT
1070
     0
1000
DHOLEPY
1070
     0
1000
DHOLEPX
1070
     0
1000
DHOLETYPE
1070
     0
1000
RNDRD
1070
     0
1000
RNDRAD
1040
0.5
1000
RNDINSPT
1070
     0
1000
RNDPR
1070
     0
1000
KEYMF
1070
     0
1000
KEYTYPE
1070
     1
1000
KEYOCC
1070
     0
1000
KEYRD
1070
     0
1000
KEYRAD
1040
1.0
1000
KEYROT
1040
0.0
1000
KEYYL
1040
0.25
1000
KEYXL
1040
0.5
1000
KEYINSPT
1070
     0
1000
KEYPROT
1070
     0
1000
KEYPY
1070
     0
1000
KEYPR
1070
     0
1000
KEYPX
1070
     0
1000
ARCRD
1070
     0
1000
ARCYL
1040
0.5
1000
ARCPY
1070
     0
1000
ARCINSPT
1070
     1
1000
OBRROT
1040
0.0
1000
OBRYL
1040
0.5
1000
OBRXL
1040
1.0
1000
OBRTYPE
1070
     1
1000
OBRPROT
1070
     0
1000
OBRPY
1070
     0
1000
OBRPX
1070
     0
1000
OBRINSPT
1070
     1
1000
RCTROT
1040
0.0
1000
RCTYL
1040
1.0
1000
RCTXL
1040
1.0
1000
RCTINSPT
1070
     1
1000
RCTPROT
1070
     0
1000
RCTPXY
1070
     0
1000
RCTPY
1070
     0
1000
RCTPX
1070
     0
1000
Rcttoggle
1000
No
1000
Ldrtoggle
1000
Table
1000
Cnttoggle
1000
All
1000
RECTOGGLE
1000
Outside
1000
DWG_SCALE
1040
1.0
1000
cust_name
1000
cdi
1000
dim_color
1000
green
1000
dim_layer
1000
dim
1000
pha_color
1000
magenta
1000
pha_layer
1000
phan
1000
thd_color
1000
blue
1000
thd_layer
1000
thd
1000
ctr_ext
1040
0.6
1000
ctr_color
1000
red
1000
ctr_layer
1000
ctr
1000
ctr_lns
1000
Y
1000
f5key
1000
ssdraw1
1000
f6key
1000
ssedit1
1000
f7key
1000
sscreatepart
1000
f8key
1000
ssapp
1000
f9key
1000
ssdrawface
1000
f10key
1000
ssholes
1000
APP_NAME
1000
ssdesign
1000
POSTNAME
1000
ssdesign
1000
dimcolor
1000
green
1000
DIMORD
1070
     1
1000
DIMDFT
1070
     1
1000
DIMOPT
1070
     7
1000
DIMEDT
1070
     1
1000
DIMLIN
1070
     1
1000
DIMRAD
1070
     1
1000
DIMDIA
1070
     1
1000
DIMANG
1070
     1
1000
DIMNOTE
1070
     1
1000
DIMGEO
1070
     1
1000
DIMSEC
1070
     1
1002
}
1001
_LST112SSJYHX
1002
{
1000
LASTAPP
1000
_des112SSJYHX
1002
}
  0
LWPOLYLINE
  5
5927F
330
5902E
100
AcDbEntity
  8
DWGLNS
100
AcDbPolyline
 90
        2
 70
     0
 43
0.0
 10
24.38138842758938
 20
3.732702717504238
 10
24.59667241753156
 20
3.876170691048791
  0
LWPOLYLINE
  5
59282
102
{ACAD_REACTORS
330
592C7
330
59367
330
59302
330
59340
102
}
330
5902E
100
AcDbEntity
  8
DWGLNS
100
AcDbPolyline
 90
       18
 70
     0
 43
0.015625
 10
26.46032068038951
 20
4.359367165616113
 10
26.4603206803895
 20
9.741591531489541
 42
0.137011912825192
 10
26.41654015626909
 20
9.898361346852881
 10
25.77995786992078
 20
10.99383587420631
 42
-0.1370119128252254
 10
25.73617734580033
 20
11.15060568956968
 10
25.73617734580034
 20
12.96841671743623
 42
0.2924762823153382
 10
25.4661319600212
 20
12.96369957921277
 10
25.4661319600212
 20
11.07519111758521
 42
0.1370119128252375
 10
25.50991248414165
 20
10.91842130222182
 10
26.14417941421619
 20
9.826768901874293
 42
-0.137011912825238
 10
26.18795993833665
 20
9.669999086510909
 10
26.18795993833665
 20
4.47440781475358
 42
-0.4995951700244493
 10
24.73854145939729
 20
3.650727354410913
 10
24.47895162064627
 20
4.058457870629759
 42
0.2159709091647526
 10
24.26814356147835
 20
3.908059050383276
 10
24.57383521830108
 20
3.42894122952328
 42
0.5203089010584089
 10
26.46032068038951
 20
4.361094497582335
 10
26.46032068038951
 20
4.439687901256238
  0
LWPOLYLINE
  5
5928A
102
{ACAD_REACTORS
330
59399
102
}
330
5902E
100
AcDbEntity
  8
DWGLNS
100
AcDbPolyline
 90
        4
 70
     0
 43
0.015625
 10
19.16263773455167
 20
12.70472000299238
 10
19.16263773455165
 20
3.263901527407863
 10
20.03763773455165
 20
3.263901527407863
 10
20.03763773455167
 20
12.70673772506451
  0
LWPOLYLINE
  5
5928C
102
{ACAD_REACTORS
330
59399
330
594C1
102
}
330
5902E
100
AcDbEntity
  8
DWGLNS
100
AcDbPolyline
 90
        2
 70
     0
 43
0.015625
 10
20.03849516980566
 20
12.70248401016205
 42
0.6918814612989027
 10
19.1624344849651
 20
12.70248401016204
  0
LWPOLYLINE
  5
5929A
330
5902E
100
AcDbEntity
  8
DWGLNS
100
AcDbPolyline
 90
        2
 70
     0
 43
0.0
 10
25.4661319600212
 20
12.74050830651198
 10
25.73617734580034
 20
12.74050830651198
  0
LWPOLYLINE
  5
5929F
330
5902E
100
AcDbEntity
  8
DWGLNS
100
AcDbPolyline
 90
        2
 70
     0
 43
0.0
 10
20.03763773455165
 20
11.00554908356904
 10
19.16263773455165
 20
11.00554908356904
  0
LWPOLYLINE
  5
592A2
330
5902E
100
AcDbEntity
  8
DWGLNS
100
AcDbPolyline
 90
        2
 70
     0
 43
0.0
 10
20.03763773455167
 20
9.732499086510909
 10
19.16263773455166
 20
9.732499086510909
  0
LWPOLYLINE
  5
592A4
102
{ACAD_REACTORS
330
59519
102
}
330
5902E
100
AcDbEntity
  8
DWGLNS
100
AcDbPolyline
 90
        2
 70
     0
 43
0.015625
 10
20.03763773455165
 20
3.793194011838513
 42
0.6932485138264072
 10
19.1624344849651
 20
3.793194011838505
  0
DIMENSION
  5
592AC
102
{ACAD_XDICTIONARY
360
592BB
102
}
102
{ACAD_REACTORS
330
592C7
102
}
330
5902E
100
AcDbEntity
  8
DWGDIM
100
AcDbDimension
280
     0
  2
*D20
 10
26.46032068038951
 20
13.50554908356904
 30
0.0
 11
27.0683970787524
 21
13.50554908356904
 31
0.0
 70
    32
 71
     5
 42
0.9941887203683066
 73
     0
 74
     0
 75
     0
  3
DWG.25
100
AcDbAlignedDimension
 13
25.4661319600212
 23
12.96369957921277
 33
0.0
 14
26.46032068038951
 24
9.741591531489543
 34
0.0
100
AcDbRotatedDimension
  0
DIMENSION
  5
592E7
102
{ACAD_XDICTIONARY
360
592F6
102
}
102
{ACAD_REACTORS
330
59302
102
}
330
5902E
100
AcDbEntity
  8
DWGDIM
100
AcDbDimension
280
     0
  2
*D21
 10
24.46613196002117
 20
10.9938069832264
 30
0.0
 11
24.46613196002117
 21
11.99967803339772
 31
0.0
 70
    32
 71
     5
 42
2.011742100342644
 73
     0
 74
     0
 75
     0
  3
DWG.25
100
AcDbAlignedDimension
 13
25.60046482738535
 23
13.00554908356904
 33
0.0
 14
25.47728255594329
 24
10.9938069832264
 34
0.0
 50
90.0
100
AcDbRotatedDimension
  0
DIMENSION
  5
59325
102
{ACAD_XDICTIONARY
360
59334
102
}
102
{ACAD_REACTORS
330
59340
102
}
330
5902E
100
AcDbEntity
  8
DWGDIM
100
AcDbDimension
280
     0
  2
*D22
 10
28.46032068038951
 20
3.271300732262877
 30
0.0
 11
28.46032068038951
 21
6.506446131876213
 31
0.0
 70
    32
  1
6-{\H0.7x;\S1#2;}"\P[165]
 71
     5
 42
6.470290799226662
 73
     0
 74
     0
 75
     0
  3
DWG.25
100
AcDbAlignedDimension
 13
26.4603206803895
 23
9.741591531489541
 33
0.0
 14
25.19044531189149
 24
3.271300732262878
 34
0.0
 50
90.0
100
AcDbRotatedDimension
  0
DIMENSION
  5
5934C
102
{ACAD_XDICTIONARY
360
5935B
102
}
102
{ACAD_REACTORS
330
59367
102
}
330
5902E
100
AcDbEntity
  8
DWGDIM
100
AcDbDimension
280
     0
  2
*D23
 10
24.26814356147835
 20
2.612884316501197
 30
0.0
 11
27.46032068038951
 21
2.612884316501197
 31
0.0
 70
   160
  1
2-{\H0.7x;\S3#16;}" [56]
 71
     5
 42
2.19217711891116
 73
     0
 74
     0
 75
     0
  3
DWG.25
100
AcDbAlignedDimension
 13
26.46032068038951
 23
4.439687901256238
 33
0.0
 14
24.26814356147835
 24
3.908059050383276
 34
0.0
100
AcDbRotatedDimension
1001
ACAD
1000
DSTYLE
1002
{
1070
   279
1070
     1
1002
}
  0
DIMENSION
  5
5937E
102
{ACAD_XDICTIONARY
360
5938D
102
}
102
{ACAD_REACTORS
330
59399
102
}
330
5902E
100
AcDbEntity
  8
DWGDIM
100
AcDbDimension
280
     0
  2
*D24
 10
17.16263773455165
 20
13.00554908356905
 30
0.0
 11
17.16263773455165
 21
8.134725305488457
 31
0.0
 70
    32
  1
9-{\H0.7x;\S3#4;}"\P[248]
 71
     5
 42
9.741647556161183
 73
     0
 74
     0
 75
     0
  3
DWG.25
100
AcDbAlignedDimension
 13
19.16263773455165
 23
3.263901527407863
 33
0.0
 14
19.60046482738538
 24
13.00554908356905
 34
0.0
 50
90.0
100
AcDbRotatedDimension
  0
DIMENSION
  5
594A6
102
{ACAD_XDICTIONARY
360
594B5
102
}
102
{ACAD_REACTORS
330
594C1
102
}
330
5902E
100
AcDbEntity
  8
DWGDIM
100
AcDbDimension
280
     0
  2
*D25
 10
20.03849516980565
 20
13.50554908356905
 30
0.0
 11
20.64657156816855
 21
13.50554908356905
 31
0.0
 70
    32
 71
     5
 42
0.8760606848405529
 73
     0
 74
     0
 75
     0
  3
DWG.25
100
AcDbAlignedDimension
 13
19.1624344849651
 23
12.70248401016204
 33
0.0
 14
20.03849516980565
 24
12.70248401016205
 34
0.0
100
AcDbRotatedDimension
  0
LEADER
  5
594C3
330
5902E
100
AcDbEntity
  8
DWGDIM
100
AcDbLeader
  3
DWG.25
 73
     0
 40
1.114682810368349
 41
2.6475102319236
 76
     3
 10
19.69541249436927
 20
8.210183646151262
 30
0.0
 10
20.53763773455167
 20
7.735319626236188
 30
0.0
 10
21.03763773455167
 20
7.735319626236188
 30
0.0
340
594C4
  0
MTEXT
  5
594C4
102
{ACAD_XDICTIONARY
360
598E6
102
}
102
{ACAD_REACTORS
330
594C3
102
}
330
5902E
100
AcDbEntity
  8
DWGDIM
100
AcDbMText
 10
21.12763773455167
 20
7.735319626236188
 30
0.0
 40
0.25
 41
0.0
 46
0.0
 71
     4
 72
     1
  1
\A1;{\H0.7x;\S7#32;}" DIA [%%C5.6] \PTYP MOUNTING\PHOLES
  7
ARIAL
 73
     1
 44
1.0
  0
MTEXT
  5
594C7
330
5902E
100
AcDbEntity
  8
DWGTXT
100
AcDbMText
 10
19.60013773455165
 20
2.263901527407864
 30
0.0
 40
0.25
 41
2.375
 46
0.0
 71
     5
 72
     5
  1
{\LFRONT VIEW}
  7
ARIAL
 73
     1
 44
1.0
  0
MTEXT
  5
594C8
330
5902E
100
AcDbEntity
  8
DWGTXT
100
AcDbMText
 10
25.67860771355728
 20
2.19736260905079
 30
0.0
 40
0.25
 41
2.378887430753032
 46
0.0
 71
     5
 72
     5
  1
{\LEND VIEW}
  7
ARIAL
 73
     1
 44
1.0
  0
DIMENSION
  5
594FC
102
{ACAD_XDICTIONARY
360
5950C
102
}
102
{ACAD_REACTORS
330
59519
102
}
330
5902E
100
AcDbEntity
  8
DWGDIM
100
AcDbDimension
280
     0
  2
*D26
 10
18.66263773455165
 20
4.096560687874473
 30
0.0
 11
18.56315754962247
 21
4.566565352817384
 31
0.0
 70
   160
 71
     5
 42
0.8326591604666093
 73
     0
 74
     0
 75
     0
  3
DWG.25
100
AcDbAlignedDimension
 13
19.16263773455165
 23
3.263901527407863
 33
0.0
 14
19.60003610975837
 24
4.096560687874473
 34
0.0
 50
90.0
100
AcDbRotatedDimension
1001
ACAD
1000
DSTYLE
1002
{
1070
   279
1070
     1
1002
}
  0
DIMENSION
  5
59723
330
5902E
100
AcDbEntity
  8
DWGDIM
100
AcDbDimension
280
     0
  2
*D27
 10
27.60909126780329
 20
6.248786108878718
 30
0.0
 11
27.60909126780329
 21
4.760043420570802
 31
0.0
 70
    32
 71
     5
 42
2.97748537661584
 73
     0
 74
     0
 75
     0
  3
DWG.25
100
AcDbAlignedDimension
 13
26.46032068038951
 23
3.271300732262878
 33
0.0
 14
26.46032068038951
 24
6.248786108878718
 34
0.0
 50
90.0
100
AcDbRotatedDimension
  0
DIMENSION
  5
59748
330
5902E
100
AcDbEntity
  8
DWGDIM
100
AcDbDimension
280
     0
  2
*D28
 10
27.60909126780329
 20
8.248786108878718
 30
0.0
 11
27.60909126780329
 21
7.248786108878721
 31
0.0
 70
    32
 71
     5
 42
1.999999999999999
 73
     0
 74
     0
 75
     0
  3
DWG.25
100
AcDbAlignedDimension
 13
26.46032068038951
 23
6.248786108878718
 33
0.0
 14
26.46032068038951
 24
8.248786108878718
 34
0.0
 50
90.0
100
AcDbRotatedDimension
  0
LWPOLYLINE
  5
59762
330
5902E
100
AcDbEntity
  8
DWGCTR
  6
CENTER2
100
AcDbPolyline
 90
        2
 70
     0
 43
0.015625
 10
27.2497059740964
 20
8.248786108878718
 10
25.93795993833665
 20
8.248786108878718
  0
LWPOLYLINE
  5
59763
330
5902E
100
AcDbEntity
  8
DWGHID
  6
HIDDEN2
100
AcDbPolyline
 90
        2
 70
     0
 43
0.0
 10
26.46032068038951
 20
8.358161108878718
 10
26.18795993833665
 20
8.358161108878718
  0
LWPOLYLINE
  5
59764
330
5902E
100
AcDbEntity
  8
DWGHID
  6
HIDDEN2
100
AcDbPolyline
 90
        2
 70
     0
 43
0.0
 10
26.46032068038951
 20
8.139411108878718
 10
26.18795993833665
 20
8.139411108878718
  0
LWPOLYLINE
  5
59767
330
5902E
100
AcDbEntity
  8
DWGCTR
  6
CENTER2
100
AcDbPolyline
 90
        2
 70
     0
 43
0.015625
 10
27.2497059740964
 20
6.248786108878718
 10
25.93795993833664
 20
6.248786108878718
  0
LWPOLYLINE
  5
59768
330
5902E
100
AcDbEntity
  8
DWGHID
  6
HIDDEN2
100
AcDbPolyline
 90
        2
 70
     0
 43
0.0
 10
26.4603206803895
 20
6.139411108878718
 10
26.18795993833665
 20
6.139411108878718
  0
LWPOLYLINE
  5
59769
330
5902E
100
AcDbEntity
  8
DWGHID
  6
HIDDEN2
100
AcDbPolyline
 90
        2
 70
     0
 43
0.0
 10
26.4603206803895
 20
6.358161108878718
 10
26.18795993833665
 20
6.358161108878718
  0
MTEXT
  5
59873
330
5902E
100
AcDbEntity
  8
DWGDIM
100
AcDbMText
 10
21.12763773455167
 20
10.64319377069214
 30
0.0
 40
0.25
 41
0.0
 46
0.0
 71
     4
 72
     1
  1
\A1;{\LNOTE}:\PALL DIM'S\PINCH [MM]
  7
ARIAL
 73
     1
 44
1.0
  0
VIEWPORT
  5
59795
330
5902A
100
AcDbEntity
 67
     1
  8
0
100
AcDbViewport
 10
5.250183457871887
 20
4.000121821120908
 30
0.0
 40
17.60039954430293
 41
8.905591386189206
 68
     1
 69
     1
 12
5.250183457871887
 22
4.000121821120908
 13
0.0
 23
0.0
 14
0.5
 24
0.5
 15
0.5
 25
0.5
 16
0.0
 26
0.0
 36
1.0
 17
0.0
 27
0.0
 37
0.0
 42
50.0
 43
0.0
 44
0.0
 45
8.905591386189206
 50
0.0
 51
0.0
 72
 10000
 90
   557088
  1

281
     0
 71
     1
 74
     0
110
0.0
120
0.0
130
0.0
111
1.0
121
0.0
131
0.0
112
0.0
122
1.0
132
0.0
 79
     0
146
0.0
170
     0
 61
     5
348
5905C
292
     1
282
     1
141
0.0
142
0.0
 63
   250
421
  3355443
  0
VIEWPORT
  5
59847
330
5902A
100
AcDbEntity
 67
     1
  8
0
100
AcDbViewport
 10
5.249999761581421
 20
3.999999761581421
 30
0.0
 40
10.49999952316284
 41
7.999999523162842
 68
     2
 69
     2
 12
22.81054725778586
 22
8.088867657921412
 13
0.0
 23
0.0
 14
1.0
 24
1.0
 15
0.0
 25
0.0
 16
0.0
 26
0.0
 36
1.0
 17
0.0
 27
0.0
 37
0.0
 42
50.0
 43
0.0
 44
0.0
 45
12.3277340779171
 50
0.0
 51
0.0
 72
 10000
 90
   819232
  1

281
     0
 71
     1
 74
     0
110
0.0
120
0.0
130
0.0
111
1.0
121
0.0
131
0.0
112
0.0
122
1.0
132
0.0
 79
     0
146
0.0
170
     0
 61
     5
348
5905C
292
     1
282
     1
141
0.0
142
0.0
 63
   250
421
  3355443
  0
ENDSEC
  0
SECTION
  2
OBJECTS
  0
DICTIONARY
  5
59018
330
0
100
AcDbDictionary
281
     1
  3
ACAD_CIP_PREVIOUS_PRODUCT_INFO
350
59967
  3
ACAD_COLOR
350
59027
  3
ACAD_DETAILVIEWSTYLE
350
5995D
  3
ACAD_GROUP
350
59019
  3
ACAD_LAYOUT
350
59025
  3
ACAD_MATERIAL
350
59026
  3
ACAD_MLEADERSTYLE
350
59958
  3
ACAD_MLINESTYLE
350
59022
  3
ACAD_PLOTSETTINGS
350
59024
  3
ACAD_PLOTSTYLENAME
350
5901A
  3
ACAD_SCALELIST
350
59946
  3
ACAD_SECTIONVIEWSTYLE
350
5995A
  3
ACAD_TABLESTYLE
350
59028
  3
ACAD_VISUALSTYLE
350
59056
  3
ACDB_RECOMPOSE_DATA
350
59990
  3
AcDbVariableDictionary
350
5904D
  0
DICTIONARY
  5
598B7
330
59014
100
AcDbDictionary
280
     1
281
     1
  0
DICTIONARY
  5
5924C
330
5900E
100
AcDbDictionary
280
     1
281
     1
  3
ACAD_LAYERFILTERS
360
59792
  3
ACAD_LAYERSTATES
360
5924D
  3
ACLYDICTIONARY
360
59791
  0
DICTIONARY
  5
59969
330
5901C
100
AcDbDictionary
280
     1
281
     1
  3
ADSK_XREC_LAYER_RECONCILED
360
5996A
  0
DICTIONARY
  5
5996B
330
5903B
100
AcDbDictionary
280
     1
281
     1
  3
ADSK_XREC_LAYER_RECONCILED
360
5996C
  0
DICTIONARY
  5
5996D
330
5921B
100
AcDbDictionary
280
     1
281
     1
  3
ADSK_XREC_LAYER_RECONCILED
360
5996E
  0
DICTIONARY
  5
5996F
330
5921C
100
AcDbDictionary
280
     1
281
     1
  3
ADSK_XREC_LAYER_RECONCILED
360
59970
  0
DICTIONARY
  5
59971
330
5921D
100
AcDbDictionary
280
     1
281
     1
  3
ADSK_XREC_LAYER_RECONCILED
360
59972
  0
DICTIONARY
  5
59973
330
5921E
100
AcDbDictionary
280
     1
281
     1
  3
ADSK_XREC_LAYER_RECONCILED
360
59974
  0
DICTIONARY
  5
59975
330
5921F
100
AcDbDictionary
280
     1
281
     1
  3
ADSK_XREC_LAYER_RECONCILED
360
59976
  0
DICTIONARY
  5
59977
330
59221
100
AcDbDictionary
280
     1
281
     1
  3
ADSK_XREC_LAYER_RECONCILED
360
59978
  0
DICTIONARY
  5
59979
330
59222
100
AcDbDictionary
280
     1
281
     1
  3
ADSK_XREC_LAYER_RECONCILED
360
5997A
  0
DICTIONARY
  5
5997B
330
59223
100
AcDbDictionary
280
     1
281
     1
  3
ADSK_XREC_LAYER_RECONCILED
360
5997C
  0
DICTIONARY
  5
5997D
330
59224
100
AcDbDictionary
280
     1
281
     1
  3
ADSK_XREC_LAYER_RECONCILED
360
5997E
  0
DICTIONARY
  5
5997F
330
59225
100
AcDbDictionary
280
     1
281
     1
  3
ADSK_XREC_LAYER_RECONCILED
360
59980
  0
DICTIONARY
  5
59981
330
59226
100
AcDbDictionary
280
     1
281
     1
  3
ADSK_XREC_LAYER_RECONCILED
360
59982
  0
DICTIONARY
  5
59983
330
59227
100
AcDbDictionary
280
     1
281
     1
  3
ADSK_XREC_LAYER_RECONCILED
360
59984
  0
DICTIONARY
  5
59280
330
5902E
100
AcDbDictionary
280
     1
281
     1
  3
ACAD_SORTENTS
360
59281
  0
DICTIONARY
  5
59081
330
59080
100
AcDbDictionary
280
     1
281
     1
  3
ACAD_ENHANCEDBLOCK
360
59082
  3
ACAD_SORTENTS
360
59088
  3
AcDbDynamicBlockRoundTripPurgePreventer
360
59089
  0
DICTIONARY
  5
5909A
330
59099
100
AcDbDictionary
280
     1
281
     1
  3
ACAD_ENHANCEDBLOCK
360
5909B
  3
ACAD_SORTENTS
360
590A1
  3
AcDbDynamicBlockRoundTripPurgePreventer
360
590A2
  0
DICTIONARY
  5
590AD
330
590AC
100
AcDbDictionary
280
     1
281
     1
  3
ACAD_ENHANCEDBLOCK
360
590AE
  3
ACAD_SORTENTS
360
590B4
  3
AcDbDynamicBlockRoundTripPurgePreventer
360
590B5
  0
DICTIONARY
  5
5919E
330
5919D
100
AcDbDictionary
280
     1
281
     1
  3
ACAD_SORTENTS
360
5919F
  0
DICTIONARY
  5
59272
330
5924E
100
AcDbDictionary
280
     1
281
     1
  3
ACAD_SORTENTS
360
59273
  0
DICTIONARY
  5
59842
330
59815
100
AcDbDictionary
280
     1
281
     1
  3
ACAD_SORTENTS
360
59843
  0
DICTIONARY
  5
598C8
330
59206
100
AcDbDictionary
280
     1
281
     1
  0
DICTIONARY
  5
598EA
330
59600
100
AcDbDictionary
280
     1
281
     1
  0
DICTIONARY
  5
598EE
330
597BC
100
AcDbDictionary
280
     1
281
     1
  0
DICTIONARY
  5
598F0
330
597C8
100
AcDbDictionary
280
     1
281
     1
  0
DICTIONARY
  5
598F2
330
597D7
100
AcDbDictionary
280
     1
281
     1
  0
DICTIONARY
  5
598F4
330
597E5
100
AcDbDictionary
280
     1
281
     1
  0
DICTIONARY
  5
598F6
330
597F2
100
AcDbDictionary
280
     1
281
     1
  0
DICTIONARY
  5
59822
330
59821
100
AcDbDictionary
280
     1
281
     1
  3
ACAD_DIMASSOC
360
59823
  0
DICTIONARY
  5
59825
330
59824
100
AcDbDictionary
280
     1
281
     1
  3
ACAD_DIMASSOC
360
59826
  0
DICTIONARY
  5
59828
330
59827
100
AcDbDictionary
280
     1
281
     1
  3
ACAD_DIMASSOC
360
59829
  0
DICTIONARY
  5
5982B
330
5982A
100
AcDbDictionary
280
     1
281
     1
  3
ACAD_DIMASSOC
360
5982C
  0
DICTIONARY
  5
5982E
330
5982D
100
AcDbDictionary
280
     1
281
     1
  3
ACAD_DIMASSOC
360
5982F
  0
DICTIONARY
  5
59831
330
59830
100
AcDbDictionary
280
     1
281
     1
  3
ACAD_DIMASSOC
360
59832
  0
DICTIONARY
  5
598F8
330
59834
100
AcDbDictionary
280
     1
281
     1
  0
DICTIONARY
  5
59838
330
59837
100
AcDbDictionary
280
     1
281
     1
  3
ACAD_DIMASSOC
360
59839
  0
DICTIONARY
  5
592BB
330
592AC
100
AcDbDictionary
280
     1
281
     1
  3
ACAD_DIMASSOC
360
592C7
  0
DICTIONARY
  5
592F6
330
592E7
100
AcDbDictionary
280
     1
281
     1
  3
ACAD_DIMASSOC
360
59302
  0
DICTIONARY
  5
59334
330
59325
100
AcDbDictionary
280
     1
281
     1
  3
ACAD_DIMASSOC
360
59340
  0
DICTIONARY
  5
5935B
330
5934C
100
AcDbDictionary
280
     1
281
     1
  3
ACAD_DIMASSOC
360
59367
  0
DICTIONARY
  5
5938D
330
5937E
100
AcDbDictionary
280
     1
281
     1
  3
ACAD_DIMASSOC
360
59399
  0
DICTIONARY
  5
594B5
330
594A6
100
AcDbDictionary
280
     1
281
     1
  3
ACAD_DIMASSOC
360
594C1
  0
DICTIONARY
  5
598E6
330
594C4
100
AcDbDictionary
280
     1
281
     1
  0
DICTIONARY
  5
5950C
330
594FC
100
AcDbDictionary
280
     1
281
     1
  3
ACAD_DIMASSOC
360
59519
  0
XRECORD
  5
59967
102
{ACAD_REACTORS
330
59018
102
}
330
59018
100
AcDbXrecord
280
     1
300
ACDLT
300
2013
300
ACDLT_F_S
  0
DICTIONARY
  5
59027
102
{ACAD_REACTORS
330
59018
102
}
330
59018
100
AcDbDictionary
281
     1
  0
DICTIONARY
  5
5995D
102
{ACAD_REACTORS
330
59018
102
}
330
59018
100
AcDbDictionary
281
     1
  3
Imperial24
350
5995E
  0
DICTIONARY
  5
59019
102
{ACAD_REACTORS
330
59018
102
}
330
59018
100
AcDbDictionary
281
     1
  0
DICTIONARY
  5
59025
102
{ACAD_REACTORS
330
59018
102
}
330
59018
100
AcDbDictionary
281
     1
  3
Layout1
350
5902D
  3
Model
350
59031
  0
DICTIONARY
  5
59026
102
{ACAD_REACTORS
330
59018
102
}
330
59018
100
AcDbDictionary
281
     1
  3
ByBlock
350
59054
  3
ByLayer
350
59053
  3
Global
350
59055
  0
DICTIONARY
  5
59958
102
{ACAD_REACTORS
330
59018
102
}
330
59018
100
AcDbDictionary
281
     1
  3
Standard
350
59959
  0
DICTIONARY
  5
59022
102
{ACAD_REACTORS
330
59018
102
}
330
59018
100
AcDbDictionary
281
     1
  3
Standard
350
59023
  0
DICTIONARY
  5
59024
102
{ACAD_REACTORS
330
59018
102
}
330
59018
100
AcDbDictionary
281
     1
  3
ASI621
350
59247
  0
ACDBDICTIONARYWDFLT
  5
5901A
102
{ACAD_REACTORS
330
59018
102
}
330
59018
100
AcDbDictionary
281
     1
  3
Normal
350
5901B
100
AcDbDictionaryWithDefault
340
5901B
  0
DICTIONARY
  5
59946
102
{ACAD_REACTORS
330
59018
102
}
330
59018
100
AcDbDictionary
281
     1
  3
A0
350
59947
  3
A1
350
59948
  3
A2
350
59949
  3
A3
350
5994A
  3
A4
350
5994B
  3
A5
350
5994C
  3
A6
350
5994D
  3
A7
350
5994E
  3
A8
350
5994F
  3
A9
350
59950
  3
B0
350
59951
  3
B1
350
59952
  3
B2
350
59953
  3
B3
350
59954
  3
B4
350
59955
  3
B5
350
59956
  3
B6
350
59957
  0
DICTIONARY
  5
5995A
102
{ACAD_REACTORS
330
59018
102
}
330
59018
100
AcDbDictionary
281
     1
  3
Imperial24
350
5995C
  0
DICTIONARY
  5
59028
102
{ACAD_REACTORS
330
59018
102
}
330
59018
100
AcDbDictionary
281
     1
  3
Standard
350
59029
  0
DICTIONARY
  5
59056
102
{ACAD_REACTORS
330
59018
102
}
330
59018
100
AcDbDictionary
281
     1
  3
2dWireframe
350
5905C
  3
3D Hidden
350
59248
  3
3dWireframe
350
59249
  3
Basic
350
5905B
  3
Brighten
350
59062
  3
ColorChange
350
59066
  3
Conceptual
350
5924A
  3
Dim
350
59061
  3
EdgeColorOff
350
59945
  3
Facepattern
350
59065
  3
Flat
350
59057
  3
FlatWithEdges
350
59058
  3
Gouraud
350
59059
  3
GouraudWithEdges
350
5905A
  3
Hidden
350
5993D
  3
JitterOff
350
59943
  3
Linepattern
350
59064
  3
OverhangOff
350
59944
  3
Realistic
350
5924B
  3
Shaded
350
59942
  3
Shaded with edges
350
59941
  3
Shades of Gray
350
5993E
  3
Sketchy
350
5993F
  3
Thicken
350
59063
  3
Wireframe
350
5993C
  3
X-Ray
350
59940
  0
XRECORD
  5
59990
102
{ACAD_REACTORS
330
59018
102
}
330
59018
100
AcDbXrecord
280
     1
 90
        1
330
59029
  0
DICTIONARY
  5
5904D
102
{ACAD_REACTORS
330
59018
102
}
330
59018
100
AcDbDictionary
281
     1
  3
CANNOSCALE
350
59989
  3
CMLEADERSTYLE
350
59985
  3
CTABLESTYLE
350
5904E
  3
CVIEWDETAILSTYLE
350
59986
  3
CVIEWSECTIONSTYLE
350
59987
  3
DIMASSOC
350
59050
  3
HIDETEXT
350
5904F
  3
INDEXCTL
350
59903
  3
LAYEREVAL
350
5998B
  3
LAYERNOTIFY
350
5998C
  3
LIGHTINGUNITS
350
5998A
  3
MSLTSCALE
350
59988
  3
PROJECTNAME
350
59051
  3
SORTENTS
350
59902
  0
DICTIONARY
  5
59792
102
{ACAD_REACTORS
330
5924C
102
}
330
5924C
100
AcDbDictionary
281
     1
  0
DICTIONARY
  5
5924D
102
{ACAD_REACTORS
330
5924C
102
}
330
5924C
100
AcDbDictionary
281
     1
  0
DICTIONARY
  5
59791
102
{ACAD_REACTORS
330
5924C
102
}
330
5924C
100
AcDbDictionary
281
     1
1001
ACAD
1000
<All
  0
XRECORD
  5
5996A
102
{ACAD_REACTORS
330
59969
102
}
330
59969
100
AcDbXrecord
280
     1
290
     1
  0
XRECORD
  5
5996C
102
{ACAD_REACTORS
330
5996B
102
}
330
5996B
100
AcDbXrecord
280
     1
290
     1
  0
XRECORD
  5
5996E
102
{ACAD_REACTORS
330
5996D
102
}
330
5996D
100
AcDbXrecord
280
     1
290
     1
  0
XRECORD
  5
59970
102
{ACAD_REACTORS
330
5996F
102
}
330
5996F
100
AcDbXrecord
280
     1
290
     1
  0
XRECORD
  5
59972
102
{ACAD_REACTORS
330
59971
102
}
330
59971
100
AcDbXrecord
280
     1
290
     1
  0
XRECORD
  5
59974
102
{ACAD_REACTORS
330
59973
102
}
330
59973
100
AcDbXrecord
280
     1
290
     1
  0
XRECORD
  5
59976
102
{ACAD_REACTORS
330
59975
102
}
330
59975
100
AcDbXrecord
280
     1
290
     1
  0
XRECORD
  5
59978
102
{ACAD_REACTORS
330
59977
102
}
330
59977
100
AcDbXrecord
280
     1
290
     1
  0
XRECORD
  5
5997A
102
{ACAD_REACTORS
330
59979
102
}
330
59979
100
AcDbXrecord
280
     1
290
     1
  0
XRECORD
  5
5997C
102
{ACAD_REACTORS
330
5997B
102
}
330
5997B
100
AcDbXrecord
280
     1
290
     1
  0
XRECORD
  5
5997E
102
{ACAD_REACTORS
330
5997D
102
}
330
5997D
100
AcDbXrecord
280
     1
290
     1
  0
XRECORD
  5
59980
102
{ACAD_REACTORS
330
5997F
102
}
330
5997F
100
AcDbXrecord
280
     1
290
     1
  0
XRECORD
  5
59982
102
{ACAD_REACTORS
330
59981
102
}
330
59981
100
AcDbXrecord
280
     1
290
     1
  0
XRECORD
  5
59984
102
{ACAD_REACTORS
330
59983
102
}
330
59983
100
AcDbXrecord
280
     1
290
     1
  0
SORTENTSTABLE
  5
59281
102
{ACAD_REACTORS
330
59280
102
}
330
59280
100
AcDbSortentsTable
330
5902E
331
592E7
  5
593E4
331
594C7
  5
594C8
331
5934C
  5
5940F
331
592A2
  5
58FB3
331
2BE38
  5
58FC6
331
594A6
  5
594C3
331
592A4
  5
2BE78
331
59723
  5
59723
331
5927F
  5
592E5
331
58FC6
  5
592E3
331
59325
  5
5940E
331
5928A
  5
5929C
331
592AC
  5
592E7
331
58FB3
  5
592A5
331
5928C
  5
59298
331
5929A
  5
59288
331
594FC
  5
594FC
331
594C8
  5
594FB
331
59762
  5
59762
331
594C3
  5
594C4
331
59763
  5
59764
331
59748
  5
59748
331
59282
  5
592E4
331
594C4
  5
594C7
331
59764
  5
59763
331
5937E
  5
5948D
331
5929F
  5
59283
  0
ACAD_EVALUATION_GRAPH
  5
59082
102
{ACAD_REACTORS
330
59081
102
}
330
59081
100
AcDbEvalGraph
 96
        5
 97
        5
 91
        0
 93
       32
 95
        1
360
59083
 92
        2
 92
        2
 92
        0
 92
        3
 91
        1
 93
       32
 95
        2
360
59084
 92
       -1
 92
       -1
 92
        2
 92
        2
 91
        2
 93
       32
 95
        3
360
59085
 92
        0
 92
        0
 92
       -1
 92
       -1
 91
        3
 93
       32
 95
        4
360
59086
 92
        1
 92
        1
 92
       -1
 92
       -1
 91
        4
 93
       32
 95
        5
360
59087
 92
        3
 92
        3
 92
       -1
 92
       -1
 92
        0
 93
        0
 94
        1
 91
        0
 91
        2
 92
       -1
 92
       -1
 92
       -1
 92
        1
 92
       -1
 92
        1
 93
        0
 94
        1
 91
        0
 91
        3
 92
       -1
 92
       -1
 92
        0
 92
        3
 92
       -1
 92
        2
 93
        0
 94
        2
 91
        1
 91
        0
 92
       -1
 92
       -1
 92
       -1
 92
       -1
 92
       -1
 92
        3
 93
        0
 94
        2
 91
        0
 91
        4
 92
       -1
 92
       -1
 92
        1
 92
       -1
 92
       -1
  0
SORTENTSTABLE
  5
59088
102
{ACAD_REACTORS
330
59081
102
}
330
59081
100
AcDbSortentsTable
330
59080
331
59093
  5
19A
331
59094
  5
19B
331
59095
  5
19C
331
59096
  5
19D
331
59097
  5
193
331
5908D
  5
194
331
5908E
  5
195
331
5908F
  5
196
331
59090
  5
197
331
59091
  5
198
331
59092
  5
199
  0
ACDB_DYNAMICBLOCKPURGEPREVENTER_VERSION
  5
59089
102
{ACAD_REACTORS
330
59081
102
}
330
59081
100
AcDbDynamicBlockPurgePreventer
 70
     1
  0
ACAD_EVALUATION_GRAPH
  5
5909B
102
{ACAD_REACTORS
330
5909A
102
}
330
5909A
100
AcDbEvalGraph
 96
        5
 97
        5
 91
        0
 93
       32
 95
        1
360
5909C
 92
        2
 92
        2
 92
        0
 92
        3
 91
        1
 93
       32
 95
        2
360
5909D
 92
       -1
 92
       -1
 92
        2
 92
        2
 91
        2
 93
       32
 95
        3
360
5909E
 92
        0
 92
        0
 92
       -1
 92
       -1
 91
        3
 93
       32
 95
        4
360
5909F
 92
        1
 92
        1
 92
       -1
 92
       -1
 91
        4
 93
       32
 95
        5
360
590A0
 92
        3
 92
        3
 92
       -1
 92
       -1
 92
        0
 93
        0
 94
        1
 91
        0
 91
        2
 92
       -1
 92
       -1
 92
       -1
 92
        1
 92
       -1
 92
        1
 93
        0
 94
        1
 91
        0
 91
        3
 92
       -1
 92
       -1
 92
        0
 92
        3
 92
       -1
 92
        2
 93
        0
 94
        2
 91
        1
 91
        0
 92
       -1
 92
       -1
 92
       -1
 92
       -1
 92
       -1
 92
        3
 93
        0
 94
        2
 91
        0
 91
        4
 92
       -1
 92
       -1
 92
        1
 92
       -1
 92
       -1
  0
SORTENTSTABLE
  5
590A1
102
{ACAD_REACTORS
330
5909A
102
}
330
5909A
100
AcDbSortentsTable
330
59099
331
590A6
  5
1AE
331
590A7
  5
1AF
331
590A8
  5
1B0
331
590A9
  5
1B1
331
590AA
  5
1AD
  0
ACDB_DYNAMICBLOCKPURGEPREVENTER_VERSION
  5
590A2
102
{ACAD_REACTORS
330
5909A
102
}
330
5909A
100
AcDbDynamicBlockPurgePreventer
 70
     1
  0
ACAD_EVALUATION_GRAPH
  5
590AE
102
{ACAD_REACTORS
330
590AD
102
}
330
590AD
100
AcDbEvalGraph
 96
        5
 97
        5
 91
        0
 93
       32
 95
        1
360
590AF
 92
        2
 92
        2
 92
        0
 92
        3
 91
        1
 93
       32
 95
        2
360
590B0
 92
       -1
 92
       -1
 92
        2
 92
        2
 91
        2
 93
       32
 95
        3
360
590B1
 92
        0
 92
        0
 92
       -1
 92
       -1
 91
        3
 93
       32
 95
        4
360
590B2
 92
        1
 92
        1
 92
       -1
 92
       -1
 91
        4
 93
       32
 95
        5
360
590B3
 92
        3
 92
        3
 92
       -1
 92
       -1
 92
        0
 93
        0
 94
        1
 91
        0
 91
        2
 92
       -1
 92
       -1
 92
       -1
 92
        1
 92
       -1
 92
        1
 93
        0
 94
        1
 91
        0
 91
        3
 92
       -1
 92
       -1
 92
        0
 92
        3
 92
       -1
 92
        2
 93
        0
 94
        2
 91
        1
 91
        0
 92
       -1
 92
       -1
 92
       -1
 92
       -1
 92
       -1
 92
        3
 93
        0
 94
        2
 91
        0
 91
        4
 92
       -1
 92
       -1
 92
        1
 92
       -1
 92
       -1
  0
SORTENTSTABLE
  5
590B4
102
{ACAD_REACTORS
330
590AD
102
}
330
590AD
100
AcDbSortentsTable
330
590AC
  0
ACDB_DYNAMICBLOCKPURGEPREVENTER_VERSION
  5
590B5
102
{ACAD_REACTORS
330
590AD
102
}
330
590AD
100
AcDbDynamicBlockPurgePreventer
 70
     1
  0
SORTENTSTABLE
  5
5919F
102
{ACAD_REACTORS
330
5919E
102
}
330
5919E
100
AcDbSortentsTable
330
5919D
331
591F0
  5
4E3
331
591F1
  5
4E1
331
591AD
  5
49D
331
591F2
  5
4E4
331
591F3
  5
4E6
331
591F4
  5
4E9
331
591F5
  5
4E2
331
591EC
  5
4E5
331
591ED
  5
4E7
331
591A9
  5
49E
331
591AA
  5
4A1
331
591EE
  5
4E8
331
591EF
  5
4E0
  0
SORTENTSTABLE
  5
59273
102
{ACAD_REACTORS
330
59272
102
}
330
59272
100
AcDbSortentsTable
330
5924E
331
5924F
  5
59250
331
59250
  5
59251
331
59251
  5
59252
331
59252
  5
59253
331
59253
  5
5924F
  0
SORTENTSTABLE
  5
59843
102
{ACAD_REACTORS
330
59842
102
}
330
59842
100
AcDbSortentsTable
330
59815
  0
DIMASSOC
  5
59823
102
{ACAD_REACTORS
330
59822
102
}
330
59822
100
AcDbDimAssoc
330
59821
 90
        3
 70
     0
 71
     0
  1
AcDbOsnapPointRef
 72
     6
331
5981F
 73
     2
 91
        7
 40
0.0
 10
0.0
 20
0.0
 30
0.0
332
5981F
 74
     2
 92
        6
 75
     0
  1
AcDbOsnapPointRef
 72
     1
331
5981F
 73
     2
 91
        1
 40
1.0
 10
0.0
 20
0.0
 30
2.000000000000000E+50
 75
     0
  0
DIMASSOC
  5
59826
102
{ACAD_REACTORS
330
59825
102
}
330
59825
100
AcDbDimAssoc
330
59824
 90
        2
 70
     0
 71
     0
  1
AcDbOsnapPointRef
 72
     2
331
5981F
 73
     2
 91
        8
 40
3.413920854528215
 10
0.0
 20
0.0
 30
0.0
 75
     0
  0
DIMASSOC
  5
59829
102
{ACAD_REACTORS
330
59828
102
}
330
59828
100
AcDbDimAssoc
330
59827
 90
        1
 70
     0
 71
     0
  1
AcDbOsnapPointRef
 72
     1
331
5981F
 73
     2
 91
        1
 40
1.0
 10
0.0
 20
0.0
 30
2.000000000000000E+50
 75
     0
  0
DIMASSOC
  5
5982C
102
{ACAD_REACTORS
330
5982B
102
}
330
5982B
100
AcDbDimAssoc
330
5982A
 90
        3
 70
     0
 71
     0
  1
AcDbOsnapPointRef
 72
     1
331
5981F
 73
     2
 91
       17
 40
1.0
 10
0.0
 20
0.0
 30
2.000000000000000E+50
 75
     0
  1
AcDbOsnapPointRef
 72
     1
331
5981F
 73
     2
 91
       14
 40
2.615893305487717
 10
0.0
 20
0.0
 30
2.000000000000000E+50
 75
     0
  0
DIMASSOC
  5
5982F
102
{ACAD_REACTORS
330
5982E
102
}
330
5982E
100
AcDbDimAssoc
330
5982D
 90
        3
 70
     0
 71
     0
  1
AcDbOsnapPointRef
 72
     1
331
5981C
 73
     2
 91
        1
 40
1.0
 10
0.0
 20
0.0
 30
2.000000000000000E+50
 75
     0
  1
AcDbOsnapPointRef
 72
     2
331
5981B
 73
     2
 91
        1
 40
1.570796326794903
 10
0.0
 20
0.0
 30
0.0
 75
     0
  0
DIMASSOC
  5
59832
102
{ACAD_REACTORS
330
59831
102
}
330
59831
100
AcDbDimAssoc
330
59830
 90
        3
 70
     0
 71
     0
  1
AcDbOsnapPointRef
 72
     1
331
5981B
 73
     2
 91
        1
 40
2.781309274723014
 10
0.0
 20
0.0
 30
2.000000000000000E+50
 75
     0
  1
AcDbOsnapPointRef
 72
    13
331
5981B
 73
     2
 91
        1
 40
0.3602833788667929
 10
0.0
 20
0.0
 30
2.000000000000000E+50
 75
     0
  0
DIMASSOC
  5
59839
102
{ACAD_REACTORS
330
59838
102
}
330
59838
100
AcDbDimAssoc
330
59837
 90
        2
 70
     0
 71
     0
  1
AcDbOsnapPointRef
 72
     2
331
59816
 73
     2
 91
        1
 40
1.570796326794904
 10
0.0
 20
0.0
 30
0.0
 75
     0
  0
DIMASSOC
  5
592C7
102
{ACAD_REACTORS
330
592BB
102
}
330
592BB
100
AcDbDimAssoc
330
592AC
 90
        3
 70
     0
 71
     0
  1
AcDbOsnapPointRef
 72
     6
331
59282
 73
     2
 91
        7
 40
0.0
 10
0.0
 20
0.0
 30
0.0
332
59282
 74
     2
 92
        6
 75
     0
  1
AcDbOsnapPointRef
 72
     1
331
59282
 73
     2
 91
        1
 40
1.0
 10
0.0
 20
0.0
 30
2.000000000000000E+50
 75
     0
  0
DIMASSOC
  5
59302
102
{ACAD_REACTORS
330
592F6
102
}
330
592F6
100
AcDbDimAssoc
330
592E7
 90
        2
 70
     0
 71
     0
  1
AcDbOsnapPointRef
 72
     2
331
59282
 73
     2
 91
        8
 40
3.413920854528215
 10
0.0
 20
0.0
 30
0.0
 75
     0
  0
DIMASSOC
  5
59340
102
{ACAD_REACTORS
330
59334
102
}
330
59334
100
AcDbDimAssoc
330
59325
 90
        1
 70
     0
 71
     0
  1
AcDbOsnapPointRef
 72
     1
331
59282
 73
     2
 91
        1
 40
1.0
 10
26.4603206803895
 20
9.741591531489541
 30
0.0
 75
     0
  0
DIMASSOC
  5
59367
102
{ACAD_REACTORS
330
5935B
102
}
330
5935B
100
AcDbDimAssoc
330
5934C
 90
        3
 70
     0
 71
     0
  1
AcDbOsnapPointRef
 72
     1
331
59282
 73
     2
 91
       17
 40
1.0
 10
26.46032068038951
 20
4.439687901256238
 30
0.0
 75
     0
  1
AcDbOsnapPointRef
 72
     1
331
59282
 73
     2
 91
       14
 40
2.615893305487717
 10
24.26814356147835
 20
3.908059050383275
 30
0.0
 75
     0
  0
DIMASSOC
  5
59399
102
{ACAD_REACTORS
330
5938D
102
}
330
5938D
100
AcDbDimAssoc
330
5937E
 90
        3
 70
     0
 71
     0
  1
AcDbOsnapPointRef
 72
     1
331
5928A
 73
     2
 91
        1
 40
1.0
 10
19.16263773455165
 20
3.263901527407863
 30
0.0
 75
     0
  1
AcDbOsnapPointRef
 72
     2
331
5928C
 73
     2
 91
        1
 40
1.570796326794903
 10
19.60046482738538
 20
13.00554908356905
 30
0.0
 75
     0
  0
DIMASSOC
  5
594C1
102
{ACAD_REACTORS
330
594B5
102
}
330
594B5
100
AcDbDimAssoc
330
594A6
 90
        3
 70
     0
 71
     0
  1
AcDbOsnapPointRef
 72
     1
331
5928C
 73
     2
 91
        1
 40
2.781309274723014
 10
0.0
 20
0.0
 30
2.000000000000000E+50
 75
     0
  1
AcDbOsnapPointRef
 72
    13
331
5928C
 73
     2
 91
        1
 40
0.3602833788667929
 10
0.0
 20
0.0
 30
2.000000000000000E+50
 75
     0
  0
DIMASSOC
  5
59519
102
{ACAD_REACTORS
330
5950C
102
}
330
5950C
100
AcDbDimAssoc
330
594FC
 90
        2
 70
     0
 71
     0
  1
AcDbOsnapPointRef
 72
     2
331
592A4
 73
     2
 91
        1
 40
1.570796326794904
 10
19.60003610975837
 20
4.096560687874472
 30
0.0
 75
     0
  0
ACDBDETAILVIEWSTYLE
  5
5995E
102
{ACAD_REACTORS
330
5995D
102
}
330
5995D
100
AcDbModelDocViewStyle
 70
     0
  3
Imperial24
290
     1
100
AcDbDetailViewStyle
 70
     0
 71
     0
 90
        3
 71
     1
340
5901D
 62
   256
 40
0.24
340
0
 62
   256
 40
0.24
300

 40
0.36
280
     3
 71
     2
340
59021
 90
       25
 62
   256
 71
     3
340
5901D
 62
   256
 40
0.24
 90
        1
 40
0.75
 90
        1
300
%<\AcVar ViewType \f "%tc1">% %<\AcVar ViewDetailId>%\PSCALE %<\AcVar ViewScale \f "%sn">%
 71
     4
340
59021
 90
       25
 62
   256
340
59021
 90
       25
 62
   256
280
     0
  0
LAYOUT
  5
5902D
102
{ACAD_XDICTIONARY
360
59855
102
}
102
{ACAD_REACTORS
330
59025
102
}
330
59025
100
AcDbPlotSettings
  1

  2
\\Asi-util1\ASI621
  4
Letter
  6

 40
5.027082920074462
 41
5.027085781097412
 42
5.027069091796875
 43
5.027069091796875
 44
215.8999938964844
 45
279.3999938964844
 46
0.3155413749105426
 47
0.0
 48
0.0
 49
0.0
140
0.0
141
0.0
142
1.0
143
0.9902804000835331
 70
   692
 72
     0
 73
     1
 74
     1
  7

 75
     0
147
1.009814997767952
 76
     0
 77
     2
 78
   300
148
0.0093010481555268
149
0.0069757861166451
100
AcDbLayout
  1
Layout1
 70
     1
 71
     1
 10
-0.1963586236073898
 20
-0.2085697602539528
 11
10.69672553935116
 21
8.208813402495769
 12
0.0
 22
0.0
 32
0.0
 14
-0.0003661829982491
 24
-0.0002746372486868
 34
-0.0015258207003583
 15
10.5007324480693
 25
8.000518818619333
 35
0.0000000349246037
146
0.0
 13
0.0
 23
0.0
 33
0.0
 16
1.0
 26
0.0
 36
0.0
 17
0.0
 27
1.0
 37
0.0
 76
     0
330
5902A
331
59795
1001
ACAD_PSEXT
1000
\\Asi-util1\ASI621
1000
KONICA MINOLTA 500/420 PCL
1000
Yonkers
1000
American Specialties - Engineering
1070
     0
  0
LAYOUT
  5
59031
102
{ACAD_REACTORS
330
59025
102
}
330
59025
100
AcDbPlotSettings
  1

  2
ASI621
  4
Letter
  6

 40
5.027083396911621
 41
5.027085304260253
 42
5.027084350585937
 43
5.027069091796875
 44
215.8999938964844
 45
279.3999938964844
 46
27.432
 47
0.0
 48
0.0
 49
0.0
140
0.0
141
0.0
142
1.0
143
2.078989527030218
 70
 11956
 72
     0
 73
     1
 74
     0
  7

 75
     0
147
0.4810029040542949
 76
     0
 77
     2
 78
   300
148
-299.2066482587389
149
-49.21331698885836
100
AcDbLayout
  1
Model
 70
     1
 71
     0
 10
0.0
 20
0.0
 11
12.0
 21
9.0
 12
0.0
 22
0.0
 32
0.0
 14
0.0
 24
0.0
 34
0.0
 15
0.0
 25
0.0
 35
0.0
146
0.0
 13
0.0
 23
0.0
 33
0.0
 16
1.0
 26
0.0
 36
0.0
 17
0.0
 27
1.0
 37
0.0
 76
     0
330
5902E
331
5993A
  0
MATERIAL
  5
59054
102
{ACAD_REACTORS
330
59026
102
}
330
59026
100
AcDbMaterial
  1
ByBlock
 73
     1
 78
     1
172
     1
176
     1
270
     1
274
     1
 94
       63
  0
MATERIAL
  5
59053
102
{ACAD_REACTORS
330
59026
102
}
330
59026
100
AcDbMaterial
  1
ByLayer
 73
     1
 78
     1
172
     1
176
     1
270
     1
274
     1
 94
       63
  0
MATERIAL
  5
59055
102
{ACAD_REACTORS
330
59026
102
}
330
59026
100
AcDbMaterial
  1
Global
 73
     1
 78
     1
172
     1
176
     1
270
     1
274
     1
 94
       63
  0
MLEADERSTYLE
  5
59959
102
{ACAD_REACTORS
330
59958
102
}
330
59958
100
AcDbMLeaderStyle
179
     2
170
     2
171
     1
172
     0
 90
        2
 40
0.0
 41
0.0
173
     1
 91
-1056964608
340
5901F
 92
       -2
290
     1
 42
0.09
291
     1
 43
0.36
  3
Standard
 44
0.18
300

342
5901D
174
     1
178
     6
175
     1
176
     0
 93
-1056964608
 45
0.18
292
     0
297
     0
 46
0.18
 94
-1056964608
 47
1.0
 49
1.0
140
1.0
293
     1
141
0.0
294
     1
177
     0
142
1.0
295
     1
296
     0
143
0.125
271
     0
272
     9
273
     9
298
     1
  0
MLINESTYLE
  5
59023
102
{ACAD_REACTORS
330
59022
102
}
330
59022
100
AcDbMlineStyle
  2
STANDARD
 70
     0
  3

 62
   256
 51
90.0
 52
90.0
 71
     2
 49
0.5
 62
   256
  6
BYLAYER
 49
-0.5
 62
   256
  6
BYLAYER
  0
PLOTSETTINGS
  5
59247
102
{ACAD_REACTORS
330
59024
102
}
330
59024
100
AcDbPlotSettings
  1
ASI621
  2
\\Mail\ASI621
  4
Letter
  6

 40
6.085416316986083
 41
6.085421085357666
 42
6.085403442382812
 43
6.085418701171875
 44
215.8999938964844
 45
279.3999938964844
 46
0.0086372284368336
 47
0.0
 48
0.0
 49
0.0
140
0.0
141
0.0
142
1.0
143
1.000140224660972
 70
  2740
 72
     0
 73
     1
 74
     1
  7

 75
     0
147
0.9998597949992264
 76
     0
 77
     2
 78
   300
148
-11.6202996485322
149
0.2719831211257897
1001
ACAD_PSEXT
1000
\\Mail\ASI621
1000
CopierBW Ver 1.11
1000
Yonkers
1000
American Specialties - Outside Controller's Office
1070
     0
  0
ACDBPLACEHOLDER
  5
5901B
102
{ACAD_REACTORS
330
5901A
102
}
330
5901A
  0
SCALE
  5
59947
102
{ACAD_REACTORS
330
59946
102
}
330
59946
100
AcDbScale
 70
     0
300
1:1
140
1.0
141
1.0
290
     1
  0
SCALE
  5
59948
102
{ACAD_REACTORS
330
59946
102
}
330
59946
100
AcDbScale
 70
     0
300
1/128" = 1'-0"
140
0.0078125
141
12.0
290
     0
  0
SCALE
  5
59949
102
{ACAD_REACTORS
330
59946
102
}
330
59946
100
AcDbScale
 70
     0
300
1/64" = 1'-0"
140
0.015625
141
12.0
290
     0
  0
SCALE
  5
5994A
102
{ACAD_REACTORS
330
59946
102
}
330
59946
100
AcDbScale
 70
     0
300
1/32" = 1'-0"
140
0.03125
141
12.0
290
     0
  0
SCALE
  5
5994B
102
{ACAD_REACTORS
330
59946
102
}
330
59946
100
AcDbScale
 70
     0
300
1/16" = 1'-0"
140
0.0625
141
12.0
290
     0
  0
SCALE
  5
5994C
102
{ACAD_REACTORS
330
59946
102
}
330
59946
100
AcDbScale
 70
     0
300
3/32" = 1'-0"
140
0.09375
141
12.0
290
     0
  0
SCALE
  5
5994D
102
{ACAD_REACTORS
330
59946
102
}
330
59946
100
AcDbScale
 70
     0
300
1/8" = 1'-0"
140
0.125
141
12.0
290
     0
  0
SCALE
  5
5994E
102
{ACAD_REACTORS
330
59946
102
}
330
59946
100
AcDbScale
 70
     0
300
3/16" = 1'-0"
140
0.1875
141
12.0
290
     0
  0
SCALE
  5
5994F
102
{ACAD_REACTORS
330
59946
102
}
330
59946
100
AcDbScale
 70
     0
300
1/4" = 1'-0"
140
0.25
141
12.0
290
     0
  0
SCALE
  5
59950
102
{ACAD_REACTORS
330
59946
102
}
330
59946
100
AcDbScale
 70
     0
300
3/8" = 1'-0"
140
0.375
141
12.0
290
     0
  0
SCALE
  5
59951
102
{ACAD_REACTORS
330
59946
102
}
330
59946
100
AcDbScale
 70
     0
300
1/2" = 1'-0"
140
0.5
141
12.0
290
     0
  0
SCALE
  5
59952
102
{ACAD_REACTORS
330
59946
102
}
330
59946
100
AcDbScale
 70
     0
300
3/4" = 1'-0"
140
0.75
141
12.0
290
     0
  0
SCALE
  5
59953
102
{ACAD_REACTORS
330
59946
102
}
330
59946
100
AcDbScale
 70
     0
300
1" = 1'-0"
140
1.0
141
12.0
290
     0
  0
SCALE
  5
59954
102
{ACAD_REACTORS
330
59946
102
}
330
59946
100
AcDbScale
 70
     0
300
1-1/2" = 1'-0"
140
1.5
141
12.0
290
     0
  0
SCALE
  5
59955
102
{ACAD_REACTORS
330
59946
102
}
330
59946
100
AcDbScale
 70
     0
300
3" = 1'-0"
140
3.0
141
12.0
290
     0
  0
SCALE
  5
59956
102
{ACAD_REACTORS
330
59946
102
}
330
59946
100
AcDbScale
 70
     0
300
6" = 1'-0"
140
6.0
141
12.0
290
     0
  0
SCALE
  5
59957
102
{ACAD_REACTORS
330
59946
102
}
330
59946
100
AcDbScale
 70
     0
300
1'-0" = 1'-0"
140
12.0
141
12.0
290
     0
  0
ACDBSECTIONVIEWSTYLE
  5
5995C
102
{ACAD_REACTORS
330
5995A
102
}
330
5995A
100
AcDbModelDocViewStyle
 70
     0
  3
Imperial24
290
     1
100
AcDbSectionViewStyle
 70
     0
 71
     0
 90
       78
 71
     1
340
5901D
 62
   256
 40
0.24
340
0
340
0
 62
   256
 40
0.24
300
I, O, Q, S, X, Z
 40
0.48
 90
        3
 40
0.18
 90
        1
 71
     2
340
5995B
 90
       25
 62
   256
340
59021
 90
       50
 62
   256
 40
0.24
 40
0.0
 40
0.24
 71
     3
340
5901D
 62
   256
 40
0.24
 90
        1
 40
0.75
 90
        1
300
%<\AcVar ViewType \f "%tc1">% %<\AcVar ViewSectionStartId>%-%<\AcVar ViewSectionEndId>%\PSCALE %<\AcVar ViewScale \f "%sn">%
 71
     4
 62
   256
 62
   257
300
ANSI31
 40
1.0
 90
        0
290
     0
290
     0
 90
        6
 40
0.0
 40
1.570796326794896
 40
0.2617993877991494
 40
1.308996938995747
 40
-0.2617993877991494
 40
1.832595714594046
  0
TABLESTYLE
  5
59029
102
{ACAD_XDICTIONARY
360
5998E
102
}
102
{ACAD_REACTORS
330
59028
102
}
330
59028
100
AcDbTableStyle
280
     0
  3
Standard
 70
     0
 71
     0
 40
0.06
 41
0.06
280
     0
281
     0
  7
STANDARD
140
0.18
170
     2
 62
     0
 63
     7
283
     0
 90
        4
 91
        0
  1

274
    -2
284
     1
 64
     0
275
    -2
285
     1
 65
     0
276
    -2
286
     1
 66
     0
277
    -2
287
     1
 67
     0
278
    -2
288
     1
 68
     0
279
    -2
289
     1
 69
     0
  7
STANDARD
140
0.25
170
     5
 62
     0
 63
     7
283
     0
 90
        4
 91
        0
  1

274
    -2
284
     1
 64
     0
275
    -2
285
     1
 65
     0
276
    -2
286
     1
 66
     0
277
    -2
287
     1
 67
     0
278
    -2
288
     1
 68
     0
279
    -2
289
     1
 69
     0
  7
STANDARD
140
0.18
170
     5
 62
     0
 63
     7
283
     0
 90
        4
 91
        0
  1

274
    -2
284
     1
 64
     0
275
    -2
285
     1
 65
     0
276
    -2
286
     1
 66
     0
277
    -2
287
     1
 67
     0
278
    -2
288
     1
 68
     0
279
    -2
289
     1
 69
     0
  0
VISUALSTYLE
  5
5905C
102
{ACAD_REACTORS
330
59056
102
}
330
59056
100
AcDbVisualStyle
  2
2dWireframe
 70
     4
177
     3
291
     0
 70
    58
 90
        0
176
     1
 90
        2
176
     1
 90
        0
176
     1
 90
        0
176
     1
 40
0.6
176
     1
 40
30.0
176
     1
 62
     7
176
     1
 90
        1
176
     1
 90
        4
176
     1
 62
     7
176
     1
 62
   257
176
     1
 90
        1
176
     1
 90
        1
176
     1
 40
1.0
176
     1
 90
        0
176
     1
 62
   257
176
     1
 40
1.0
176
     1
 90
        1
176
     1
 90
        6
176
     1
 90
        2
176
     1
 62
     7
176
     1
 90
        5
176
     1
 90
        0
176
     1
 90
        0
176
     1
290
     0
176
     1
 90
        1
176
     1
 40
0.0
176
     1
 90
        0
176
     1
290
     1
176
     1
290
     1
176
     1
290
     0
176
     1
290
     0
176
     1
290
     0
176
     1
290
     0
176
     1
290
     0
176
     1
290
     0
176
     1
290
     0
176
     1
 90
       50
176
     1
 40
0.0
176
     1
 40
1.0
176
     1
 90
        0
176
     1
 62
    18
420
        0
176
     1
 90
       50
176
     1
 90
        3
176
     1
 62
     5
420
      255
176
     1
290
     0
176
     1
 90
       50
176
     1
 90
       50
176
     1
 90
       50
176
     1
290
     0
176
     1
 90
       50
176
     1
 62
   256
176
     0
 40
1.0
176
     0
 90
        2
176
     1
  1
strokes_ogs.tif
176
     1
290
     0
176
     1
 40
1.0
176
     1
 40
1.0
176
     1
  0
VISUALSTYLE
  5
59248
102
{ACAD_REACTORS
330
59056
102
}
330
59056
100
AcDbVisualStyle
  2
3D Hidden
 70
     6
177
     3
291
     0
 70
    58
 90
        1
176
     1
 90
        2
176
     1
 90
        2
176
     1
 90
        0
176
     1
 40
0.6
176
     1
 40
30.0
176
     1
 62
     7
176
     1
 90
        2
176
     1
 90
       10
176
     1
 62
     7
176
     1
 62
   257
176
     1
 90
        2
176
     1
 90
        2
176
     1
 40
40.0
176
     1
 90
        0
176
     1
 62
   257
176
     1
 40
1.0
176
     1
 90
        1
176
     1
 90
        6
176
     1
 90
        2
176
     1
 62
     7
176
     1
 90
        3
176
     1
 90
        0
176
     1
 90
        0
176
     1
290
     0
176
     1
 90
        1
176
     1
 40
0.0
176
     1
 90
        0
176
     1
290
     0
176
     1
290
     1
176
     1
290
     1
176
     1
290
     0
176
     1
290
     0
176
     1
290
     0
176
     1
290
     0
176
     1
290
     0
176
     1
290
     0
176
     1
 90
       50
176
     1
 40
0.0
176
     1
 40
1.0
176
     1
 90
        0
176
     1
 62
    18
420
        0
176
     1
 90
       50
176
     1
 90
        3
176
     1
 62
     5
420
      255
176
     1
290
     0
176
     1
 90
       50
176
     1
 90
       50
176
     1
 90
       50
176
     1
290
     0
176
     1
 90
       50
176
     1
 62
   256
176
     0
 40
1.0
176
     0
 90
        2
176
     1
  1
strokes_ogs.tif
176
     1
290
     0
176
     1
 40
1.0
176
     1
 40
1.0
176
     1
  0
VISUALSTYLE
  5
59249
102
{ACAD_REACTORS
330
59056
102
}
330
59056
100
AcDbVisualStyle
  2
3dWireframe
 70
     5
177
     3
291
     0
 70
    58
 90
        0
176
     1
 90
        2
176
     1
 90
        1
176
     1
 90
        0
176
     1
 40
0.6
176
     1
 40
30.0
176
     1
 62
     7
176
     1
 90
        1
176
     1
 90
        4
176
     1
 62
     7
176
     1
 62
   257
176
     1
 90
        1
176
     1
 90
        1
176
     1
 40
1.0
176
     1
 90
        0
176
     1
 62
   257
176
     1
 40
1.0
176
     1
 90
        1
176
     1
 90
        6
176
     1
 90
        2
176
     1
 62
     7
176
     1
 90
        5
176
     1
 90
        0
176
     1
 90
        0
176
     1
290
     0
176
     1
 90
        1
176
     1
 40
0.0
176
     1
 90
        0
176
     1
290
     0
176
     1
290
     1
176
     1
290
     1
176
     1
290
     0
176
     1
290
     0
176
     1
290
     0
176
     1
290
     0
176
     1
290
     0
176
     1
290
     0
176
     1
 90
       50
176
     1
 40
0.0
176
     1
 40
1.0
176
     1
 90
        0
176
     1
 62
    18
420
        0
176
     1
 90
       50
176
     1
 90
        3
176
     1
 62
     5
420
      255
176
     1
290
     0
176
     1
 90
       50
176
     1
 90
       50
176
     1
 90
       50
176
     1
290
     0
176
     1
 90
       50
176
     1
 62
   256
176
     0
 40
1.0
176
     0
 90
        2
176
     1
  1
strokes_ogs.tif
176
     1
290
     0
176
     1
 40
1.0
176
     1
 40
1.0
176
     1
  0
VISUALSTYLE
  5
5905B
102
{ACAD_REACTORS
330
59056
102
}
330
59056
100
AcDbVisualStyle
  2
Basic
 70
     7
177
     3
291
     1
 70
    58
 90
        1
176
     1
 90
        0
176
     1
 90
        1
176
     1
 90
        0
176
     1
 40
0.6
176
     1
 40
30.0
176
     1
 62
     7
176
     1
 90
        0
176
     1
 90
        4
176
     1
 62
     7
176
     1
 62
   257
176
     1
 90
        1
176
     1
 90
        1
176
     1
 40
1.0
176
     1
 90
        8
176
     1
 62
     7
176
     1
 40
1.0
176
     1
 90
        1
176
     1
 90
        6
176
     1
 90
        2
176
     1
 62
     7
176
     1
 90
        5
176
     1
 90
        0
176
     1
 90
        0
176
     1
290
     0
176
     1
 90
        1
176
     1
 40
0.0
176
     1
 90
        0
176
     1
290
     0
176
     1
290
     1
176
     1
290
     1
176
     1
290
     0
176
     1
290
     0
176
     1
290
     0
176
     1
290
     0
176
     1
290
     0
176
     1
290
     0
176
     1
 90
       50
176
     1
 40
0.0
176
     1
 40
1.0
176
     1
 90
        0
176
     1
 62
    18
420
        0
176
     1
 90
       50
176
     1
 90
        3
176
     1
 62
     5
420
      255
176
     1
290
     0
176
     1
 90
       50
176
     1
 90
       50
176
     1
 90
       50
176
     1
290
     0
176
     1
 90
       50
176
     1
 62
   256
176
     0
 40
1.0
176
     0
 90
        2
176
     1
  1
strokes_ogs.tif
176
     1
290
     0
176
     1
 40
1.0
176
     1
 40
1.0
176
     1
  0
VISUALSTYLE
  5
59062
102
{ACAD_REACTORS
330
59056
102
}
330
59056
100
AcDbVisualStyle
  2
Brighten
 70
    12
177
     3
291
     1
 70
    58
 90
        2
176
     1
 90
        2
176
     1
 90
        0
176
     1
 90
        0
176
     1
 40
0.6
176
     1
 40
30.0
176
     1
 62
     7
176
     1
 90
        1
176
     1
 90
        4
176
     1
 62
     7
176
     1
 62
   257
176
     1
 90
        1
176
     1
 90
        1
176
     1
 40
1.0
176
     1
 90
        8
176
     1
 62
     7
176
     1
 40
1.0
176
     1
 90
        1
176
     1
 90
        6
176
     1
 90
        2
176
     1
 62
     7
176
     1
 90
        5
176
     1
 90
        0
176
     1
 90
        0
176
     1
290
     0
176
     1
 90
        1
176
     1
 40
50.0
176
     1
 90
        0
176
     1
290
     0
176
     1
290
     1
176
     1
290
     1
176
     1
290
     0
176
     1
290
     0
176
     1
290
     0
176
     1
290
     0
176
     1
290
     0
176
     1
290
     0
176
     1
 90
       50
176
     1
 40
0.0
176
     1
 40
1.0
176
     1
 90
        0
176
     1
 62
    18
420
        0
176
     1
 90
       50
176
     1
 90
        3
176
     1
 62
     5
420
      255
176
     1
290
     0
176
     1
 90
       50
176
     1
 90
       50
176
     1
 90
       50
176
     1
290
     0
176
     1
 90
       50
176
     1
 62
   256
176
     0
 40
1.0
176
     0
 90
        2
176
     1
  1
strokes_ogs.tif
176
     1
290
     0
176
     1
 40
1.0
176
     1
 40
1.0
176
     1
  0
VISUALSTYLE
  5
59066
102
{ACAD_REACTORS
330
59056
102
}
330
59056
100
AcDbVisualStyle
  2
ColorChange
 70
    16
177
     3
291
     1
 70
    58
 90
        2
176
     1
 90
        2
176
     1
 90
        3
176
     1
 90
        0
176
     1
 40
0.6
176
     1
 40
30.0
176
     1
 62
     8
176
     1
 90
        1
176
     1
 90
        4
176
     1
 62
     7
176
     1
 62
   257
176
     1
 90
        1
176
     1
 90
        1
176
     1
 40
1.0
176
     1
 90
        8
176
     1
 62
     8
176
     1
 40
1.0
176
     1
 90
        1
176
     1
 90
        6
176
     1
 90
        2
176
     1
 62
     7
176
     1
 90
        5
176
     1
 90
        0
176
     1
 90
        0
176
     1
290
     0
176
     1
 90
        1
176
     1
 40
0.0
176
     1
 90
        0
176
     1
290
     0
176
     1
290
     1
176
     1
290
     1
176
     1
290
     0
176
     1
290
     0
176
     1
290
     0
176
     1
290
     0
176
     1
290
     0
176
     1
290
     0
176
     1
 90
       50
176
     1
 40
0.0
176
     1
 40
1.0
176
     1
 90
        0
176
     1
 62
    18
420
        0
176
     1
 90
       50
176
     1
 90
        3
176
     1
 62
     5
420
      255
176
     1
290
     0
176
     1
 90
       50
176
     1
 90
       50
176
     1
 90
       50
176
     1
290
     0
176
     1
 90
       50
176
     1
 62
   256
176
     0
 40
1.0
176
     0
 90
        2
176
     1
  1
strokes_ogs.tif
176
     1
290
     0
176
     1
 40
1.0
176
     1
 40
1.0
176
     1
  0
VISUALSTYLE
  5
5924A
102
{ACAD_REACTORS
330
59056
102
}
330
59056
100
AcDbVisualStyle
  2
Conceptual
 70
     9
177
     3
291
     0
 70
    58
 90
        3
176
     1
 90
        2
176
     1
 90
        1
176
     1
 90
        0
176
     1
 40
0.6
176
     1
 40
30.0
176
     1
 62
     7
176
     1
 90
        2
176
     1
 90
        2
176
     1
 62
     7
176
     1
 62
   257
176
     1
 90
        1
176
     1
 90
        1
176
     1
 40
40.0
176
     1
 90
        8
176
     1
 62
     7
176
     1
 40
1.0
176
     1
 90
        1
176
     1
 90
        6
176
     1
 90
        2
176
     1
 62
     7
176
     1
 90
        5
176
     1
 90
        0
176
     1
 90
        0
176
     1
290
     0
176
     1
 90
        1
176
     1
 40
0.0
176
     1
 90
        0
176
     1
290
     0
176
     1
290
     1
176
     1
290
     1
176
     1
290
     0
176
     1
290
     0
176
     1
290
     0
176
     1
290
     0
176
     1
290
     0
176
     1
290
     0
176
     1
 90
       50
176
     1
 40
0.0
176
     1
 40
1.0
176
     1
 90
        0
176
     1
 62
    18
420
        0
176
     1
 90
       50
176
     1
 90
        3
176
     1
 62
     5
420
      255
176
     1
290
     0
176
     1
 90
       50
176
     1
 90
       50
176
     1
 90
       50
176
     1
290
     0
176
     1
 90
       50
176
     1
 62
   256
176
     0
 40
1.0
176
     0
 90
        2
176
     1
  1
strokes_ogs.tif
176
     1
290
     0
176
     1
 40
1.0
176
     1
 40
1.0
176
     1
  0
VISUALSTYLE
  5
59061
102
{ACAD_REACTORS
330
59056
102
}
330
59056
100
AcDbVisualStyle
  2
Dim
 70
    11
177
     3
291
     1
 70
    58
 90
        2
176
     1
 90
        2
176
     1
 90
        0
176
     1
 90
        0
176
     1
 40
0.6
176
     1
 40
30.0
176
     1
 62
     7
176
     1
 90
        1
176
     1
 90
        4
176
     1
 62
     7
176
     1
 62
   257
176
     1
 90
        1
176
     1
 90
        1
176
     1
 40
1.0
176
     1
 90
        8
176
     1
 62
     7
176
     1
 40
1.0
176
     1
 90
        1
176
     1
 90
        6
176
     1
 90
        2
176
     1
 62
     7
176
     1
 90
        5
176
     1
 90
        0
176
     1
 90
        0
176
     1
290
     0
176
     1
 90
        1
176
     1
 40
-50.0
176
     1
 90
        0
176
     1
290
     0
176
     1
290
     1
176
     1
290
     1
176
     1
290
     0
176
     1
290
     0
176
     1
290
     0
176
     1
290
     0
176
     1
290
     0
176
     1
290
     0
176
     1
 90
       50
176
     1
 40
0.0
176
     1
 40
1.0
176
     1
 90
        0
176
     1
 62
    18
420
        0
176
     1
 90
       50
176
     1
 90
        3
176
     1
 62
     5
420
      255
176
     1
290
     0
176
     1
 90
       50
176
     1
 90
       50
176
     1
 90
       50
176
     1
290
     0
176
     1
 90
       50
176
     1
 62
   256
176
     0
 40
1.0
176
     0
 90
        2
176
     1
  1
strokes_ogs.tif
176
     1
290
     0
176
     1
 40
1.0
176
     1
 40
1.0
176
     1
  0
VISUALSTYLE
  5
59945
102
{ACAD_REACTORS
330
59056
102
}
330
59056
100
AcDbVisualStyle
  2
EdgeColorOff
 70
    22
177
     3
291
     1
 70
    58
 90
        2
176
     0
 90
        2
176
     0
 90
        0
176
     0
 90
        0
176
     0
 40
0.6
176
     0
 40
30.0
176
     0
 62
     7
420
 16777215
176
     0
 90
        1
176
     0
 90
        4
176
     0
 62
     7
176
     0
 62
   257
176
     0
 90
        1
176
     0
 90
        1
176
     0
 40
1.0
176
     0
 90
        8
176
     2
 62
     7
176
     0
 40
1.0
176
     0
 90
        1
176
     0
 90
        6
176
     0
 90
        2
176
     0
 62
     7
176
     0
 90
        5
176
     0
 90
        0
176
     0
 90
        0
176
     0
290
     0
176
     0
 90
        1
176
     0
 40
0.0
176
     0
 90
        0
176
     0
290
     0
176
     0
290
     1
176
     0
290
     1
176
     0
290
     0
176
     0
290
     0
176
     0
290
     0
176
     0
290
     0
176
     0
290
     0
176
     0
290
     0
176
     0
 90
       50
176
     0
 40
0.0
176
     0
 40
1.0
176
     0
 90
        0
176
     0
 62
    18
420
        0
176
     0
 90
       50
176
     0
 90
        3
176
     0
 62
     5
420
      255
176
     0
290
     0
176
     0
 90
       50
176
     0
 90
       50
176
     0
 90
       50
176
     0
290
     0
176
     0
 90
       50
176
     0
 62
   256
176
     0
 40
1.0
176
     0
 90
        2
176
     0
  1
strokes_ogs.tif
176
     0
290
     0
176
     0
 40
1.0
176
     0
 40
1.0
176
     0
  0
VISUALSTYLE
  5
59065
102
{ACAD_REACTORS
330
59056
102
}
330
59056
100
AcDbVisualStyle
  2
Facepattern
 70
    15
177
     3
291
     1
 70
    58
 90
        2
176
     1
 90
        2
176
     1
 90
        0
176
     1
 90
        0
176
     1
 40
0.6
176
     1
 40
30.0
176
     1
 62
     7
176
     1
 90
        1
176
     1
 90
        4
176
     1
 62
     7
176
     1
 62
   257
176
     1
 90
        1
176
     1
 90
        1
176
     1
 40
1.0
176
     1
 90
        8
176
     1
 62
     7
176
     1
 40
1.0
176
     1
 90
        1
176
     1
 90
        6
176
     1
 90
        2
176
     1
 62
     7
176
     1
 90
        5
176
     1
 90
        0
176
     1
 90
        0
176
     1
290
     0
176
     1
 90
        1
176
     1
 40
0.0
176
     1
 90
        0
176
     1
290
     0
176
     1
290
     1
176
     1
290
     1
176
     1
290
     0
176
     1
290
     0
176
     1
290
     0
176
     1
290
     0
176
     1
290
     0
176
     1
290
     0
176
     1
 90
       50
176
     1
 40
0.0
176
     1
 40
1.0
176
     1
 90
        0
176
     1
 62
    18
420
        0
176
     1
 90
       50
176
     1
 90
        3
176
     1
 62
     5
420
      255
176
     1
290
     0
176
     1
 90
       50
176
     1
 90
       50
176
     1
 90
       50
176
     1
290
     0
176
     1
 90
       50
176
     1
 62
   256
176
     0
 40
1.0
176
     0
 90
        2
176
     1
  1
strokes_ogs.tif
176
     1
290
     0
176
     1
 40
1.0
176
     1
 40
1.0
176
     1
  0
VISUALSTYLE
  5
59057
102
{ACAD_REACTORS
330
59056
102
}
330
59056
100
AcDbVisualStyle
  2
Flat
 70
     0
177
     3
291
     1
 70
    58
 90
        2
176
     1
 90
        1
176
     1
 90
        1
176
     1
 90
        2
176
     1
 40
0.6
176
     1
 40
30.0
176
     1
 62
     7
176
     1
 90
        0
176
     1
 90
        4
176
     1
 62
     7
176
     1
 62
   257
176
     1
 90
        1
176
     1
 90
        1
176
     1
 40
1.0
176
     1
 90
        8
176
     1
 62
     7
176
     1
 40
1.0
176
     1
 90
        1
176
     1
 90
        6
176
     1
 90
        2
176
     1
 62
     7
176
     1
 90
        5
176
     1
 90
        0
176
     1
 90
        0
176
     1
290
     0
176
     1
 90
       13
176
     1
 40
0.0
176
     1
 90
        0
176
     1
290
     0
176
     1
290
     1
176
     1
290
     1
176
     1
290
     0
176
     1
290
     0
176
     1
290
     0
176
     1
290
     0
176
     1
290
     0
176
     1
290
     0
176
     1
 90
       50
176
     1
 40
0.0
176
     1
 40
1.0
176
     1
 90
        0
176
     1
 62
    18
420
        0
176
     1
 90
       50
176
     1
 90
        3
176
     1
 62
     5
420
      255
176
     1
290
     0
176
     1
 90
       50
176
     1
 90
       50
176
     1
 90
       50
176
     1
290
     0
176
     1
 90
       50
176
     1
 62
   256
176
     0
 40
1.0
176
     0
 90
        2
176
     1
  1
strokes_ogs.tif
176
     1
290
     0
176
     1
 40
1.0
176
     1
 40
1.0
176
     1
  0
VISUALSTYLE
  5
59058
102
{ACAD_REACTORS
330
59056
102
}
330
59056
100
AcDbVisualStyle
  2
FlatWithEdges
 70
     1
177
     3
291
     1
 70
    58
 90
        2
176
     1
 90
        1
176
     1
 90
        1
176
     1
 90
        2
176
     1
 40
0.6
176
     1
 40
30.0
176
     1
 62
     7
176
     1
 90
        1
176
     1
 90
        4
176
     1
 62
     7
176
     1
 62
   257
176
     1
 90
        1
176
     1
 90
        1
176
     1
 40
1.0
176
     1
 90
        0
176
     1
 62
   257
176
     1
 40
1.0
176
     1
 90
        1
176
     1
 90
        6
176
     1
 90
        2
176
     1
 62
     7
176
     1
 90
        5
176
     1
 90
        0
176
     1
 90
        0
176
     1
290
     0
176
     1
 90
       13
176
     1
 40
0.0
176
     1
 90
        0
176
     1
290
     0
176
     1
290
     1
176
     1
290
     1
176
     1
290
     0
176
     1
290
     0
176
     1
290
     0
176
     1
290
     0
176
     1
290
     0
176
     1
290
     0
176
     1
 90
       50
176
     1
 40
0.0
176
     1
 40
1.0
176
     1
 90
        0
176
     1
 62
    18
420
        0
176
     1
 90
       50
176
     1
 90
        3
176
     1
 62
     5
420
      255
176
     1
290
     0
176
     1
 90
       50
176
     1
 90
       50
176
     1
 90
       50
176
     1
290
     0
176
     1
 90
       50
176
     1
 62
   256
176
     0
 40
1.0
176
     0
 90
        2
176
     1
  1
strokes_ogs.tif
176
     1
290
     0
176
     1
 40
1.0
176
     1
 40
1.0
176
     1
  0
VISUALSTYLE
  5
59059
102
{ACAD_REACTORS
330
59056
102
}
330
59056
100
AcDbVisualStyle
  2
Gouraud
 70
     2
177
     3
291
     1
 70
    58
 90
        2
176
     1
 90
        2
176
     1
 90
        1
176
     1
 90
        2
176
     1
 40
0.6
176
     1
 40
30.0
176
     1
 62
     7
176
     1
 90
        0
176
     1
 90
        4
176
     1
 62
     7
176
     1
 62
   257
176
     1
 90
        1
176
     1
 90
        1
176
     1
 40
1.0
176
     1
 90
        0
176
     1
 62
     7
176
     1
 40
1.0
176
     1
 90
        1
176
     1
 90
        6
176
     1
 90
        2
176
     1
 62
     7
176
     1
 90
        5
176
     1
 90
        0
176
     1
 90
        0
176
     1
290
     0
176
     1
 90
       13
176
     1
 40
0.0
176
     1
 90
        0
176
     1
290
     0
176
     1
290
     1
176
     1
290
     1
176
     1
290
     0
176
     1
290
     0
176
     1
290
     0
176
     1
290
     0
176
     1
290
     0
176
     1
290
     0
176
     1
 90
       50
176
     1
 40
0.0
176
     1
 40
1.0
176
     1
 90
        0
176
     1
 62
    18
420
        0
176
     1
 90
       50
176
     1
 90
        3
176
     1
 62
     5
420
      255
176
     1
290
     0
176
     1
 90
       50
176
     1
 90
       50
176
     1
 90
       50
176
     1
290
     0
176
     1
 90
       50
176
     1
 62
   256
176
     0
 40
1.0
176
     0
 90
        2
176
     1
  1
strokes_ogs.tif
176
     1
290
     0
176
     1
 40
1.0
176
     1
 40
1.0
176
     1
  0
VISUALSTYLE
  5
5905A
102
{ACAD_REACTORS
330
59056
102
}
330
59056
100
AcDbVisualStyle
  2
GouraudWithEdges
 70
     3
177
     3
291
     1
 70
    58
 90
        2
176
     1
 90
        2
176
     1
 90
        1
176
     1
 90
        2
176
     1
 40
0.6
176
     1
 40
30.0
176
     1
 62
     7
176
     1
 90
        1
176
     1
 90
        4
176
     1
 62
     7
176
     1
 62
   257
176
     1
 90
        1
176
     1
 90
        1
176
     1
 40
1.0
176
     1
 90
        0
176
     1
 62
   257
176
     1
 40
1.0
176
     1
 90
        1
176
     1
 90
        6
176
     1
 90
        2
176
     1
 62
     7
176
     1
 90
        5
176
     1
 90
        0
176
     1
 90
        0
176
     1
290
     0
176
     1
 90
       13
176
     1
 40
0.0
176
     1
 90
        0
176
     1
290
     0
176
     1
290
     1
176
     1
290
     1
176
     1
290
     0
176
     1
290
     0
176
     1
290
     0
176
     1
290
     0
176
     1
290
     0
176
     1
290
     0
176
     1
 90
       50
176
     1
 40
0.0
176
     1
 40
1.0
176
     1
 90
        0
176
     1
 62
    18
420
        0
176
     1
 90
       50
176
     1
 90
        3
176
     1
 62
     5
420
      255
176
     1
290
     0
176
     1
 90
       50
176
     1
 90
       50
176
     1
 90
       50
176
     1
290
     0
176
     1
 90
       50
176
     1
 62
   256
176
     0
 40
1.0
176
     0
 90
        2
176
     1
  1
strokes_ogs.tif
176
     1
290
     0
176
     1
 40
1.0
176
     1
 40
1.0
176
     1
  0
VISUALSTYLE
  5
5993D
102
{ACAD_REACTORS
330
59056
102
}
330
59056
100
AcDbVisualStyle
  2
Hidden
 70
     6
177
     3
291
     0
 70
    58
 90
        1
176
     1
 90
        2
176
     1
 90
        2
176
     1
 90
        0
176
     1
 40
0.6
176
     1
 40
30.0
176
     1
 62
     7
420
 16777215
176
     1
 90
        2
176
     1
 90
        2
176
     1
 62
     7
176
     1
 62
   257
176
     1
 90
        2
176
     1
 90
        1
176
     1
 40
40.0
176
     1
 90
        0
176
     1
 62
   257
176
     1
 40
1.0
176
     1
 90
        1
176
     1
 90
        6
176
     1
 90
        2
176
     1
 62
     7
176
     1
 90
        3
176
     1
 90
        0
176
     1
 90
        0
176
     1
290
     0
176
     1
 90
        1
176
     1
 40
0.0
176
     1
 90
        0
176
     1
290
     0
176
     1
290
     1
176
     1
290
     1
176
     1
290
     0
176
     1
290
     0
176
     1
290
     0
176
     1
290
     0
176
     1
290
     0
176
     1
290
     0
176
     1
 90
       50
176
     1
 40
0.0
176
     1
 40
1.0
176
     1
 90
        0
176
     1
 62
    18
420
        0
176
     1
 90
       50
176
     1
 90
        3
176
     1
 62
     5
420
      255
176
     1
290
     0
176
     1
 90
       50
176
     1
 90
       50
176
     1
 90
       50
176
     1
290
     0
176
     1
 90
       50
176
     1
 62
   256
176
     0
 40
1.0
176
     0
 90
        2
176
     1
  1
strokes_ogs.tif
176
     1
290
     0
176
     1
 40
1.0
176
     1
 40
1.0
176
     1
  0
VISUALSTYLE
  5
59943
102
{ACAD_REACTORS
330
59056
102
}
330
59056
100
AcDbVisualStyle
  2
JitterOff
 70
    20
177
     3
291
     1
 70
    58
 90
        2
176
     0
 90
        2
176
     0
 90
        0
176
     0
 90
        0
176
     0
 40
0.6
176
     0
 40
30.0
176
     0
 62
     7
420
 16777215
176
     0
 90
        1
176
     0
 90
        4
176
     0
 62
     7
176
     0
 62
   257
176
     0
 90
        1
176
     0
 90
        1
176
     0
 40
1.0
176
     0
 90
       10
176
     2
 62
     7
176
     0
 40
1.0
176
     0
 90
        1
176
     0
 90
        6
176
     0
 90
        2
176
     0
 62
     7
176
     0
 90
        5
176
     0
 90
        0
176
     0
 90
        0
176
     0
290
     0
176
     0
 90
        1
176
     0
 40
0.0
176
     0
 90
        0
176
     0
290
     0
176
     0
290
     1
176
     0
290
     1
176
     0
290
     0
176
     0
290
     0
176
     0
290
     0
176
     0
290
     0
176
     0
290
     0
176
     0
290
     0
176
     0
 90
       50
176
     0
 40
0.0
176
     0
 40
1.0
176
     0
 90
        0
176
     0
 62
    18
420
        0
176
     0
 90
       50
176
     0
 90
        3
176
     0
 62
     5
420
      255
176
     0
290
     0
176
     0
 90
       50
176
     0
 90
       50
176
     0
 90
       50
176
     0
290
     0
176
     0
 90
       50
176
     0
 62
   256
176
     0
 40
1.0
176
     0
 90
        2
176
     0
  1
strokes_ogs.tif
176
     0
290
     0
176
     0
 40
1.0
176
     0
 40
1.0
176
     0
  0
VISUALSTYLE
  5
59064
102
{ACAD_REACTORS
330
59056
102
}
330
59056
100
AcDbVisualStyle
  2
Linepattern
 70
    14
177
     3
291
     1
 70
    58
 90
        2
176
     1
 90
        2
176
     1
 90
        0
176
     1
 90
        0
176
     1
 40
0.6
176
     1
 40
30.0
176
     1
 62
     7
176
     1
 90
        1
176
     1
 90
        4
176
     1
 62
     7
176
     1
 62
   257
176
     1
 90
        7
176
     1
 90
        7
176
     1
 40
1.0
176
     1
 90
        8
176
     1
 62
     7
176
     1
 40
1.0
176
     1
 90
        1
176
     1
 90
        6
176
     1
 90
        2
176
     1
 62
     7
176
     1
 90
        5
176
     1
 90
        0
176
     1
 90
        0
176
     1
290
     0
176
     1
 90
        1
176
     1
 40
0.0
176
     1
 90
        0
176
     1
290
     0
176
     1
290
     1
176
     1
290
     1
176
     1
290
     0
176
     1
290
     0
176
     1
290
     0
176
     1
290
     0
176
     1
290
     0
176
     1
290
     0
176
     1
 90
       50
176
     1
 40
0.0
176
     1
 40
1.0
176
     1
 90
        0
176
     1
 62
    18
420
        0
176
     1
 90
       50
176
     1
 90
        3
176
     1
 62
     5
420
      255
176
     1
290
     0
176
     1
 90
       50
176
     1
 90
       50
176
     1
 90
       50
176
     1
290
     0
176
     1
 90
       50
176
     1
 62
   256
176
     0
 40
1.0
176
     0
 90
        2
176
     1
  1
strokes_ogs.tif
176
     1
290
     0
176
     1
 40
1.0
176
     1
 40
1.0
176
     1
  0
VISUALSTYLE
  5
59944
102
{ACAD_REACTORS
330
59056
102
}
330
59056
100
AcDbVisualStyle
  2
OverhangOff
 70
    21
177
     3
291
     1
 70
    58
 90
        2
176
     0
 90
        2
176
     0
 90
        0
176
     0
 90
        0
176
     0
 40
0.6
176
     0
 40
30.0
176
     0
 62
     7
420
 16777215
176
     0
 90
        1
176
     0
 90
        4
176
     0
 62
     7
176
     0
 62
   257
176
     0
 90
        1
176
     0
 90
        1
176
     0
 40
1.0
176
     0
 90
        9
176
     2
 62
     7
176
     0
 40
1.0
176
     0
 90
        1
176
     0
 90
        6
176
     0
 90
        2
176
     0
 62
     7
176
     0
 90
        5
176
     0
 90
        0
176
     0
 90
        0
176
     0
290
     0
176
     0
 90
        1
176
     0
 40
0.0
176
     0
 90
        0
176
     0
290
     0
176
     0
290
     1
176
     0
290
     1
176
     0
290
     0
176
     0
290
     0
176
     0
290
     0
176
     0
290
     0
176
     0
290
     0
176
     0
290
     0
176
     0
 90
       50
176
     0
 40
0.0
176
     0
 40
1.0
176
     0
 90
        0
176
     0
 62
    18
420
        0
176
     0
 90
       50
176
     0
 90
        3
176
     0
 62
     5
420
      255
176
     0
290
     0
176
     0
 90
       50
176
     0
 90
       50
176
     0
 90
       50
176
     0
290
     0
176
     0
 90
       50
176
     0
 62
   256
176
     0
 40
1.0
176
     0
 90
        2
176
     0
  1
strokes_ogs.tif
176
     0
290
     0
176
     0
 40
1.0
176
     0
 40
1.0
176
     0
  0
VISUALSTYLE
  5
5924B
102
{ACAD_REACTORS
330
59056
102
}
330
59056
100
AcDbVisualStyle
  2
Realistic
 70
     8
177
     3
291
     0
 70
    58
 90
        2
176
     1
 90
        2
176
     1
 90
        1
176
     1
 90
        0
176
     1
 40
0.6
176
     1
 40
30.0
176
     1
 62
     7
176
     1
 90
        1
176
     1
 90
        0
176
     1
 62
     7
176
     1
 62
   257
176
     1
 90
        1
176
     1
 90
        1
176
     1
 40
1.0
176
     1
 90
        8
176
     1
 62
     7
176
     1
 40
1.0
176
     1
 90
        1
176
     1
 90
        6
176
     1
 90
        2
176
     1
 62
     7
176
     1
 90
        5
176
     1
 90
        0
176
     1
 90
        0
176
     1
290
     0
176
     1
 90
       13
176
     1
 40
0.0
176
     1
 90
        0
176
     1
290
     0
176
     1
290
     1
176
     1
290
     1
176
     1
290
     0
176
     1
290
     0
176
     1
290
     0
176
     1
290
     0
176
     1
290
     0
176
     1
290
     0
176
     1
 90
       50
176
     1
 40
0.0
176
     1
 40
1.0
176
     1
 90
        0
176
     1
 62
    18
420
        0
176
     1
 90
       50
176
     1
 90
        3
176
     1
 62
     5
420
      255
176
     1
290
     0
176
     1
 90
       50
176
     1
 90
       50
176
     1
 90
       50
176
     1
290
     0
176
     1
 90
       50
176
     1
 62
   256
176
     0
 40
1.0
176
     0
 90
        2
176
     1
  1
strokes_ogs.tif
176
     1
290
     0
176
     1
 40
1.0
176
     1
 40
1.0
176
     1
  0
VISUALSTYLE
  5
59942
102
{ACAD_REACTORS
330
59056
102
}
330
59056
100
AcDbVisualStyle
  2
Shaded
 70
    27
177
     3
291
     0
 70
    58
 90
        2
176
     1
 90
        2
176
     1
 90
        1
176
     1
 90
        2
176
     1
 40
0.6
176
     1
 40
30.0
176
     1
 62
     7
420
 16777215
176
     1
 90
        0
176
     1
 90
        4
176
     1
 62
     7
176
     1
 62
   257
176
     1
 90
        1
176
     1
 90
        1
176
     1
 40
1.0
176
     1
 90
        8
176
     1
 62
   257
176
     1
 40
1.0
176
     1
 90
        1
176
     1
 90
        6
176
     1
 90
        2
176
     1
 62
     8
420
  7895160
176
     1
 90
        3
176
     1
 90
        0
176
     1
 90
        0
176
     1
290
     0
176
     1
 90
        5
176
     1
 40
0.0
176
     1
 90
        0
176
     1
290
     0
176
     1
290
     1
176
     1
290
     1
176
     1
290
     0
176
     1
290
     0
176
     1
290
     0
176
     1
290
     0
176
     1
290
     0
176
     1
290
     0
176
     1
 90
       50
176
     1
 40
0.0
176
     1
 40
1.0
176
     1
 90
        0
176
     1
 62
    18
420
        0
176
     1
 90
       50
176
     1
 90
        3
176
     1
 62
     5
420
      255
176
     1
290
     0
176
     1
 90
       50
176
     1
 90
       50
176
     1
 90
       50
176
     1
290
     0
176
     1
 90
       50
176
     1
 62
   256
176
     0
 40
1.0
176
     0
 90
        2
176
     1
  1
strokes_ogs.tif
176
     1
290
     0
176
     1
 40
1.0
176
     1
 40
1.0
176
     1
  0
VISUALSTYLE
  5
59941
102
{ACAD_REACTORS
330
59056
102
}
330
59056
100
AcDbVisualStyle
  2
Shaded with edges
 70
    26
177
     3
291
     0
 70
    58
 90
        2
176
     1
 90
        2
176
     1
 90
        1
176
     1
 90
        2
176
     1
 40
0.6
176
     1
 40
30.0
176
     1
 62
     7
420
 16777215
176
     1
 90
        1
176
     1
 90
       10
176
     1
 62
     7
176
     1
 62
   257
176
     1
 90
        2
176
     1
 90
        1
176
     1
 40
1.0
176
     1
 90
        8
176
     1
 62
   257
176
     1
 40
1.0
176
     1
 90
        1
176
     1
 90
        6
176
     1
 90
        2
176
     1
 62
     7
176
     1
 90
        3
176
     1
 90
        0
176
     1
 90
        0
176
     1
290
     0
176
     1
 90
        5
176
     1
 40
0.0
176
     1
 90
        0
176
     1
290
     0
176
     1
290
     1
176
     1
290
     1
176
     1
290
     0
176
     1
290
     0
176
     1
290
     0
176
     1
290
     0
176
     1
290
     0
176
     1
290
     0
176
     1
 90
       50
176
     1
 40
0.0
176
     1
 40
1.0
176
     1
 90
        0
176
     1
 62
    18
420
        0
176
     1
 90
       50
176
     1
 90
        3
176
     1
 62
     5
420
      255
176
     1
290
     0
176
     1
 90
       50
176
     1
 90
       50
176
     1
 90
       50
176
     1
290
     0
176
     1
 90
       50
176
     1
 62
   256
176
     0
 40
1.0
176
     0
 90
        2
176
     1
  1
strokes_ogs.tif
176
     1
290
     0
176
     1
 40
1.0
176
     1
 40
1.0
176
     1
  0
VISUALSTYLE
  5
5993E
102
{ACAD_REACTORS
330
59056
102
}
330
59056
100
AcDbVisualStyle
  2
Shades of Gray
 70
    23
177
     3
291
     0
 70
    58
 90
        2
176
     1
 90
        2
176
     1
 90
        3
176
     1
 90
        0
176
     1
 40
0.6
176
     1
 40
30.0
176
     1
 62
     7
420
 16777215
176
     1
 90
        2
176
     1
 90
        2
176
     1
 62
     7
176
     1
 62
     7
176
     1
 90
        1
176
     1
 90
        1
176
     1
 40
40.0
176
     1
 90
        8
176
     1
 62
     7
176
     1
 40
1.0
176
     1
 90
        1
176
     1
 90
        6
176
     1
 90
        2
176
     1
 62
     7
176
     1
 90
        3
176
     1
 90
        0
176
     1
 90
        0
176
     1
290
     0
176
     1
 90
        1
176
     1
 40
0.0
176
     1
 90
        0
176
     1
290
     0
176
     1
290
     1
176
     1
290
     1
176
     1
290
     0
176
     1
290
     0
176
     1
290
     0
176
     1
290
     0
176
     1
290
     0
176
     1
290
     0
176
     1
 90
       50
176
     1
 40
0.0
176
     1
 40
1.0
176
     1
 90
        0
176
     1
 62
    18
420
        0
176
     1
 90
       50
176
     1
 90
        3
176
     1
 62
     5
420
      255
176
     1
290
     0
176
     1
 90
       50
176
     1
 90
       50
176
     1
 90
       50
176
     1
290
     0
176
     1
 90
       50
176
     1
 62
   256
176
     0
 40
1.0
176
     0
 90
        2
176
     1
  1
strokes_ogs.tif
176
     1
290
     0
176
     1
 40
1.0
176
     1
 40
1.0
176
     1
  0
VISUALSTYLE
  5
5993F
102
{ACAD_REACTORS
330
59056
102
}
330
59056
100
AcDbVisualStyle
  2
Sketchy
 70
    24
177
     3
291
     0
 70
    58
 90
        1
176
     1
 90
        2
176
     1
 90
        2
176
     1
 90
        0
176
     1
 40
0.6
176
     1
 40
30.0
176
     1
 62
     7
420
 16777215
176
     1
 90
        2
176
     1
 90
        2
176
     1
 62
     7
176
     1
 62
     7
176
     1
 90
        1
176
     1
 90
        1
176
     1
 40
40.0
176
     1
 90
       11
176
     1
 62
     7
176
     1
 40
1.0
176
     1
 90
        1
176
     1
 90
        6
176
     1
 90
        2
176
     1
 62
     7
176
     1
 90
        6
176
     1
 90
        0
176
     1
 90
        0
176
     1
290
     0
176
     1
 90
        1
176
     1
 40
0.0
176
     1
 90
        0
176
     1
290
     0
176
     1
290
     1
176
     1
290
     1
176
     1
290
     0
176
     1
290
     0
176
     1
290
     0
176
     1
290
     0
176
     1
290
     0
176
     1
290
     0
176
     1
 90
       50
176
     1
 40
0.0
176
     1
 40
1.0
176
     1
 90
        0
176
     1
 62
    18
420
        0
176
     1
 90
       50
176
     1
 90
        3
176
     1
 62
     5
420
      255
176
     1
290
     0
176
     1
 90
       50
176
     1
 90
       50
176
     1
 90
       50
176
     1
290
     0
176
     1
 90
       50
176
     1
 62
   256
176
     0
 40
1.0
176
     0
 90
        2
176
     1
  1
strokes_ogs.tif
176
     1
290
     0
176
     1
 40
1.0
176
     1
 40
1.0
176
     1
  0
VISUALSTYLE
  5
59063
102
{ACAD_REACTORS
330
59056
102
}
330
59056
100
AcDbVisualStyle
  2
Thicken
 70
    13
177
     3
291
     1
 70
    58
 90
        2
176
     1
 90
        2
176
     1
 90
        0
176
     1
 90
        0
176
     1
 40
0.6
176
     1
 40
30.0
176
     1
 62
     7
176
     1
 90
        1
176
     1
 90
        4
176
     1
 62
     7
176
     1
 62
   257
176
     1
 90
        1
176
     1
 90
        1
176
     1
 40
1.0
176
     1
 90
       12
176
     1
 62
     7
176
     1
 40
1.0
176
     1
 90
        1
176
     1
 90
        6
176
     1
 90
        2
176
     1
 62
     7
176
     1
 90
        5
176
     1
 90
        0
176
     1
 90
        0
176
     1
290
     0
176
     1
 90
        1
176
     1
 40
0.0
176
     1
 90
        0
176
     1
290
     0
176
     1
290
     1
176
     1
290
     1
176
     1
290
     0
176
     1
290
     0
176
     1
290
     0
176
     1
290
     0
176
     1
290
     0
176
     1
290
     0
176
     1
 90
       50
176
     1
 40
0.0
176
     1
 40
1.0
176
     1
 90
        0
176
     1
 62
    18
420
        0
176
     1
 90
       50
176
     1
 90
        3
176
     1
 62
     5
420
      255
176
     1
290
     0
176
     1
 90
       50
176
     1
 90
       50
176
     1
 90
       50
176
     1
290
     0
176
     1
 90
       50
176
     1
 62
   256
176
     0
 40
1.0
176
     0
 90
        2
176
     1
  1
strokes_ogs.tif
176
     1
290
     0
176
     1
 40
1.0
176
     1
 40
1.0
176
     1
  0
VISUALSTYLE
  5
5993C
102
{ACAD_REACTORS
330
59056
102
}
330
59056
100
AcDbVisualStyle
  2
Wireframe
 70
     5
177
     3
291
     0
 70
    58
 90
        0
176
     1
 90
        2
176
     1
 90
        0
176
     1
 90
        0
176
     1
 40
0.6
176
     1
 40
30.0
176
     1
 62
     7
420
 16777215
176
     1
 90
        1
176
     1
 90
        4
176
     1
 62
     7
176
     1
 62
   257
176
     1
 90
        1
176
     1
 90
        1
176
     1
 40
1.0
176
     1
 90
        0
176
     1
 62
   257
176
     1
 40
1.0
176
     1
 90
        1
176
     1
 90
        6
176
     1
 90
        2
176
     1
 62
     7
176
     1
 90
        3
176
     1
 90
        0
176
     1
 90
        0
176
     1
290
     0
176
     1
 90
        1
176
     1
 40
0.0
176
     1
 90
        0
176
     1
290
     0
176
     1
290
     1
176
     1
290
     1
176
     1
290
     0
176
     1
290
     0
176
     1
290
     0
176
     1
290
     0
176
     1
290
     0
176
     1
290
     0
176
     1
 90
       50
176
     1
 40
0.0
176
     1
 40
1.0
176
     1
 90
        0
176
     1
 62
    18
420
        0
176
     1
 90
       50
176
     1
 90
        3
176
     1
 62
     5
420
      255
176
     1
290
     0
176
     1
 90
       50
176
     1
 90
       50
176
     1
 90
       50
176
     1
290
     0
176
     1
 90
       50
176
     1
 62
   256
176
     0
 40
1.0
176
     0
 90
        2
176
     1
  1
strokes_ogs.tif
176
     1
290
     0
176
     1
 40
1.0
176
     1
 40
1.0
176
     1
  0
VISUALSTYLE
  5
59940
102
{ACAD_REACTORS
330
59056
102
}
330
59056
100
AcDbVisualStyle
  2
X-Ray
 70
    25
177
     3
291
     0
 70
    58
 90
        2
176
     1
 90
        2
176
     1
 90
        1
176
     1
 90
        1
176
     1
 40
0.5
176
     1
 40
30.0
176
     1
 62
     7
420
 16777215
176
     1
 90
        1
176
     1
 90
        0
176
     1
 62
     7
176
     1
 62
   257
176
     1
 90
        1
176
     1
 90
        1
176
     1
 40
1.0
176
     1
 90
        8
176
     1
 62
     7
176
     1
 40
1.0
176
     1
 90
        1
176
     1
 90
        6
176
     1
 90
        2
176
     1
 62
     7
176
     1
 90
        3
176
     1
 90
        0
176
     1
 90
        0
176
     1
290
     0
176
     1
 90
       13
176
     1
 40
0.0
176
     1
 90
        0
176
     1
290
     0
176
     1
290
     1
176
     1
290
     1
176
     1
290
     0
176
     1
290
     0
176
     1
290
     0
176
     1
290
     0
176
     1
290
     0
176
     1
290
     0
176
     1
 90
       50
176
     1
 40
0.0
176
     1
 40
1.0
176
     1
 90
        0
176
     1
 62
    18
420
        0
176
     1
 90
       50
176
     1
 90
        3
176
     1
 62
     5
420
      255
176
     1
290
     0
176
     1
 90
       50
176
     1
 90
       50
176
     1
 90
       50
176
     1
290
     0
176
     1
 90
       50
176
     1
 62
   256
176
     0
 40
1.0
176
     0
 90
        2
176
     1
  1
strokes_ogs.tif
176
     1
290
     0
176
     1
 40
1.0
176
     1
 40
1.0
176
     1
  0
DICTIONARYVAR
  5
59989
102
{ACAD_REACTORS
330
5904D
102
}
330
5904D
100
DictionaryVariables
280
     0
  1
1:1
  0
DICTIONARYVAR
  5
59985
102
{ACAD_REACTORS
330
5904D
102
}
330
5904D
100
DictionaryVariables
280
     0
  1
STANDARD
  0
DICTIONARYVAR
  5
5904E
102
{ACAD_REACTORS
330
5904D
102
}
330
5904D
100
DictionaryVariables
280
     0
  1
STANDARD
  0
DICTIONARYVAR
  5
59986
102
{ACAD_REACTORS
330
5904D
102
}
330
5904D
100
DictionaryVariables
280
     0
  1
Imperial24
  0
DICTIONARYVAR
  5
59987
102
{ACAD_REACTORS
330
5904D
102
}
330
5904D
100
DictionaryVariables
280
     0
  1
Imperial24
  0
DICTIONARYVAR
  5
59050
102
{ACAD_REACTORS
330
5904D
102
}
330
5904D
100
DictionaryVariables
280
     0
  1
2
  0
DICTIONARYVAR
  5
5904F
102
{ACAD_REACTORS
330
5904D
102
}
330
5904D
100
DictionaryVariables
280
     0
  1
1
  0
DICTIONARYVAR
  5
59903
102
{ACAD_REACTORS
330
5904D
102
}
330
5904D
100
DictionaryVariables
280
     0
  1
0
  0
DICTIONARYVAR
  5
5998B
102
{ACAD_REACTORS
330
5904D
102
}
330
5904D
100
DictionaryVariables
280
     0
  1
1
  0
DICTIONARYVAR
  5
5998C
102
{ACAD_REACTORS
330
5904D
102
}
330
5904D
100
DictionaryVariables
280
     0
  1
15
  0
DICTIONARYVAR
  5
5998A
102
{ACAD_REACTORS
330
5904D
102
}
330
5904D
100
DictionaryVariables
280
     0
  1
0
  0
DICTIONARYVAR
  5
59988
102
{ACAD_REACTORS
330
5904D
102
}
330
5904D
100
DictionaryVariables
280
     0
  1
0
  0
DICTIONARYVAR
  5
59051
102
{ACAD_REACTORS
330
5904D
102
}
330
5904D
100
DictionaryVariables
280
     0
  1

  0
DICTIONARYVAR
  5
59902
102
{ACAD_REACTORS
330
5904D
102
}
330
5904D
100
DictionaryVariables
280
     0
  1
127
  0
BLOCKPOINTPARAMETER
  5
59083
330
59082
100
AcDbEvalExpr
 90
        1
 98
       31
 99
        8
100
AcDbBlockElement
300
Point
 98
       31
 99
        8
1071
        0
100
AcDbBlockParameter
280
     1
281
     0
100
AcDbBlock1PtParameter
1010
4.0
1020
0.375
1030
0.0
 93
        2
170
     1
 91
        2
301
DisplacementX
171
     1
 92
        2
302
DisplacementY
100
AcDbBlockPointParameter
303
Position
304

1011
4.0
1021
0.375
1031
0.0
  0
BLOCKXYGRIP
  5
59084
330
59082
100
AcDbEvalExpr
 90
        2
 98
       31
 99
        8
100
AcDbBlockElement
300
Grip
 98
       31
 99
        8
1071
        0
100
AcDbBlockGrip
 91
        3
 92
        4
1010
4.0
1020
0.375
1030
0.0
280
     1
 93
       -1
100
AcDbBlockXYGrip
  0
BLOCKGRIPLOCATIONCOMPONENT
  5
59085
330
59082
100
AcDbEvalExpr
 90
        3
 98
       31
 99
        8
  1

 70
    40
140
0.0
100
AcDbBlockGripExpr
 91
        1
300
UpdatedX
  0
BLOCKGRIPLOCATIONCOMPONENT
  5
59086
330
59082
100
AcDbEvalExpr
 90
        4
 98
       31
 99
        8
  1

 70
    40
140
0.0
100
AcDbBlockGripExpr
 91
        1
300
UpdatedY
  0
BLOCKMOVEACTION
  5
59087
330
59082
100
AcDbEvalExpr
 90
        5
 98
       31
 99
        8
100
AcDbBlockElement
300
Move
 98
       31
 99
        8
1071
        4
100
AcDbBlockAction
 70
     0
 71
     0
1010
4.215701553853421
1020
0.1592984461465785
1030
0.0
100
AcDbBlockMoveAction
 92
        1
301
XDelta
 93
        1
302
YDelta
140
1.0
141
0.0
280
     0
  0
BLOCKPOINTPARAMETER
  5
5909C
330
5909B
100
AcDbEvalExpr
 90
        1
 98
       31
 99
        8
100
AcDbBlockElement
300
Point
 98
       31
 99
        8
1071
        0
100
AcDbBlockParameter
280
     1
281
     0
100
AcDbBlock1PtParameter
1010
4.0
1020
0.375
1030
0.0
 93
        2
170
     1
 91
        2
301
DisplacementX
171
     1
 92
        2
302
DisplacementY
100
AcDbBlockPointParameter
303
Position
304

1011
4.0
1021
0.375
1031
0.0
  0
BLOCKXYGRIP
  5
5909D
330
5909B
100
AcDbEvalExpr
 90
        2
 98
       31
 99
        8
100
AcDbBlockElement
300
Grip
 98
       31
 99
        8
1071
        0
100
AcDbBlockGrip
 91
        3
 92
        4
1010
4.0
1020
0.375
1030
0.0
280
     1
 93
       -1
100
AcDbBlockXYGrip
  0
BLOCKGRIPLOCATIONCOMPONENT
  5
5909E
330
5909B
100
AcDbEvalExpr
 90
        3
 98
       31
 99
        8
  1

 70
    40
140
0.0
100
AcDbBlockGripExpr
 91
        1
300
UpdatedX
  0
BLOCKGRIPLOCATIONCOMPONENT
  5
5909F
330
5909B
100
AcDbEvalExpr
 90
        4
 98
       31
 99
        8
  1

 70
    40
140
0.0
100
AcDbBlockGripExpr
 91
        1
300
UpdatedY
  0
BLOCKMOVEACTION
  5
590A0
330
5909B
100
AcDbEvalExpr
 90
        5
 98
       31
 99
        8
100
AcDbBlockElement
300
Move
 98
       31
 99
        8
1071
        4
100
AcDbBlockAction
 70
     0
 71
     0
1010
4.215701553853421
1020
0.1592984461465785
1030
0.0
100
AcDbBlockMoveAction
 92
        1
301
XDelta
 93
        1
302
YDelta
140
1.0
141
0.0
280
     0
  0
BLOCKPOINTPARAMETER
  5
590AF
330
590AE
100
AcDbEvalExpr
 90
        1
 98
       31
 99
        8
100
AcDbBlockElement
300
Point
 98
       31
 99
        8
1071
        0
100
AcDbBlockParameter
280
     1
281
     0
100
AcDbBlock1PtParameter
1010
4.0
1020
0.375
1030
0.0
 93
        2
170
     1
 91
        2
301
DisplacementX
171
     1
 92
        2
302
DisplacementY
100
AcDbBlockPointParameter
303
Position
304

1011
4.0
1021
0.375
1031
0.0
  0
BLOCKXYGRIP
  5
590B0
330
590AE
100
AcDbEvalExpr
 90
        2
 98
       31
 99
        8
100
AcDbBlockElement
300
Grip
 98
       31
 99
        8
1071
        0
100
AcDbBlockGrip
 91
        3
 92
        4
1010
4.0
1020
0.375
1030
0.0
280
     1
 93
       -1
100
AcDbBlockXYGrip
  0
BLOCKGRIPLOCATIONCOMPONENT
  5
590B1
330
590AE
100
AcDbEvalExpr
 90
        3
 98
       31
 99
        8
  1

 70
    40
140
0.0
100
AcDbBlockGripExpr
 91
        1
300
UpdatedX
  0
BLOCKGRIPLOCATIONCOMPONENT
  5
590B2
330
590AE
100
AcDbEvalExpr
 90
        4
 98
       31
 99
        8
  1

 70
    40
140
0.0
100
AcDbBlockGripExpr
 91
        1
300
UpdatedY
  0
BLOCKMOVEACTION
  5
590B3
330
590AE
100
AcDbEvalExpr
 90
        5
 98
       31
 99
        8
100
AcDbBlockElement
300
Move
 98
       31
 99
        8
1071
        4
100
AcDbBlockAction
 70
     0
 71
     0
1010
4.215701553853421
1020
0.1592984461465785
1030
0.0
100
AcDbBlockMoveAction
 92
        1
301
XDelta
 93
        1
302
YDelta
140
1.0
141
0.0
280
     0
  0
DICTIONARY
  5
59855
330
5902D
100
AcDbDictionary
280
     1
281
     1
  0
DICTIONARY
  5
5998E
330
59029
100
AcDbDictionary
280
     1
281
     1
  3
ACAD_ROUNDTRIP_2008_TABLESTYLE_CELLSTYLEMAP
360
5998F
  0
CELLSTYLEMAP
  5
5998F
102
{ACAD_REACTORS
330
5998E
102
}
330
5998E
100
AcDbCellStyleMap
 90
        3
300
CELLSTYLE
  1
TABLEFORMAT_BEGIN
 90
        5
170
     1
 91
        0
 92
    32768
 62
   257
 93
        1
300
CONTENTFORMAT
  1
CONTENTFORMAT_BEGIN
 90
        0
 91
        0
 92
        4
 93
        0
300

 40
0.0
140
1.0
 94
        5
 62
     0
340
5901D
144
0.25
309
CONTENTFORMAT_END
171
     0
 94
        6
 95
        1
302
GRIDFORMAT
  1
GRIDFORMAT_BEGIN
 90
        0
 91
        1
 62
     0
 92
       -2
340
0
 93
        0
 40
0.045
309
GRIDFORMAT_END
 95
        2
302
GRIDFORMAT
  1
GRIDFORMAT_BEGIN
 90
        0
 91
        1
 62
     0
 92
       -2
340
0
 93
        0
 40
0.045
309
GRIDFORMAT_END
 95
        4
302
GRIDFORMAT
  1
GRIDFORMAT_BEGIN
 90
        0
 91
        1
 62
     0
 92
       -2
340
0
 93
        0
 40
0.045
309
GRIDFORMAT_END
 95
        8
302
GRIDFORMAT
  1
GRIDFORMAT_BEGIN
 90
        0
 91
        1
 62
     0
 92
       -2
340
0
 93
        0
 40
0.045
309
GRIDFORMAT_END
 95
       16
302
GRIDFORMAT
  1
GRIDFORMAT_BEGIN
 90
        0
 91
        1
 62
     0
 92
       -2
340
0
 93
        0
 40
0.045
309
GRIDFORMAT_END
 95
       32
302
GRIDFORMAT
  1
GRIDFORMAT_BEGIN
 90
        0
 91
        1
 62
     0
 92
       -2
340
0
 93
        0
 40
0.045
309
GRIDFORMAT_END
309
TABLEFORMAT_END
  1
CELLSTYLE_BEGIN
 90
        1
 91
        1
300
_TITLE
309
CELLSTYLE_END
300
CELLSTYLE
  1
TABLEFORMAT_BEGIN
 90
        5
170
     1
 91
        0
 92
        0
 62
   257
 93
        1
300
CONTENTFORMAT
  1
CONTENTFORMAT_BEGIN
 90
        0
 91
        0
 92
        4
 93
        0
300

 40
0.0
140
1.0
 94
        5
 62
     0
340
5901D
144
0.18
309
CONTENTFORMAT_END
171
     0
 94
        6
 95
        1
302
GRIDFORMAT
  1
GRIDFORMAT_BEGIN
 90
        0
 91
        1
 62
     0
 92
       -2
340
0
 93
        0
 40
0.045
309
GRIDFORMAT_END
 95
        2
302
GRIDFORMAT
  1
GRIDFORMAT_BEGIN
 90
        0
 91
        1
 62
     0
 92
       -2
340
0
 93
        0
 40
0.045
309
GRIDFORMAT_END
 95
        4
302
GRIDFORMAT
  1
GRIDFORMAT_BEGIN
 90
        0
 91
        1
 62
     0
 92
       -2
340
0
 93
        0
 40
0.045
309
GRIDFORMAT_END
 95
        8
302
GRIDFORMAT
  1
GRIDFORMAT_BEGIN
 90
        0
 91
        1
 62
     0
 92
       -2
340
0
 93
        0
 40
0.045
309
GRIDFORMAT_END
 95
       16
302
GRIDFORMAT
  1
GRIDFORMAT_BEGIN
 90
        0
 91
        1
 62
     0
 92
       -2
340
0
 93
        0
 40
0.045
309
GRIDFORMAT_END
 95
       32
302
GRIDFORMAT
  1
GRIDFORMAT_BEGIN
 90
        0
 91
        1
 62
     0
 92
       -2
340
0
 93
        0
 40
0.045
309
GRIDFORMAT_END
309
TABLEFORMAT_END
  1
CELLSTYLE_BEGIN
 90
        2
 91
        1
300
_HEADER
309
CELLSTYLE_END
300
CELLSTYLE
  1
TABLEFORMAT_BEGIN
 90
        5
170
     1
 91
        0
 92
        0
 62
   257
 93
        1
300
CONTENTFORMAT
  1
CONTENTFORMAT_BEGIN
 90
        0
 91
        0
 92
        4
 93
        0
300

 40
0.0
140
1.0
 94
        2
 62
     0
340
5901D
144
0.18
309
CONTENTFORMAT_END
171
     0
 94
        6
 95
        1
302
GRIDFORMAT
  1
GRIDFORMAT_BEGIN
 90
        0
 91
        1
 62
     0
 92
       -2
340
0
 93
        0
 40
0.045
309
GRIDFORMAT_END
 95
        2
302
GRIDFORMAT
  1
GRIDFORMAT_BEGIN
 90
        0
 91
        1
 62
     0
 92
       -2
340
0
 93
        0
 40
0.045
309
GRIDFORMAT_END
 95
        4
302
GRIDFORMAT
  1
GRIDFORMAT_BEGIN
 90
        0
 91
        1
 62
     0
 92
       -2
340
0
 93
        0
 40
0.045
309
GRIDFORMAT_END
 95
        8
302
GRIDFORMAT
  1
GRIDFORMAT_BEGIN
 90
        0
 91
        1
 62
     0
 92
       -2
340
0
 93
        0
 40
0.045
309
GRIDFORMAT_END
 95
       16
302
GRIDFORMAT
  1
GRIDFORMAT_BEGIN
 90
        0
 91
        1
 62
     0
 92
       -2
340
0
 93
        0
 40
0.045
309
GRIDFORMAT_END
 95
       32
302
GRIDFORMAT
  1
GRIDFORMAT_BEGIN
 90
        0
 91
        1
 62
     0
 92
       -2
340
0
 93
        0
 40
0.045
309
GRIDFORMAT_END
309
TABLEFORMAT_END
  1
CELLSTYLE_BEGIN
 90
        3
 91
        2
300
_DATA
309
CELLSTYLE_END
  0
ENDSEC
  0
SECTION
  2
ACDSDATA
 70
     2
 71
     2
  0
ACDSSCHEMA
 90
        0
  1
AcDb_Thumbnail_Schema
  2
AcDbDs::ID
280
    10
 91
        8
  2
Thumbnail_Data
280
    15
 91
        0
101
ACDSRECORD
 95
        0
 90
        1
  2
AcDbDs::TreatedAsObjectData
280
     1
291
     1
101
ACDSRECORD
 95
        0
 90
        2
  2
AcDbDs::Legacy
280
     1
291
     1
101
ACDSRECORD
  1
AcDbDs::ID
 90
        3
  2
AcDs:Indexable
280
     1
291
     1
101
ACDSRECORD
  1
AcDbDs::ID
 90
        4
  2
AcDbDs::HandleAttribute
280
     7
282
     1
  0
ACDSSCHEMA
 90
        1
  1
AcDbDs::TreatedAsObjectDataSchema
  2
AcDbDs::TreatedAsObjectData
280
     1
 91
        0
  0
ACDSSCHEMA
 90
        2
  1
AcDbDs::LegacySchema
  2
AcDbDs::Legacy
280
     1
 91
        0
  0
ACDSSCHEMA
 90
        3
  1
AcDbDs::IndexedPropertySchema
  2
AcDs:Indexable
280
     1
 91
        0
  0
ACDSSCHEMA
 90
        4
  1
AcDbDs::HandleAttributeSchema
  2
AcDbDs::HandleAttribute
280
     7
 91
        1
284
     1
  0
ACDSRECORD
 90
        0
  2
AcDbDs::ID
280
    10
320
5902D
  2
Thumbnail_Data
280
    15
 94
     1528
310
89504E470D0A1A0A0000000D49484452000000B40000008B0803000000FF3F437800000300504C5445FFFFFF000000FFFFFF0000000000000000000000000000000000000000000000000000330000660000990000CC0000FF0033000033330033660033990033CC0033FF0066000066330066660066990066CC0066FF0099
310
000099330099660099990099CC0099FF00CC0000CC3300CC6600CC9900CCCC00CCFF00FF0000FF3300FF6600FF9900FFCC00FFFF3300003300333300663300993300CC3300FF3333003333333333663333993333CC3333FF3366003366333366663366993366CC3366FF3399003399333399663399993399CC3399FF33CC00
310
33CC3333CC6633CC9933CCCC33CCFF33FF0033FF3333FF6633FF9933FFCC33FFFF6600006600336600666600996600CC6600FF6633006633336633666633996633CC6633FF6666006666336666666666996666CC6666FF6699006699336699666699996699CC6699FF66CC0066CC3366CC6666CC9966CCCC66CCFF66FF0066
310
FF3366FF6666FF9966FFCC66FFFF9900009900339900669900999900CC9900FF9933009933339933669933999933CC9933FF9966009966339966669966999966CC9966FF9999009999339999669999999999CC9999FF99CC0099CC3399CC6699CC9999CCCC99CCFF99FF0099FF3399FF6699FF9999FFCC99FFFFCC0000CC00
310
33CC0066CC0099CC00CCCC00FFCC3300CC3333CC3366CC3399CC33CCCC33FFCC6600CC6633CC6666CC6699CC66CCCC66FFCC9900CC9933CC9966CC9999CC99CCCC99FFCCCC00CCCC33CCCC66CCCC99CCCCCCCCCCFFCCFF00CCFF33CCFF66CCFF99CCFFCCCCFFFFFF0000FF0033FF0066FF0099FF00CCFF00FFFF3300FF3333
310
FF3366FF3399FF33CCFF33FFFF6600FF6633FF6666FF6699FF66CCFF66FFFF9900FF9933FF9966FF9999FF99CCFF99FFFFCC00FFCC33FFCC66FFCC99FFCCCCFFCCFFFFFF00FFFF33FFFF66FFFF99FFFFCCFFFFFF0000000D0D0D1A1A1A2828283535354343435050505D5D5D6B6B6B787878868686939393A1A1A1AEAEAEBB
310
BBBBC9C9C9D6D6D6E4E4E4F1F1F1FFFFFF000000000000000000000000000000000000000000000000000000000000790CAC0F000002B34944415478DAEDDDC956C3300C0550FEFF33DF0F74A53D87B619ECD889AD48AE5F5116D0C3905C843C0927FC80EE783C7E206447A087A1F1443325F486260AB309FAF5D3F3A165A0
310
7B2274FB09ECD283018DFD0B88068DF4D508F4F3127F69B1C55A19DAF7FB31E8B4DF8436A9FA73CB243D94299DA647C73902FD1FD0E287BE9ABB40DBF676837F7FC02E238DCAF5B7B7AA9C78F6EE5EE8B26BBD1E98D0E7BF8726F4F0F4B0404BA0035D5DE2043AD05F80CE4E41814E2745810E343F3A86F14007DA18AD290D
310
495A955A4F4D358C2FDF4D84DE424D867E577989D06BA8D9D0BBCC2641BF2E4F874E7A3E12F4F2171B2EF42BCE84684D11F3B3E8A52DD2A1E9D263E93D2A5B246698E59DCE405A2E3B57A4CB7D78A087A025D0810E74A0037D8DAE8DD433A3D74D0E74687C131A304103F668A9A15158FE43432E4FA36FF61EA548600911B2
310
2F3CD9F4DC146918757915F4E173573BB59B727AFD4235BA7E4514A6BD4468698C752B5A86A0779BB03AAC9F469F46783C5AAE272457C931FB84C9028DFB0DF1065A398C073AD055B4E1DC63DCCA6543FB14207DD1CBE223D07E2B1724CD830D2D817646E374F1711BEDB2B0DDDAA14BA40F6B442DB9740B2D133A9F9F477A
310
8C6888445553ABBA47A0031DE84007DA072D8468BB1242616A44824E37A305DA0D8DFCCE1A8286886C7F987785C9A8F7D80A292CE87D72049A130DBF611C6969305F3D77C5B520F09F7B605B436BEE282A04DA1F9D3E23A3179DEF5A383CA4C7152D1A74B9C821C3D243D710F331FB18FDF9D010EC1F1605B7DE03A7E9A140
310
2765FE43690DD789371C9D751538DCBB6583B64D8F64F2591AFC4CD2031715E46E74C7E3266F44DAF040D78725D05EE8C62768CD846E7EF6DE7CE886C61DE8B6F9D28DBE6ED2DEA379AB561F5ABBFDAE01DD7AAEC1E8DA2902FDE568DCEB43B4C338E393BEB98E400F4513FE4B865FA664894D653AADA00000000049454E44
310
AE426082
  0
ENDSEC
  0
EOF
