  0
SECTION
  2
HEADER
  9
$ACADVER
  1
AC1018
  9
$ACADMAINTVER
 70
   104
  9
$DWGCODEPAGE
  3
ANSI_1252
  9
$CUSTOMPROPERTYTAG
  1
Manager
  9
$CUSTOMPROPERTY
  1

  9
$CUSTOMPROPERTYTAG
  1
Company
  9
$CUSTOMPROPERTY
  1

  9
$CUSTOMPROPERTYTAG
  1
Category
  9
$CUSTOMPROPERTY
  1

  9
$CUSTOMPROPERTYTAG
  1
Part Number
  9
$CUSTOMPROPERTY
  1
0093-129729
  9
$CUSTOMPROPERTYTAG
  1
Description
  9
$CUSTOMPROPERTY
  1
G20480N
  9
$CUSTOMPROPERTYTAG
  1
Project
  9
$CUSTOMPROPERTY
  1

  9
$CUSTOMPROPERTYTAG
  1
Designer
  9
$CUSTOMPROPERTY
  1

  9
$CUSTOMPROPERTYTAG
  1
Engineer
  9
$CUSTOMPROPERTY
  1

  9
$CUSTOMPROPERTYTAG
  1
Authority
  9
$CUSTOMPROPERTY
  1

  9
$CUSTOMPROPERTYTAG
  1
Cost Center
  9
$CUSTOMPROPERTY
  1

  9
$CUSTOMPROPERTYTAG
  1
Vendor
  9
$CUSTOMPROPERTY
  1

  9
$CUSTOMPROPERTYTAG
  1
User Status
  9
$CUSTOMPROPERTY
  1

  9
$CUSTOMPROPERTYTAG
  1
Design Status
  9
$CUSTOMPROPERTY
  1
WorkInProgress
  9
$CUSTOMPROPERTYTAG
  1
Checked by
  9
$CUSTOMPROPERTY
  1

  9
$CUSTOMPROPERTYTAG
  1
Engr Approved by
  9
$CUSTOMPROPERTY
  1

  9
$CUSTOMPROPERTYTAG
  1
Mfg Approved by
  9
$CUSTOMPROPERTY
  1

  9
$CUSTOMPROPERTYTAG
  1
Departement
  9
$CUSTOMPROPERTY
  1
FSI-Marketing
  9
$CUSTOMPROPERTYTAG
  1
Collection
  9
$CUSTOMPROPERTY
  1
Security Washbasin
  9
$CUSTOMPROPERTYTAG
  1
Document_Number
  9
$CUSTOMPROPERTY
  1
0093-129729
  9
$CUSTOMPROPERTYTAG
  1
Unit
  9
$CUSTOMPROPERTY
  1
mm
  9
$CUSTOMPROPERTYTAG
  1
Scale
  9
$CUSTOMPROPERTY
  1
NTS
  9
$CUSTOMPROPERTYTAG
  1
Tolerance
  9
$CUSTOMPROPERTY
  1
ISO 2768 m
  9
$CUSTOMPROPERTYTAG
  1
Drawn_By
  9
$CUSTOMPROPERTY
  1
SS136
  9
$CUSTOMPROPERTYTAG
  1
Drawn_Date
  9
$CUSTOMPROPERTY
  1
10/21/2010
  9
$CUSTOMPROPERTYTAG
  1
Modified_By
  9
$CUSTOMPROPERTY
  1

  9
$CUSTOMPROPERTYTAG
  1
Revision_Index_1
  9
$CUSTOMPROPERTY
  1

  9
$CUSTOMPROPERTYTAG
  1
Revision_By_1
  9
$CUSTOMPROPERTY
  1

  9
$CUSTOMPROPERTYTAG
  1
Revision_Memo_1
  9
$CUSTOMPROPERTY
  1

  9
$CUSTOMPROPERTYTAG
  1
Revision_Titel_1
  9
$CUSTOMPROPERTY
  1

  9
$CUSTOMPROPERTYTAG
  1
EAN
  9
$CUSTOMPROPERTY
  1
7612979003390
  9
$CUSTOMPROPERTYTAG
  1
FUN
  9
$CUSTOMPROPERTY
  1

  9
$CUSTOMPROPERTYTAG
  1
Part_number
  9
$CUSTOMPROPERTY
  1

  9
$CUSTOMPROPERTYTAG
  1
Title
  9
$CUSTOMPROPERTY
  1
G20480N
  9
$CUSTOMPROPERTYTAG
  1
Checked_By
  9
$CUSTOMPROPERTY
  1

  9
$INSBASE
 10
0.0
 20
0.0
 30
0.0
  9
$EXTMIN
 10
0.0
 20
0.0
 30
0.0
  9
$EXTMAX
 10
1680.0
 20
2376.0
 30
0.0
  9
$LIMMIN
 10
0.0
 20
0.0
  9
$LIMMAX
 10
1680.0
 20
2376.0
  9
$ORTHOMODE
 70
     0
  9
$REGENMODE
 70
     1
  9
$FILLMODE
 70
     1
  9
$QTEXTMODE
 70
     0
  9
$MIRRTEXT
 70
     0
  9
$LTSCALE
 40
8.0
  9
$ATTMODE
 70
     1
  9
$TEXTSIZE
 40
0.2
  9
$TRACEWID
 40
0.05
  9
$TEXTSTYLE
  7
Standard
  9
$CLAYER
  8
0
  9
$CELTYPE
  6
ByLayer
  9
$CECOLOR
 62
   256
  9
$CELTSCALE
 40
1.0
  9
$DISPSILH
 70
     0
  9
$DIMSCALE
 40
1.0
  9
$DIMASZ
 40
1.799999999999999
  9
$DIMEXO
 40
0.0625
  9
$DIMDLI
 40
0.38
  9
$DIMRND
 40
0.0
  9
$DIMDLE
 40
0.0
  9
$DIMEXE
 40
0.18
  9
$DIMTP
 40
0.0
  9
$DIMTM
 40
0.0
  9
$DIMTXT
 40
0.3048000037670135
  9
$DIMCEN
 40
0.09
  9
$DIMTSZ
 40
0.0
  9
$DIMTOL
 70
     0
  9
$DIMLIM
 70
     0
  9
$DIMTIH
 70
     1
  9
$DIMTOH
 70
     1
  9
$DIMSE1
 70
     0
  9
$DIMSE2
 70
     0
  9
$DIMTAD
 70
     0
  9
$DIMZIN
 70
     0
  9
$DIMBLK
  1

  9
$DIMASO
 70
     1
  9
$DIMSHO
 70
     1
  9
$DIMPOST
  1

  9
$DIMAPOST
  1

  9
$DIMALT
 70
     0
  9
$DIMALTD
 70
     2
  9
$DIMALTF
 40
25.4
  9
$DIMLFAC
 40
1.0
  9
$DIMTOFL
 70
     0
  9
$DIMTVP
 40
0.0
  9
$DIMTIX
 70
     0
  9
$DIMSOXD
 70
     0
  9
$DIMSAH
 70
     0
  9
$DIMBLK1
  1

  9
$DIMBLK2
  1

  9
$DIMSTYLE
  2
Standard
  9
$DIMCLRD
 70
     0
  9
$DIMCLRE
 70
     0
  9
$DIMCLRT
 70
     0
  9
$DIMTFAC
 40
1.0
  9
$DIMGAP
 40
0.09
  9
$DIMJUST
 70
     0
  9
$DIMSD1
 70
     0
  9
$DIMSD2
 70
     0
  9
$DIMTOLJ
 70
     1
  9
$DIMTZIN
 70
     0
  9
$DIMALTZ
 70
     0
  9
$DIMALTTZ
 70
     0
  9
$DIMUPT
 70
     0
  9
$DIMDEC
 70
     4
  9
$DIMTDEC
 70
     4
  9
$DIMALTU
 70
     2
  9
$DIMALTTD
 70
     2
  9
$DIMTXSTY
  7
Standard
  9
$DIMAUNIT
 70
     0
  9
$DIMADEC
 70
     0
  9
$DIMALTRND
 40
0.0
  9
$DIMAZIN
 70
     0
  9
$DIMDSEP
 70
    46
  9
$DIMATFIT
 70
     3
  9
$DIMFRAC
 70
     0
  9
$DIMLDRBLK
  1

  9
$DIMLUNIT
 70
     2
  9
$DIMLWD
 70
    -2
  9
$DIMLWE
 70
    -2
  9
$DIMTMOVE
 70
     0
  9
$LUNITS
 70
     2
  9
$LUPREC
 70
     4
  9
$SKETCHINC
 40
0.1
  9
$FILLETRAD
 40
0.0
  9
$AUNITS
 70
     0
  9
$AUPREC
 70
     0
  9
$MENU
  1
.
  9
$ELEVATION
 40
0.0
  9
$PELEVATION
 40
0.0
  9
$THICKNESS
 40
0.0
  9
$LIMCHECK
 70
     0
  9
$CHAMFERA
 40
0.0
  9
$CHAMFERB
 40
0.0
  9
$CHAMFERC
 40
0.0
  9
$CHAMFERD
 40
0.0
  9
$SKPOLY
 70
     0
  9
$TDCREATE
 40
2455492.462605706
  9
$TDUCREATE
 40
2455492.420939040
  9
$TDUPDATE
 40
2455492.462605706
  9
$TDUUPDATE
 40
2455492.420939040
  9
$TDINDWG
 40
0.0000215278
  9
$TDUSRTIMER
 40
0.0000215278
  9
$USRTIMER
 70
     1
  9
$ANGBASE
 50
0.0
  9
$ANGDIR
 70
     0
  9
$PDMODE
 70
     0
  9
$PDSIZE
 40
0.0
  9
$PLINEWID
 40
0.0
  9
$SPLFRAME
 70
     0
  9
$SPLINETYPE
 70
     6
  9
$SPLINESEGS
 70
     8
  9
$HANDSEED
  5
1364
  9
$SURFTAB1
 70
     6
  9
$SURFTAB2
 70
     6
  9
$SURFTYPE
 70
     6
  9
$SURFU
 70
     6
  9
$SURFV
 70
     6
  9
$UCSBASE
  2

  9
$UCSNAME
  2

  9
$UCSORG
 10
0.0
 20
0.0
 30
0.0
  9
$UCSXDIR
 10
1.0
 20
0.0
 30
0.0
  9
$UCSYDIR
 10
0.0
 20
1.0
 30
0.0
  9
$UCSORTHOREF
  2

  9
$UCSORTHOVIEW
 70
     0
  9
$UCSORGTOP
 10
0.0
 20
0.0
 30
0.0
  9
$UCSORGBOTTOM
 10
0.0
 20
0.0
 30
0.0
  9
$UCSORGLEFT
 10
0.0
 20
0.0
 30
0.0
  9
$UCSORGRIGHT
 10
0.0
 20
0.0
 30
0.0
  9
$UCSORGFRONT
 10
0.0
 20
0.0
 30
0.0
  9
$UCSORGBACK
 10
0.0
 20
0.0
 30
0.0
  9
$PUCSBASE
  2

  9
$PUCSNAME
  2

  9
$PUCSORG
 10
0.0
 20
0.0
 30
0.0
  9
$PUCSXDIR
 10
1.0
 20
0.0
 30
0.0
  9
$PUCSYDIR
 10
0.0
 20
1.0
 30
0.0
  9
$PUCSORTHOREF
  2

  9
$PUCSORTHOVIEW
 70
     0
  9
$PUCSORGTOP
 10
0.0
 20
0.0
 30
0.0
  9
$PUCSORGBOTTOM
 10
0.0
 20
0.0
 30
0.0
  9
$PUCSORGLEFT
 10
0.0
 20
0.0
 30
0.0
  9
$PUCSORGRIGHT
 10
0.0
 20
0.0
 30
0.0
  9
$PUCSORGFRONT
 10
0.0
 20
0.0
 30
0.0
  9
$PUCSORGBACK
 10
0.0
 20
0.0
 30
0.0
  9
$USERI1
 70
     0
  9
$USERI2
 70
     0
  9
$USERI3
 70
     0
  9
$USERI4
 70
     0
  9
$USERI5
 70
     0
  9
$USERR1
 40
0.0
  9
$USERR2
 40
0.0
  9
$USERR3
 40
0.0
  9
$USERR4
 40
0.0
  9
$USERR5
 40
0.0
  9
$WORLDVIEW
 70
     1
  9
$SHADEDGE
 70
     3
  9
$SHADEDIF
 70
    70
  9
$TILEMODE
 70
     1
  9
$MAXACTVP
 70
    64
  9
$PINSBASE
 10
0.0
 20
0.0
 30
0.0
  9
$PLIMCHECK
 70
     0
  9
$PEXTMIN
 10
0.0
 20
0.0
 30
0.0
  9
$PEXTMAX
 10
1680.0
 20
2376.0
 30
0.0
  9
$PLIMMIN
 10
0.0
 20
0.0
  9
$PLIMMAX
 10
1680.0
 20
2376.0
  9
$UNITMODE
 70
     0
  9
$VISRETAIN
 70
     1
  9
$PLINEGEN
 70
     0
  9
$PSLTSCALE
 70
     1
  9
$TREEDEPTH
 70
  3020
  9
$CMLSTYLE
  2
Standard
  9
$CMLJUST
 70
     0
  9
$CMLSCALE
 40
1.0
  9
$PROXYGRAPHICS
 70
     1
  9
$MEASUREMENT
 70
     1
  9
$CELWEIGHT
370
    -1
  9
$ENDCAPS
280
     0
  9
$JOINSTYLE
280
     0
  9
$LWDISPLAY
290
     0
  9
$INSUNITS
 70
     4
  9
$HYPERLINKBASE
  1

  9
$STYLESHEET
  1

  9
$XEDIT
290
     1
  9
$CEPSNTYPE
380
     0
  9
$PSTYLEMODE
290
     1
  9
$FINGERPRINTGUID
  2
{50B63316-6087-43D2-8066-37E426469C87}
  9
$VERSIONGUID
  2
{8BBEB752-31C4-43A6-BD78-48925D7BF5C2}
  9
$EXTNAMES
290
     1
  9
$PSVPSCALE
 40
0.0
  9
$OLESTARTUP
290
     0
  9
$SORTENTS
280
   127
  9
$INDEXCTL
280
     0
  9
$HIDETEXT
280
     1
  9
$XCLIPFRAME
290
     0
  9
$HALOGAP
280
     0
  9
$OBSCOLOR
 70
   257
  9
$OBSLTYPE
280
     0
  9
$INTERSECTIONDISPLAY
280
     0
  9
$INTERSECTIONCOLOR
 70
   257
  9
$DIMASSOC
280
     1
  9
$PROJECTNAME
  1

  0
ENDSEC
  0
SECTION
  2
CLASSES
  0
CLASS
  1
ACDBDICTIONARYWDFLT
  2
AcDbDictionaryWithDefault
  3
ObjectDBX Classes
 90
        0
 91
        1
280
     0
281
     0
  0
CLASS
  1
MATERIAL
  2
AcDbMaterial
  3
ObjectDBX Classes
 90
     1153
 91
        3
280
     0
281
     0
  0
CLASS
  1
VISUALSTYLE
  2
AcDbVisualStyle
  3
ObjectDBX Classes
 90
     4095
 91
       19
280
     0
281
     0
  0
CLASS
  1
SCALE
  2
AcDbScale
  3
ObjectDBX Classes
 90
     1153
 91
       33
280
     0
281
     0
  0
CLASS
  1
TABLESTYLE
  2
AcDbTableStyle
  3
ObjectDBX Classes
 90
     4095
 91
        1
280
     0
281
     0
  0
CLASS
  1
MLEADERSTYLE
  2
AcDbMLeaderStyle
  3
ACDB_MLEADERSTYLE_CLASS
 90
     4095
 91
        1
280
     0
281
     0
  0
CLASS
  1
DICTIONARYVAR
  2
AcDbDictionaryVar
  3
ObjectDBX Classes
 90
        0
 91
        8
280
     0
281
     0
  0
CLASS
  1
CELLSTYLEMAP
  2
AcDbCellStyleMap
  3
ObjectDBX Classes
 90
     1152
 91
        1
280
     0
281
     0
  0
ENDSEC
  0
SECTION
  2
TABLES
  0
TABLE
  2
VPORT
  5
8
330
0
100
AcDbSymbolTable
 70
     1
  0
VPORT
  5
62
330
8
100
AcDbSymbolTableRecord
100
AcDbViewportTableRecord
  2
*Active
 70
     0
 10
0.0
 20
0.0
 11
1.0
 21
1.0
 12
840.0
 22
1188.0
 13
0.0
 23
0.0
 14
1.0
 24
1.0
 15
0.0
 25
0.0
 16
0.0
 26
0.0
 36
1.0
 17
0.0
 27
0.0
 37
0.0
 40
2376.0
 41
0.7070707070707071
 42
50.0
 43
0.0
 44
0.0
 50
0.0
 51
0.0
 71
     0
 72
   100
 73
     1
 74
     1
 75
     0
 76
     0
 77
     0
 78
     0
281
     0
 65
     1
110
0.0
120
0.0
130
0.0
111
1.0
121
0.0
131
0.0
112
0.0
122
1.0
132
0.0
 79
     0
146
0.0
  0
ENDTAB
  0
TABLE
  2
LTYPE
  5
5
330
0
100
AcDbSymbolTable
 70
     1
  0
LTYPE
  5
66
330
5
100
AcDbSymbolTableRecord
100
AcDbLinetypeTableRecord
  2
ByBlock
 70
     0
  3

 72
    65
 73
     0
 40
0.0
  0
LTYPE
  5
67
330
5
100
AcDbSymbolTableRecord
100
AcDbLinetypeTableRecord
  2
ByLayer
 70
     0
  3

 72
    65
 73
     0
 40
0.0
  0
LTYPE
  5
68
330
5
100
AcDbSymbolTableRecord
100
AcDbLinetypeTableRecord
  2
Continuous
 70
     0
  3
Solid line
 72
    65
 73
     0
 40
0.0
  0
ENDTAB
  0
TABLE
  2
LAYER
  5
2
330
0
100
AcDbSymbolTable
 70
    83
  0
LAYER
  5
5F
330
2
100
AcDbSymbolTableRecord
100
AcDbLayerTableRecord
  2
0
 70
     0
 62
     7
  6
Continuous
370
    -3
390
F
  0
LAYER
  5
8F
330
2
100
AcDbSymbolTableRecord
100
AcDbLayerTableRecord
  2
Bemaßungen(DIN)
 70
     0
 62
     7
  6
Continuous
370
    25
390
F
  0
LAYER
  5
95
330
2
100
AcDbSymbolTableRecord
100
AcDbLayerTableRecord
  2
Centerline(ISO)
 70
     0
 62
     7
  6
Continuous
370
    25
390
F
  0
LAYER
  5
9B
330
2
100
AcDbSymbolTableRecord
100
AcDbLayerTableRecord
  2
Hatch
 70
     0
 62
     7
  6
Continuous
370
     9
390
F
  0
LAYER
  5
A2
330
2
100
AcDbSymbolTableRecord
100
AcDbLayerTableRecord
  2
MaCenterline
 70
     0
 62
     7
  6
Continuous
370
    35
390
F
  0
LAYER
  5
A5
330
2
100
AcDbSymbolTableRecord
100
AcDbLayerTableRecord
  2
MaSichtkante dünnFliese
 70
     0
 62
     7
  6
Continuous
370
    30
390
F
  0
LAYER
  5
A6
330
2
100
AcDbSymbolTableRecord
100
AcDbLayerTableRecord
  2
MaVisibleEdge
 70
     0
 62
     7
  6
Continuous
370
    50
390
F
  0
LAYER
  5
A7
330
2
100
AcDbSymbolTableRecord
100
AcDbLayerTableRecord
  2
MaVisibleEdge thinFlag
 70
     0
 62
     7
  6
Continuous
370
    30
390
F
  0
LAYER
  5
AE
330
2
100
AcDbSymbolTableRecord
100
AcDbLayerTableRecord
  2
Phantom Lines(ISO)
 70
     0
 62
     7
  6
Continuous
370
    70
390
F
  0
LAYER
  5
B6
330
2
100
AcDbSymbolTableRecord
100
AcDbLayerTableRecord
  2
Sketch Geometry(DIN)
 70
     0
 62
     7
  6
Continuous
370
    50
390
F
  0
LAYER
  5
B7
330
2
100
AcDbSymbolTableRecord
100
AcDbLayerTableRecord
  2
Sketch Geometry(ISO)
 70
     0
 62
     7
  6
Continuous
370
    50
390
F
  0
LAYER
  5
C1
330
2
100
AcDbSymbolTableRecord
100
AcDbLayerTableRecord
  2
Symbols(ISO)
 70
     0
 62
     7
  6
Continuous
370
    25
390
F
  0
LAYER
  5
C9
330
2
100
AcDbSymbolTableRecord
100
AcDbLayerTableRecord
  2
Visible Edges(DIN)
 70
     0
 62
     7
  6
Continuous
370
    50
390
F
  0
LAYER
  5
2CA
330
2
100
AcDbSymbolTableRecord
100
AcDbLayerTableRecord
  2
Defpoints
 70
     0
 62
     7
  6
Continuous
290
     0
370
    -3
390
F
  0
ENDTAB
  0
TABLE
  2
STYLE
  5
3
330
0
100
AcDbSymbolTable
 70
    24
  0
STYLE
  5
60
330
3
100
AcDbSymbolTableRecord
100
AcDbTextStyleTableRecord
  2
Standard
 70
     0
 40
0.0
 41
1.0
 50
0.0
 71
     0
 42
0.2
  3
monotxt.shx
  4

  0
STYLE
  5
65
330
3
100
AcDbSymbolTableRecord
100
AcDbTextStyleTableRecord
  2
Annotative
 70
     0
 40
0.0
 41
1.0
 50
0.0
 71
     0
 42
0.2
  3
txt
  4

1001
AcadAnnotative
1000
AnnotativeData
1002
{
1070
     1
1070
     1
1002
}
  0
STYLE
  5
D0
330
3
100
AcDbSymbolTableRecord
100
AcDbTextStyleTableRecord
  2
Current-DIN
 70
     0
 40
0.0
 41
1.0
 50
0.0
 71
     0
 42
0.2
  3
TAHOMA.TTF
  4

1001
ACAD
1000
Tahoma
1071
      256
  0
STYLE
  5
D1
330
3
100
AcDbSymbolTableRecord
100
AcDbTextStyleTableRecord
  2
Label Text (DIN)
 70
     0
 40
0.0
 41
1.0
 50
0.0
 71
     0
 42
0.2
  3
isocpeur.ttf
  4

1001
ACAD
1000
ISOCPEUR
1071
      256
  0
STYLE
  5
D2
330
3
100
AcDbSymbolTableRecord
100
AcDbTextStyleTableRecord
  2
Label Text (ISO)
 70
     0
 40
0.0
 41
1.0
 50
0.0
 71
     0
 42
0.2
  3
TAHOMA.TTF
  4

1001
ACAD
1000
Tahoma
1071
      256
  0
STYLE
  5
D3
330
3
100
AcDbSymbolTableRecord
100
AcDbTextStyleTableRecord
  2
Parts-List_2.0mm
 70
     0
 40
0.0
 41
0.899999976158142
 50
0.0
 71
     0
 42
0.2
  3
ARIAL.TTF
  4

1001
ACAD
1000
Arial
1071
      256
  0
STYLE
  5
D4
330
3
100
AcDbSymbolTableRecord
100
AcDbTextStyleTableRecord
  2
Parts-List_2.0mmByLayer
 70
     0
 40
0.0
 41
0.899999976158142
 50
0.0
 71
     0
 42
0.2
  3
ARIAL.TTF
  4

1001
ACAD
1000
Arial
1071
      256
  0
STYLE
  5
D5
330
3
100
AcDbSymbolTableRecord
100
AcDbTextStyleTableRecord
  2
Text__1.3mm
 70
     0
 40
0.0
 41
0.899999976158142
 50
0.0
 71
     0
 42
0.2
  3
ARIAL.TTF
  4

1001
ACAD
1000
Arial
1071
      256
  0
STYLE
  5
D6
330
3
100
AcDbSymbolTableRecord
100
AcDbTextStyleTableRecord
  2
Text__1.5mm
 70
     0
 40
0.0
 41
0.899999976158142
 50
0.0
 71
     0
 42
0.2
  3
ARIAL.TTF
  4

1001
ACAD
1000
Arial
1071
      256
  0
STYLE
  5
D7
330
3
100
AcDbSymbolTableRecord
100
AcDbTextStyleTableRecord
  2
Text__3.5mm
 70
     0
 40
0.0
 41
0.899999976158142
 50
0.0
 71
     0
 42
0.2
  3
ARIAL.TTF
  4

1001
ACAD
1000
Arial
1071
      256
  0
STYLE
  5
D8
330
3
100
AcDbSymbolTableRecord
100
AcDbTextStyleTableRecord
  2
Text__3.5mmBigText
 70
     0
 40
0.0
 41
0.899999976158142
 50
0.0
 71
     0
 42
0.2
  3
ARIAL.TTF
  4

1001
ACAD
1000
Arial
1071
      256
  0
STYLE
  5
D9
330
3
100
AcDbSymbolTableRecord
100
AcDbTextStyleTableRecord
  2
Text__3.5mmByLayer
 70
     0
 40
0.0
 41
0.899999976158142
 50
0.0
 71
     0
 42
0.2
  3
ARIAL.TTF
  4

1001
ACAD
1000
Arial
1071
      256
  0
STYLE
  5
DA
330
3
100
AcDbSymbolTableRecord
100
AcDbTextStyleTableRecord
  2
Text__4.0mm
 70
     0
 40
0.0
 41
0.899999976158142
 50
0.0
 71
     0
 42
0.2
  3
ARIAL.TTF
  4

1001
ACAD
1000
Arial
1071
      256
  0
STYLE
  5
DB
330
3
100
AcDbSymbolTableRecord
100
AcDbTextStyleTableRecord
  2
Text__5.0mm
 70
     0
 40
0.0
 41
0.899999976158142
 50
0.0
 71
     0
 42
0.2
  3
ARIAL.TTF
  4

1001
ACAD
1000
Arial
1071
      256
  0
STYLE
  5
DC
330
3
100
AcDbSymbolTableRecord
100
AcDbTextStyleTableRecord
  2
Text__5.0mmByLayer
 70
     0
 40
0.0
 41
0.899999976158142
 50
0.0
 71
     0
 42
0.2
  3
ARIAL.TTF
  4

1001
ACAD
1000
Arial
1071
      256
  0
STYLE
  5
DD
330
3
100
AcDbSymbolTableRecord
100
AcDbTextStyleTableRecord
  2
Text_2.5mm
 70
     0
 40
0.0
 41
0.899999976158142
 50
0.0
 71
     0
 42
0.2
  3
ARIAL.TTF
  4

1001
ACAD
1000
Arial
1071
      256
  0
STYLE
  5
DE
330
3
100
AcDbSymbolTableRecord
100
AcDbTextStyleTableRecord
  2
Text_3.5mm
 70
     0
 40
0.0
 41
0.899999976158142
 50
0.0
 71
     0
 42
0.2
  3
ARIAL.TTF
  4

1001
ACAD
1000
Arial
1071
      256
  0
STYLE
  5
DF
330
3
100
AcDbSymbolTableRecord
100
AcDbTextStyleTableRecord
  2
Text_5.0mm
 70
     0
 40
0.0
 41
0.899999976158142
 50
0.0
 71
     0
 42
0.2
  3
ARIAL.TTF
  4

1001
ACAD
1000
Arial
1071
      256
  0
STYLE
  5
E0
330
3
100
AcDbSymbolTableRecord
100
AcDbTextStyleTableRecord
  2
Text_5.0mmByLayer
 70
     0
 40
0.0
 41
0.899999976158142
 50
0.0
 71
     0
 42
0.2
  3
ARIAL.TTF
  4

1001
ACAD
1000
Arial
1071
      256
  0
STYLE
  5
105
330
3
100
AcDbSymbolTableRecord
100
AcDbTextStyleTableRecord
  2
Text Style49
 70
     0
 40
0.0
 41
0.899999976158142
 50
0.0
 71
     0
 42
0.2
  3
ARIAL.TTF
  4

1001
ACAD
1000
Arial
1071
      256
  0
STYLE
  5
244
330
3
100
AcDbSymbolTableRecord
100
AcDbTextStyleTableRecord
  2
Text Style20
 70
     0
 40
0.0
 41
1.0
 50
0.0
 71
     0
 42
0.2
  3
ARIAL.TTF
  4

1001
ACAD
1000
Arial
1071
      256
  0
STYLE
  5
246
330
3
100
AcDbSymbolTableRecord
100
AcDbTextStyleTableRecord
  2
Text Style9
 70
     0
 40
0.0
 41
1.0
 50
0.0
 71
     0
 42
0.2
  3
ARIAL.TTF
  4

1001
ACAD
1000
Arial
1071
      256
  0
STYLE
  5
249
330
3
100
AcDbSymbolTableRecord
100
AcDbTextStyleTableRecord
  2
Text Style38
 70
     0
 40
0.0
 41
1.0
 50
0.0
 71
     0
 42
0.2
  3
ARIAL.TTF
  4

1001
ACAD
1000
Arial
1071
      256
  0
STYLE
  5
24C
330
3
100
AcDbSymbolTableRecord
100
AcDbTextStyleTableRecord
  2
Text Style40
 70
     0
 40
0.0
 41
1.0
 50
0.0
 71
     0
 42
0.2
  3
ARIAL.TTF
  4

1001
ACAD
1000
Arial
1071
      256
  0
ENDTAB
  0
TABLE
  2
VIEW
  5
6
330
0
100
AcDbSymbolTable
 70
     0
  0
ENDTAB
  0
TABLE
  2
UCS
  5
7
330
0
100
AcDbSymbolTable
 70
     0
  0
ENDTAB
  0
TABLE
  2
APPID
  5
9
330
0
100
AcDbSymbolTable
 70
     4
  0
APPID
  5
61
330
9
100
AcDbSymbolTableRecord
100
AcDbRegAppTableRecord
  2
ACAD
 70
     0
  0
APPID
  5
69
330
9
100
AcDbSymbolTableRecord
100
AcDbRegAppTableRecord
  2
AcadAnnotative
 70
     0
  0
APPID
  5
109
330
9
100
AcDbSymbolTableRecord
100
AcDbRegAppTableRecord
  2
AcadAnnoPO
 70
     0
  0
APPID
  5
1363
330
9
100
AcDbSymbolTableRecord
100
AcDbRegAppTableRecord
  2
ACAD_MLEADERVER
 70
     0
  0
ENDTAB
  0
TABLE
  2
DIMSTYLE
  5
A
330
0
100
AcDbSymbolTable
 70
    17
100
AcDbDimStyleTable
 71
     2
340
E5
340
63
  0
DIMSTYLE
105
63
330
A
100
AcDbSymbolTableRecord
100
AcDbDimStyleTableRecord
  2
Standard
 70
     0
340
60
  0
DIMSTYLE
105
64
330
A
100
AcDbSymbolTableRecord
100
AcDbDimStyleTableRecord
  2
Annotative
 70
     0
340
60
1001
AcadAnnotative
1000
AnnotativeData
1002
{
1070
     1
1070
     1
1002
}
  0
DIMSTYLE
105
E1
330
A
100
AcDbSymbolTableRecord
100
AcDbDimStyleTableRecord
  2
KS-STANDARD
 70
     0
 40
8.0
 41
2.5
 42
1.499999999999999
 43
14.0
 44
2.999999999999999
 45
0.00000001
 46
10.0
 73
     0
 74
     0
 77
     1
140
3.5
143
0.03937
146
0.7142857142857144
147
0.8
171
     3
172
     1
176
     7
177
     7
178
     7
179
     1
271
     1
274
     3
284
     8
286
     8
340
DE
371
    25
372
    25
  0
DIMSTYLE
105
E2
330
A
100
AcDbSymbolTableRecord
100
AcDbDimStyleTableRecord
  2
KS-STANDARD$7
 70
     0
 40
8.0
 41
2.5
 42
1.499999999999999
 43
14.0
 44
2.999999999999999
 45
0.00000001
 46
10.0
 73
     0
 74
     0
 77
     1
140
3.5
143
0.03937
146
0.7142857142857144
147
0.8
171
     3
172
     1
176
     7
177
     7
178
     7
179
     1
271
     1
274
     3
284
     8
286
     8
340
DE
371
    25
372
    25
  0
DIMSTYLE
105
E3
330
A
100
AcDbSymbolTableRecord
100
AcDbDimStyleTableRecord
  2
KS-STANDARDBigText
 70
     0
 40
8.0
 41
5.0
 42
0.0
 43
12.0
 44
3.174999999999999
 45
0.00000001
 46
10.0
 73
     0
 74
     0
 77
     1
 78
     8
 79
     2
140
5.25
143
0.03937
146
0.4761904761904762
147
0.8
171
     3
172
     1
176
     7
177
     7
178
     7
271
     1
274
     3
278
    44
284
     8
286
     8
340
D8
371
    25
372
    25
  0
DIMSTYLE
105
E4
330
A
100
AcDbSymbolTableRecord
100
AcDbDimStyleTableRecord
  2
KS-STANDARDBigText$7
 70
     0
 40
8.0
 41
5.0
 42
0.0
 43
12.0
 44
3.174999999999999
 45
0.00000001
 46
10.0
 73
     0
 74
     0
 77
     1
 78
     8
 79
     2
140
5.25
143
0.03937
146
0.4761904761904762
147
0.8
171
     3
172
     1
176
     7
177
     7
178
     7
271
     1
274
     3
278
    44
284
     8
286
     8
340
D8
371
    25
372
    25
  0
DIMSTYLE
105
E5
102
{ACAD_REACTORS
330
2C9
330
3BA
330
4AA
330
59B
330
68D
330
777
330
871
330
95B
330
A4B
330
B37
330
C21
330
D11
330
E0F
330
F0F
330
FF9
330
10E3
330
11CD
102
}
330
A
100
AcDbSymbolTableRecord
100
AcDbDimStyleTableRecord
  2
MarketingDrawing
 70
     0
 40
8.0
 41
4.0
 42
2.0
 43
12.0
 44
2.0
 45
0.00000001
 46
10.0
 78
     8
 79
     2
140
4.0
143
0.03937
146
0.625
147
1.0
171
     3
176
     7
177
     7
178
     7
271
     0
274
     3
278
    44
284
     8
286
     8
340
DA
371
    25
372
    25
  0
DIMSTYLE
105
E6
330
A
100
AcDbSymbolTableRecord
100
AcDbDimStyleTableRecord
  2
MarketingDrawing$7
 70
     0
 40
8.0
 41
5.0
 42
2.0
 43
12.0
 44
2.0
 45
0.00000001
 46
10.0
 78
     8
 79
     2
140
4.0
143
0.03937
146
0.625
147
1.0
171
     3
176
     7
177
     7
178
     7
271
     0
274
     3
278
    44
284
     8
286
     8
340
DA
371
    25
372
    25
  0
DIMSTYLE
105
F1
330
A
100
AcDbSymbolTableRecord
100
AcDbDimStyleTableRecord
  2
Leader-Datum(DIN)
 70
     0
 40
8.0
 41
2.5
340
60
342
F2
  0
DIMSTYLE
105
F9
330
A
100
AcDbSymbolTableRecord
100
AcDbDimStyleTableRecord
  2
Leader-Datum(ISO)
 70
     0
 40
8.0
 41
2.5
340
60
342
F2
  0
DIMSTYLE
105
FA
330
A
100
AcDbSymbolTableRecord
100
AcDbDimStyleTableRecord
  2
Leader-Dot(DIN)
 70
     0
 40
8.0
 41
2.5
340
60
342
F2
  0
DIMSTYLE
105
FB
330
A
100
AcDbSymbolTableRecord
100
AcDbDimStyleTableRecord
  2
Leader-Dot(ISO)
 70
     0
 40
8.0
 41
2.5
340
60
342
F2
  0
DIMSTYLE
105
FC
330
A
100
AcDbSymbolTableRecord
100
AcDbDimStyleTableRecord
  2
Leader-Large(DIN)
 70
     0
 40
8.0
 41
5.0
340
60
342
F2
  0
DIMSTYLE
105
FD
330
A
100
AcDbSymbolTableRecord
100
AcDbDimStyleTableRecord
  2
Leader-OriginIndicator(DIN)
 70
     0
 40
8.0
 41
2.5
340
60
342
F2
  0
DIMSTYLE
105
FE
330
A
100
AcDbSymbolTableRecord
100
AcDbDimStyleTableRecord
  2
Leader-OriginIndicator(ISO)
 70
     0
 40
8.0
 41
2.5
340
60
342
F2
  0
DIMSTYLE
105
FF
330
A
100
AcDbSymbolTableRecord
100
AcDbDimStyleTableRecord
  2
Leader(DIN)
 70
     0
 40
8.0
 41
2.5
340
60
342
F2
  0
DIMSTYLE
105
100
330
A
100
AcDbSymbolTableRecord
100
AcDbDimStyleTableRecord
  2
Leader(ISO)
 70
     0
 40
8.0
 41
2.5
340
60
342
F2
  0
ENDTAB
  0
TABLE
  2
BLOCK_RECORD
  5
1
330
0
100
AcDbSymbolTable
 70
    28
  0
BLOCK_RECORD
  5
77
330
1
100
AcDbSymbolTableRecord
100
AcDbBlockTableRecord
  2
*Model_Space
340
7A
  0
BLOCK_RECORD
  5
73
330
1
100
AcDbSymbolTableRecord
100
AcDbBlockTableRecord
  2
*Paper_Space
340
76
  0
BLOCK_RECORD
  5
7B
330
1
100
AcDbSymbolTableRecord
100
AcDbBlockTableRecord
  2
*Paper_Space0
340
7E
  0
BLOCK_RECORD
  5
E7
330
1
100
AcDbSymbolTableRecord
100
AcDbBlockTableRecord
  2
DatumFilled45
340
0
  0
BLOCK_RECORD
  5
F2
330
1
100
AcDbSymbolTableRecord
100
AcDbBlockTableRecord
  2
_Closed
340
0
  0
BLOCK_RECORD
  5
101
330
1
100
AcDbSymbolTableRecord
100
AcDbBlockTableRecord
  2
Index
340
0
  0
BLOCK_RECORD
  5
10A
330
1
100
AcDbSymbolTableRecord
100
AcDbBlockTableRecord
  2
AIR
340
0
  0
BLOCK_RECORD
  5
117
330
1
100
AcDbSymbolTableRecord
100
AcDbBlockTableRecord
  2
Zertifizierungszeichnung
340
0
  0
BLOCK_RECORD
  5
11F
330
1
100
AcDbSymbolTableRecord
100
AcDbBlockTableRecord
  2
Pfeil 1_1
340
0
  0
BLOCK_RECORD
  5
131
330
1
100
AcDbSymbolTableRecord
100
AcDbBlockTableRecord
  2
TWK 1_1
340
0
  0
BLOCK_RECORD
  5
13F
330
1
100
AcDbSymbolTableRecord
100
AcDbBlockTableRecord
  2
TWW 1_1
340
0
  0
BLOCK_RECORD
  5
14F
330
1
100
AcDbSymbolTableRecord
100
AcDbBlockTableRecord
  2
Title Blocks WS-Marketing-FUN
340
0
102
{BLKREFS
331
25B
102
}
  0
BLOCK_RECORD
  5
270
330
1
100
AcDbSymbolTableRecord
100
AcDbBlockTableRecord
  2
Borders Verkauf Border_85x80
340
0
102
{BLKREFS
331
27B
102
}
  0
BLOCK_RECORD
  5
2CB
330
1
100
AcDbSymbolTableRecord
100
AcDbBlockTableRecord
  2
*D11
340
0
  0
BLOCK_RECORD
  5
3BB
330
1
100
AcDbSymbolTableRecord
100
AcDbBlockTableRecord
  2
*D12
340
0
  0
BLOCK_RECORD
  5
4AB
330
1
100
AcDbSymbolTableRecord
100
AcDbBlockTableRecord
  2
*D13
340
0
  0
BLOCK_RECORD
  5
59C
330
1
100
AcDbSymbolTableRecord
100
AcDbBlockTableRecord
  2
*D14
340
0
  0
BLOCK_RECORD
  5
68E
330
1
100
AcDbSymbolTableRecord
100
AcDbBlockTableRecord
  2
*D15
340
0
  0
BLOCK_RECORD
  5
778
330
1
100
AcDbSymbolTableRecord
100
AcDbBlockTableRecord
  2
*D16
340
0
  0
BLOCK_RECORD
  5
872
330
1
100
AcDbSymbolTableRecord
100
AcDbBlockTableRecord
  2
*D17
340
0
  0
BLOCK_RECORD
  5
95C
330
1
100
AcDbSymbolTableRecord
100
AcDbBlockTableRecord
  2
*D18
340
0
  0
BLOCK_RECORD
  5
A4C
330
1
100
AcDbSymbolTableRecord
100
AcDbBlockTableRecord
  2
*D19
340
0
  0
BLOCK_RECORD
  5
B38
330
1
100
AcDbSymbolTableRecord
100
AcDbBlockTableRecord
  2
*D20
340
0
  0
BLOCK_RECORD
  5
C22
330
1
100
AcDbSymbolTableRecord
100
AcDbBlockTableRecord
  2
*D21
340
0
  0
BLOCK_RECORD
  5
D12
330
1
100
AcDbSymbolTableRecord
100
AcDbBlockTableRecord
  2
*D22
340
0
  0
BLOCK_RECORD
  5
E10
330
1
100
AcDbSymbolTableRecord
100
AcDbBlockTableRecord
  2
*D23
340
0
  0
BLOCK_RECORD
  5
F10
330
1
100
AcDbSymbolTableRecord
100
AcDbBlockTableRecord
  2
*D24
340
0
  0
BLOCK_RECORD
  5
FFA
330
1
100
AcDbSymbolTableRecord
100
AcDbBlockTableRecord
  2
*D25
340
0
  0
BLOCK_RECORD
  5
10E4
330
1
100
AcDbSymbolTableRecord
100
AcDbBlockTableRecord
  2
*D26
340
0
  0
BLOCK_RECORD
  5
11CE
330
1
100
AcDbSymbolTableRecord
100
AcDbBlockTableRecord
  2
*D27
340
0
  0
ENDTAB
  0
ENDSEC
  0
SECTION
  2
BLOCKS
  0
BLOCK
  5
78
330
77
100
AcDbEntity
  8
0
100
AcDbBlockBegin
  2
*Model_Space
 70
     0
 10
0.0
 20
0.0
 30
0.0
  3
*Model_Space
  1

  0
ENDBLK
  5
79
330
77
100
AcDbEntity
  8
0
100
AcDbBlockEnd
  0
BLOCK
  5
74
330
73
100
AcDbEntity
 67
     1
  8
0
100
AcDbBlockBegin
  2
*Paper_Space
 70
     0
 10
0.0
 20
0.0
 30
0.0
  3
*Paper_Space
  1

  0
ENDBLK
  5
75
330
73
100
AcDbEntity
 67
     1
  8
0
100
AcDbBlockEnd
  0
BLOCK
  5
7C
330
7B
100
AcDbEntity
 67
     1
  8
0
100
AcDbBlockBegin
  2
*Paper_Space0
 70
     0
 10
0.0
 20
0.0
 30
0.0
  3
*Paper_Space0
  1

  0
ENDBLK
  5
7D
330
7B
100
AcDbEntity
 67
     1
  8
0
100
AcDbBlockEnd
  0
BLOCK
  5
E8
330
E7
100
AcDbEntity
  8
0
100
AcDbBlockBegin
  2
DatumFilled45
 70
     0
 10
0.0
 20
0.0
 30
0.0
  3
DatumFilled45
  1

  0
POLYLINE
  5
EA
330
E7
100
AcDbEntity
  8
0
 62
     0
100
AcDb2dPolyline
 66
     1
 10
0.0
 20
0.0
 30
0.0
 70
   128
  0
VERTEX
  5
EB
330
EA
100
AcDbEntity
  8
0
 62
     0
100
AcDbVertex
100
AcDb2dVertex
 10
0.0
 20
1.0
 30
0.0
  0
VERTEX
  5
EC
330
EA
100
AcDbEntity
  8
0
 62
     0
100
AcDbVertex
100
AcDb2dVertex
 10
0.0
 20
-1.0
 30
0.0
  0
VERTEX
  5
EE
330
EA
100
AcDbEntity
  8
0
 62
     0
100
AcDbVertex
100
AcDb2dVertex
 10
-1.0
 20
0.0
 30
0.0
  0
VERTEX
  5
EF
330
EA
100
AcDbEntity
  8
0
 62
     0
100
AcDbVertex
100
AcDb2dVertex
 10
0.0
 20
1.0
 30
0.0
  0
SEQEND
  5
ED
330
EA
100
AcDbEntity
  8
0
 62
     0
  0
SOLID
  5
F0
330
E7
100
AcDbEntity
  8
0
 62
     0
100
AcDbTrace
 10
0.0
 20
1.0
 30
0.0
 11
0.0
 21
-1.0
 31
0.0
 12
-1.0
 22
0.0
 32
0.0
 13
0.0
 23
1.0
 33
0.0
  0
ENDBLK
  5
E9
330
E7
100
AcDbEntity
  8
0
100
AcDbBlockEnd
  0
BLOCK
  5
F7
330
F2
100
AcDbEntity
  8
0
100
AcDbBlockBegin
  2
_Closed
 70
     0
 10
0.0
 20
0.0
 30
0.0
  3
_Closed
  1

  0
LINE
  5
F3
330
F2
100
AcDbEntity
  8
0
  6
ByBlock
 62
     0
370
    -2
100
AcDbLine
 10
-1.0
 20
0.1666666666666666
 30
0.0
 11
0.0
 21
0.0
 31
0.0
  0
LINE
  5
F4
330
F2
100
AcDbEntity
  8
0
  6
ByBlock
 62
     0
370
    -2
100
AcDbLine
 10
0.0
 20
0.0
 30
0.0
 11
-1.0
 21
-0.1666666666666666
 31
0.0
  0
LINE
  5
F5
330
F2
100
AcDbEntity
  8
0
  6
ByBlock
 62
     0
370
    -2
100
AcDbLine
 10
-1.0
 20
0.1666666666666666
 30
0.0
 11
-1.0
 21
-0.1666666666666666
 31
0.0
  0
LINE
  5
F6
330
F2
100
AcDbEntity
  8
0
  6
ByBlock
 62
     0
370
    -2
100
AcDbLine
 10
0.0
 20
0.0
 30
0.0
 11
-1.0
 21
0.0
 31
0.0
  0
ENDBLK
  5
F8
330
F2
100
AcDbEntity
  8
0
100
AcDbBlockEnd
  0
BLOCK
  5
102
330
101
100
AcDbEntity
  8
0
100
AcDbBlockBegin
  2
Index
 70
     2
 10
0.0
 20
0.0
 30
0.0
  3
Index
  1

  0
CIRCLE
  5
104
330
101
100
AcDbEntity
  8
Sketch Geometry(ISO)
  6
Continuous
 62
     7
370
    25
100
AcDbCircle
 10
0.0
 20
0.0
 30
0.0
 40
2.5
  0
ATTDEF
  5
106
102
{ACAD_XDICTIONARY
360
12C2
102
}
330
101
100
AcDbEntity
  8
Symbols(ISO)
 62
     7
100
AcDbText
 10
-0.0000000000000001
 20
-1.25
 30
0.0
 40
2.5
  1

 41
0.899999976158142
  7
Text Style49
 72
     1
 11
0.0
 21
0.0
 31
0.0
100
AcDbAttributeDefinition
  3
<Enter Prompt for Field>
  2
<Enter_Prompt_for_Field>
 70
     0
 74
     2
  0
ENDBLK
  5
103
330
101
100
AcDbEntity
  8
0
100
AcDbBlockEnd
  0
BLOCK
  5
10B
330
10A
100
AcDbEntity
  8
0
100
AcDbBlockBegin
  2
AIR
 70
     0
 10
0.0
 20
0.0
 30
0.0
  3
AIR
  1

  0
LINE
  5
10D
330
10A
100
AcDbEntity
  8
Sketch Geometry(ISO)
 62
     7
370
    70
100
AcDbLine
 10
-7.000000000000001
 20
6.000000000000049
 30
0.0
 11
6.999999999999992
 21
6.000000000000014
 31
0.0
  0
LINE
  5
10E
330
10A
100
AcDbEntity
  8
Sketch Geometry(ISO)
 62
     7
370
    70
100
AcDbLine
 10
10.00000000000001
 20
3.000000000000007
 30
0.0
 11
10.00000000000001
 21
-2.999999999999971
 31
0.0
  0
LINE
  5
10F
330
10A
100
AcDbEntity
  8
Sketch Geometry(ISO)
 62
     7
370
    70
100
AcDbLine
 10
6.999999999999992
 20
-5.999999999999978
 30
0.0
 11
-7.000000000000001
 21
-6.000000000000014
 31
0.0
  0
LINE
  5
110
330
10A
100
AcDbEntity
  8
Sketch Geometry(ISO)
 62
     7
370
    70
100
AcDbLine
 10
-10.00000000000001
 20
-2.999999999999971
 30
0.0
 11
-10.0
 21
3.000000000000007
 31
0.0
  0
ARC
  5
111
330
10A
100
AcDbEntity
  8
Sketch Geometry(ISO)
 62
     7
370
    70
100
AcDbCircle
 10
6.999999999999992
 20
3.000000000000007
 30
0.0
 40
3.0
100
AcDbArc
 50
0.0
 51
90.0
  0
ARC
  5
112
330
10A
100
AcDbEntity
  8
Sketch Geometry(ISO)
 62
     7
370
    70
100
AcDbCircle
 10
6.999999999999992
 20
-2.999999999999971
 30
0.0
 40
3.0
100
AcDbArc
 50
270.0
 51
0.0
  0
ARC
  5
113
330
10A
100
AcDbEntity
  8
Sketch Geometry(ISO)
 62
     7
370
    70
100
AcDbCircle
 10
-7.000000000000001
 20
-2.999999999999971
 30
0.0
 40
3.0
100
AcDbArc
 50
180.0
 51
270.0
  0
ARC
  5
114
330
10A
100
AcDbEntity
  8
Sketch Geometry(ISO)
 62
     7
370
    70
100
AcDbCircle
 10
-7.000000000000001
 20
3.000000000000007
 30
0.0
 40
3.0
100
AcDbArc
 50
90.0
 51
180.0
  0
MTEXT
  5
115
330
10A
100
AcDbEntity
  8
Symbols(ISO)
 62
     7
100
AcDbMText
 10
0.0
 20
0.0
 30
0.0
 40
6.99999988079071
 41
16.10195276430038
 71
     5
 72
     1
  1
\fArial|b0|i0;\H7.0000;AIR
  7
Text__3.5mm
 73
     1
 44
1.0
  0
ENDBLK
  5
10C
330
10A
100
AcDbEntity
  8
0
100
AcDbBlockEnd
  0
BLOCK
  5
118
330
117
100
AcDbEntity
  8
0
100
AcDbBlockBegin
  2
Zertifizierungszeichnung
 70
     0
 10
0.0
 20
0.0
 30
0.0
  3
Zertifizierungszeichnung
  1

  0
LINE
  5
11A
330
117
100
AcDbEntity
  8
Sketch Geometry(ISO)
100
AcDbLine
 10
-36.13491376407675
 20
6.581399957023617
 30
0.0
 11
36.13491376407676
 21
6.581399957023617
 31
0.0
  0
LINE
  5
11B
330
117
100
AcDbEntity
  8
Sketch Geometry(ISO)
100
AcDbLine
 10
36.13491376407676
 20
6.581399957023617
 30
0.0
 11
36.13491376407676
 21
-6.581399957023634
 31
0.0
  0
LINE
  5
11C
330
117
100
AcDbEntity
  8
Sketch Geometry(ISO)
100
AcDbLine
 10
36.13491376407676
 20
-6.581399957023634
 30
0.0
 11
-36.13491376407675
 21
-6.581399957023634
 31
0.0
  0
LINE
  5
11D
330
117
100
AcDbEntity
  8
Sketch Geometry(ISO)
100
AcDbLine
 10
-36.13491376407675
 20
-6.581399957023634
 30
0.0
 11
-36.13491376407675
 21
6.581399957023617
 31
0.0
  0
MTEXT
  5
11E
330
117
100
AcDbEntity
  8
Symbols(ISO)
 62
     7
100
AcDbMText
 10
-34.13997890763035
 20
-0.338671892615654
 30
0.0
 40
3.000000119209289
 41
0.0
 71
     4
 72
     1
  1
\fTahoma|b0|i0;\H3.0000;Drawing for certification purposes only!\PDrawing not for manufacturing purposes!
  7
Text__3.5mm
 73
     2
 44
0.9442214369773864
  0
ENDBLK
  5
119
330
117
100
AcDbEntity
  8
0
100
AcDbBlockEnd
  0
BLOCK
  5
120
330
11F
100
AcDbEntity
  8
0
100
AcDbBlockBegin
  2
Pfeil 1_1
 70
     0
 10
0.0
 20
0.0
 30
0.0
  3
Pfeil 1_1
  1

  0
HATCH
  5
129
330
11F
100
AcDbEntity
  8
Hatch
100
AcDbHatch
 10
0.0
 20
0.0
 30
0.0
210
0.0
220
0.0
230
1.0
  2
ANSI31
 70
     0
 71
     0
 91
        1
 92
        1
 93
        7
 72
     1
 10
-2.327499999999815
 20
0.6650000000002621
 11
0.0
 21
-2.659999999999875
 72
     1
 10
0.0
 20
-2.659999999999875
 11
2.327499999999833
 21
0.6650000000002621
 72
     1
 10
2.327499999999833
 20
0.6650000000002621
 11
0.6649999999998713
 21
0.6650000000002621
 72
     1
 10
0.6649999999998713
 20
0.6650000000002621
 11
0.6649999999998713
 21
2.659999999999858
 72
     1
 10
0.6649999999998713
 20
2.659999999999858
 11
-0.6649999999999779
 21
2.659999999999858
 72
     1
 10
-0.6649999999999779
 20
2.659999999999858
 11
-0.6649999999999779
 21
0.6650000000002621
 72
     1
 10
-0.6649999999999779
 20
0.6650000000002621
 11
-2.327499999999815
 21
0.6650000000002621
 97
        0
 75
     0
 76
     1
 52
0.0
 41
0.0254
 77
     0
 78
     1
 53
45.0
 43
0.0
 44
0.0
 45
-0.0022450640302673
 46
0.0022450640302673
 79
     0
 98
        1
 10
0.0
 20
0.0
  0
LINE
  5
12A
330
11F
100
AcDbEntity
  8
MaSichtkante dünnFliese
370
     5
100
AcDbLine
 10
-2.327499999999815
 20
0.6650000000002621
 30
0.0
 11
-0.6649999999999779
 21
0.6650000000002621
 31
0.0
  0
LINE
  5
12B
330
11F
100
AcDbEntity
  8
MaSichtkante dünnFliese
370
     5
100
AcDbLine
 10
0.0
 20
-2.659999999999875
 30
0.0
 11
-2.327499999999815
 21
0.6650000000002621
 31
0.0
  0
LINE
  5
12C
330
11F
100
AcDbEntity
  8
MaSichtkante dünnFliese
370
     5
100
AcDbLine
 10
-0.6649999999999779
 20
0.6650000000002621
 30
0.0
 11
-0.6649999999999779
 21
2.659999999999858
 31
0.0
  0
LINE
  5
12D
330
11F
100
AcDbEntity
  8
MaSichtkante dünnFliese
370
     5
100
AcDbLine
 10
-0.6649999999999779
 20
2.659999999999858
 30
0.0
 11
0.6649999999998713
 21
2.659999999999858
 31
0.0
  0
LINE
  5
12E
330
11F
100
AcDbEntity
  8
MaSichtkante dünnFliese
370
     5
100
AcDbLine
 10
0.6649999999998713
 20
2.659999999999858
 30
0.0
 11
0.6649999999998713
 21
0.6650000000002621
 31
0.0
  0
LINE
  5
12F
330
11F
100
AcDbEntity
  8
MaSichtkante dünnFliese
370
     5
100
AcDbLine
 10
2.327499999999833
 20
0.6650000000002621
 30
0.0
 11
0.0
 21
-2.659999999999875
 31
0.0
  0
LINE
  5
130
330
11F
100
AcDbEntity
  8
MaSichtkante dünnFliese
370
     5
100
AcDbLine
 10
0.6649999999998713
 20
0.6650000000002621
 30
0.0
 11
2.327499999999833
 21
0.6650000000002621
 31
0.0
  0
ENDBLK
  5
121
330
11F
100
AcDbEntity
  8
0
100
AcDbBlockEnd
  0
BLOCK
  5
132
330
131
100
AcDbEntity
  8
0
100
AcDbBlockBegin
  2
TWK 1_1
 70
     0
 10
0.0
 20
0.0
 30
0.0
  3
TWK 1_1
  1

  0
HATCH
  5
136
330
131
100
AcDbEntity
  8
Hatch
100
AcDbHatch
 10
0.0
 20
0.0
 30
0.0
210
0.0
220
0.0
230
1.0
  2
ANSI31
 70
     0
 71
     0
 91
        1
 92
        1
 93
        2
 72
     2
 10
0.0
 20
-3.324999949999316
 40
2.659999999999999
 50
148.4507563219768
 51
391.549243678031
 73
     1
 72
     1
 10
2.266827476457926
 20
-1.933204996720494
 11
-2.266827476458601
 21
-1.933204996720494
 97
        0
 75
     0
 76
     1
 52
0.0
 41
0.0254
 77
     0
 78
     1
 53
45.0
 43
0.0
 44
0.0
 45
-0.0022450640302673
 46
0.0022450640302673
 79
     0
 98
        1
 10
0.0
 20
0.0
  0
LINE
  5
137
330
131
100
AcDbEntity
  8
MaSichtkante dünnFliese
100
AcDbLine
 10
-2.266827476458601
 20
-1.933204996720494
 30
0.0
 11
2.266827476457926
 21
-1.933204996720494
 31
0.0
  0
ARC
  5
138
330
131
100
AcDbEntity
  8
MaSichtkante dünnFliese
100
AcDbCircle
 10
0.0
 20
-3.324999949999316
 30
0.0
 40
2.66
100
AcDbArc
 50
112.0243128370458
 51
67.97568716296805
  0
LINE
  5
139
330
131
100
AcDbEntity
  8
MaSichtkante dünnFliese
100
AcDbLine
 10
-0.9975000000001621
 20
-0.8591139530400582
 30
0.0
 11
-0.9975000000001621
 21
5.985000049999325
 31
0.0
  0
LINE
  5
13A
330
131
100
AcDbEntity
  8
MaSichtkante dünnFliese
100
AcDbLine
 10
0.9974999999994693
 20
5.985000049999325
 30
0.0
 11
0.9974999999994693
 21
-0.8591139530400582
 31
0.0
  0
LINE
  5
13B
330
131
100
AcDbEntity
  8
MaSichtkante dünnFliese
100
AcDbLine
 10
0.9974999999994871
 20
2.827327836441568
 30
0.0
 11
2.194499999999255
 21
2.827327836441568
 31
0.0
  0
LINE
  5
13C
330
131
100
AcDbEntity
  8
MaSichtkante dünnFliese
100
AcDbLine
 10
-0.9975000000001621
 20
5.985000049999325
 30
0.0
 11
0.9974999999994693
 21
5.985000049999325
 31
0.0
  0
LINE
  5
13D
330
131
100
AcDbEntity
  8
MaSichtkante dünnFliese
100
AcDbLine
 10
0.9974999999994693
 20
4.932451836441167
 30
0.0
 11
2.194499999999237
 21
4.932451836441167
 31
0.0
  0
LINE
  5
13E
330
131
100
AcDbEntity
  8
MaSichtkante dünnFliese
100
AcDbLine
 10
0.9974999999994693
 20
0.7222038364418637
 30
0.0
 11
2.194499999999237
 21
0.7222038364418637
 31
0.0
  0
ENDBLK
  5
133
330
131
100
AcDbEntity
  8
0
100
AcDbBlockEnd
  0
BLOCK
  5
140
330
13F
100
AcDbEntity
  8
0
100
AcDbBlockBegin
  2
TWW 1_1
 70
     0
 10
0.0
 20
0.0
 30
0.0
  3
TWW 1_1
  1

  0
HATCH
  5
146
330
13F
100
AcDbEntity
  8
Hatch
100
AcDbHatch
 10
0.0
 20
0.0
 30
0.0
210
0.0
220
0.0
230
1.0
  2
ANSI31
 70
     0
 71
     0
 91
        1
 92
        1
 93
        4
 72
     1
 10
0.9974999999997891
 20
4.796219377687265
 11
-0.997500000000091
 21
4.796219377687265
 72
     1
 10
-0.997500000000091
 20
4.796219377687265
 11
-0.997500000000091
 21
-0.8591139530402891
 72
     2
 10
0.0
 20
-3.324999950000062
 40
2.659999999999828
 50
112.0243128370404
 51
427.9756871629659
 73
     1
 72
     1
 10
0.9974999999997891
 20
-0.8591139530402891
 11
0.9974999999997891
 21
4.796219377687265
 97
        0
 75
     0
 76
     1
 52
0.0
 41
0.0254
 77
     0
 78
     1
 53
45.0
 43
0.0
 44
0.0
 45
-0.0022450640302673
 46
0.0022450640302673
 79
     0
 98
        1
 10
0.0
 20
0.0
  0
LINE
  5
147
330
13F
100
AcDbEntity
  8
MaSichtkante dünnFliese
370
    18
100
AcDbLine
 10
0.9974999999997891
 20
4.893283779707644
 30
0.0
 11
2.194499999999734
 21
4.893283779707644
 31
0.0
  0
LINE
  5
148
330
13F
100
AcDbEntity
  8
MaSichtkante dünnFliese
370
    18
100
AcDbLine
 10
0.9974999999997891
 20
0.8330332774134241
 30
0.0
 11
2.194499999999734
 21
0.8330332774134241
 31
0.0
  0
LINE
  5
149
330
13F
100
AcDbEntity
  8
MaSichtkante dünnFliese
370
    18
100
AcDbLine
 10
0.9974999999997891
 20
2.863158528560525
 30
0.0
 11
2.194499999999734
 21
2.863158528560525
 31
0.0
  0
LINE
  5
14A
330
13F
100
AcDbEntity
  8
Sketch Geometry(DIN)
370
    18
100
AcDbLine
 10
0.9974999999997891
 20
5.985000049999911
 30
0.0
 11
0.9974999999997891
 21
-0.8591139530402891
 31
0.0
  0
LINE
  5
14B
330
13F
100
AcDbEntity
  8
MaSichtkante dünnFliese
100
AcDbLine
 10
-0.997500000000091
 20
5.985000049999911
 30
0.0
 11
0.9974999999997891
 21
5.985000049999911
 31
0.0
  0
LINE
  5
14C
330
13F
100
AcDbEntity
  8
MaSichtkante dünnFliese
100
AcDbLine
 10
-0.997500000000091
 20
-0.8591139530402891
 30
0.0
 11
-0.997500000000091
 21
5.985000049999911
 31
0.0
  0
LINE
  5
14D
330
13F
100
AcDbEntity
  8
MaSichtkante dünnFliese
370
    18
100
AcDbLine
 10
-0.997500000000091
 20
4.796219377687265
 30
0.0
 11
0.9974999999997891
 21
4.796219377687265
 31
0.0
  0
ARC
  5
14E
330
13F
100
AcDbEntity
  8
MaSichtkante dünnFliese
370
    18
100
AcDbCircle
 10
0.0
 20
-3.324999950000062
 30
0.0
 40
2.659999999999829
100
AcDbArc
 50
112.0243128370402
 51
67.9756871629658
  0
ENDBLK
  5
141
330
13F
100
AcDbEntity
  8
0
100
AcDbBlockEnd
  0
BLOCK
  5
150
330
14F
100
AcDbEntity
  8
0
100
AcDbBlockBegin
  2
Title Blocks WS-Marketing-FUN
 70
     2
 10
0.0
 20
0.0
 30
0.0
  3
Title Blocks WS-Marketing-FUN
  1

  0
LINE
  5
152
330
14F
100
AcDbEntity
  8
Visible Edges(DIN)
100
AcDbLine
 10
89.59999999999997
 20
100.2741925130958
 30
0.0
 11
289.6
 21
100.2741925130958
 31
0.0
  0
LINE
  5
153
330
14F
100
AcDbEntity
  8
Visible Edges(DIN)
100
AcDbLine
 10
289.6
 20
100.2741925130958
 30
0.0
 11
289.6
 21
146.0241925130958
 31
0.0
  0
LINE
  5
154
330
14F
100
AcDbEntity
  8
Visible Edges(DIN)
100
AcDbLine
 10
289.6
 20
146.0241925130958
 30
0.0
 11
89.6
 21
146.0241925130958
 31
0.0
  0
LINE
  5
155
330
14F
100
AcDbEntity
  8
Visible Edges(DIN)
100
AcDbLine
 10
89.59999999999999
 20
146.0241925130958
 30
0.0
 11
89.59999999999997
 21
100.2741925130958
 31
0.0
  0
LINE
  5
156
330
14F
100
AcDbEntity
  8
Visible Edges(DIN)
100
AcDbLine
 10
154.6
 20
100.2741925130958
 30
0.0
 11
154.6
 21
146.0241925130958
 31
0.0
  0
LINE
  5
157
330
14F
100
AcDbEntity
  8
Visible Edges(DIN)
100
AcDbLine
 10
204.6
 20
100.2741925130958
 30
0.0
 11
204.6
 21
146.0241925130958
 31
0.0
  0
LINE
  5
158
330
14F
100
AcDbEntity
  8
Sketch Geometry(ISO)
  6
Continuous
 62
     7
370
    25
100
AcDbLine
 10
109.6
 20
131.0241925130958
 30
0.0
 11
109.6
 21
146.0241925130958
 31
0.0
  0
LINE
  5
159
330
14F
100
AcDbEntity
  8
Sketch Geometry(ISO)
  6
Continuous
 62
     7
370
    25
100
AcDbLine
 10
89.59999999999999
 20
138.5241925130958
 30
0.0
 11
154.6
 21
138.5241925130958
 31
0.0
  0
LINE
  5
15A
330
14F
100
AcDbEntity
  8
Sketch Geometry(ISO)
  6
Continuous
 62
     7
370
    25
100
AcDbLine
 10
89.59999999999999
 20
131.0241925130958
 30
0.0
 11
154.6
 21
131.0241925130958
 31
0.0
  0
LINE
  5
15B
330
14F
100
AcDbEntity
  8
Sketch Geometry(ISO)
  6
Continuous
 62
     7
370
    25
100
AcDbLine
 10
289.6
 20
110.2741925130957
 30
0.0
 11
204.6
 21
110.2741925130957
 31
0.0
  0
LINE
  5
15C
330
14F
100
AcDbEntity
  8
Sketch Geometry(ISO)
  6
Continuous
 62
     7
370
    25
100
AcDbLine
 10
216.6
 20
100.2741925130958
 30
0.0
 11
216.6
 21
110.2741925130957
 31
0.0
  0
LINE
  5
15D
330
14F
100
AcDbEntity
  8
Sketch Geometry(ISO)
  6
Continuous
 62
     7
370
    25
100
AcDbLine
 10
282.1
 20
110.2741925130957
 30
0.0
 11
282.1
 21
100.2741925130958
 31
0.0
  0
LINE
  5
15E
330
14F
100
AcDbEntity
  8
Sketch Geometry(ISO)
  6
Continuous
 62
     7
370
    25
100
AcDbLine
 10
274.6
 20
110.2741925130957
 30
0.0
 11
274.6
 21
100.2741925130958
 31
0.0
  0
LINE
  5
15F
330
14F
100
AcDbEntity
  8
Sketch Geometry(ISO)
  6
Continuous
 62
     7
370
    25
100
AcDbLine
 10
220.7048524866916
 20
143.6616925130957
 30
0.0
 11
226.2048524866916
 21
144.4616925130957
 31
0.0
  0
LINE
  5
160
330
14F
100
AcDbEntity
  8
Centerline(ISO)
  6
Continuous
 62
     7
370
    18
100
AcDbLine
 10
227.2048524866917
 20
142.4616925130957
 30
0.0
 11
219.7048524866915
 21
142.4616925130957
 31
0.0
  0
LINE
  5
161
330
14F
100
AcDbEntity
  8
Sketch Geometry(ISO)
  6
Continuous
 62
     7
370
    25
100
AcDbLine
 10
220.7048524866916
 20
143.6616925130957
 30
0.0
 11
220.7048524866916
 21
141.2616925130957
 31
0.0
  0
LINE
  5
162
330
14F
100
AcDbEntity
  8
Sketch Geometry(ISO)
  6
Continuous
 62
     7
370
    25
100
AcDbLine
 10
220.7048524866916
 20
141.2616925130957
 30
0.0
 11
226.2048524866916
 21
140.4616925130957
 31
0.0
  0
LINE
  5
163
330
14F
100
AcDbEntity
  8
Centerline(ISO)
  6
Continuous
 62
     7
370
    18
100
AcDbLine
 10
227.7048524866915
 20
142.4616925130957
 30
0.0
 11
233.7048524866915
 21
142.4616925130957
 31
0.0
  0
LINE
  5
164
330
14F
100
AcDbEntity
  8
Sketch Geometry(ISO)
  6
Continuous
 62
     7
370
    25
100
AcDbLine
 10
226.2048524866916
 20
144.4616925130957
 30
0.0
 11
226.2048524866916
 21
140.4616925130957
 31
0.0
  0
CIRCLE
  5
165
330
14F
100
AcDbEntity
  8
Sketch Geometry(ISO)
  6
Continuous
 62
     7
370
    25
100
AcDbCircle
 10
230.7048524866915
 20
142.4616925130957
 30
0.0
 40
1.199999999999999
  0
LINE
  5
166
330
14F
100
AcDbEntity
  8
Centerline(ISO)
  6
Continuous
 62
     7
370
    18
100
AcDbLine
 10
230.7048524866914
 20
145.4616925130957
 30
0.0
 11
230.7048524866914
 21
139.4616925130957
 31
0.0
  0
CIRCLE
  5
167
330
14F
100
AcDbEntity
  8
Sketch Geometry(ISO)
  6
Continuous
 62
     7
370
    25
100
AcDbCircle
 10
230.7048524866915
 20
142.4616925130957
 30
0.0
 40
2.0
  0
LINE
  5
168
330
14F
100
AcDbEntity
  8
Sketch Geometry(ISO)
  6
Continuous
 62
     7
370
    25
100
AcDbLine
 10
134.6
 20
131.0241925130958
 30
0.0
 11
134.6
 21
146.0241925130958
 31
0.0
  0
LINE
  5
169
330
14F
100
AcDbEntity
  8
Sketch Geometry(ISO)
  6
Continuous
 62
     7
370
    35
100
AcDbLine
 10
204.6
 20
138.5241925130958
 30
0.0
 11
289.6
 21
138.5241925130958
 31
0.0
  0
LINE
  5
16A
330
14F
100
AcDbEntity
  8
Sketch Geometry(ISO)
  6
Continuous
 62
     7
370
    25
100
AcDbLine
 10
204.6
 20
131.0241925130958
 30
0.0
 11
289.6
 21
131.0241925130958
 31
0.0
  0
LINE
  5
16B
330
14F
100
AcDbEntity
  8
Sketch Geometry(ISO)
  6
Continuous
 62
     7
370
    25
100
AcDbLine
 10
247.1
 20
146.0241925130957
 30
0.0
 11
247.1
 21
131.0241925130958
 31
0.0
  0
LINE
  5
16C
330
14F
100
AcDbEntity
  8
Sketch Geometry(ISO)
  6
Continuous
 62
     7
370
    25
100
AcDbLine
 10
263.6
 20
110.2741925130957
 30
0.0
 11
263.6
 21
100.2741925130958
 31
0.0
  0
LINE
  5
16D
330
14F
100
AcDbEntity
  8
Sketch Geometry(DIN)
  6
Continuous
 62
     7
370
    18
100
AcDbLine
 10
104.8419687591776
 20
126.4474596613701
 30
0.0
 11
104.708542955785
 21
126.4474596613701
 31
0.0
  0
LINE
  5
16E
330
14F
100
AcDbEntity
  8
Sketch Geometry(DIN)
  6
Continuous
 62
     7
370
    18
100
AcDbLine
 10
104.8419687591776
 20
125.9871380380973
 30
0.0
 11
104.8419687591776
 21
126.4474596613701
 31
0.0
  0
LINE
  5
16F
330
14F
100
AcDbEntity
  8
Sketch Geometry(DIN)
  6
Continuous
 62
     7
370
    18
100
AcDbLine
 10
105.032169470591
 20
126.4492027126165
 30
0.0
 11
105.032169470591
 21
125.9888377298602
 31
0.0
  0
LINE
  5
170
330
14F
100
AcDbEntity
  8
Sketch Geometry(DIN)
  6
Continuous
 62
     7
370
    18
100
AcDbLine
 10
106.9469156010504
 20
125.9888377298602
 30
0.0
 11
106.9469156010504
 21
126.6493414177054
 31
0.0
  0
LINE
  5
171
330
14F
100
AcDbEntity
  8
Sketch Geometry(DIN)
  6
Continuous
 62
     7
370
    18
100
AcDbLine
 10
105.032169470591
 20
125.9888377298602
 30
0.0
 11
106.9469156010504
 21
125.9888377298602
 31
0.0
  0
LINE
  5
172
330
14F
100
AcDbEntity
  8
Sketch Geometry(DIN)
  6
Continuous
 62
     7
370
    18
100
AcDbLine
 10
102.420185497654
 20
128.0753567911394
 30
0.0
 11
102.420185497654
 21
127.6550386275736
 31
0.0
  0
LINE
  5
173
330
14F
100
AcDbEntity
  8
Sketch Geometry(DIN)
  6
Continuous
 62
     7
370
    18
100
AcDbLine
 10
103.5743629236721
 20
128.0753567911394
 30
0.0
 11
102.420185497654
 21
128.0753567911394
 31
0.0
  0
LINE
  5
174
330
14F
100
AcDbEntity
  8
Sketch Geometry(DIN)
  6
Continuous
 62
     7
370
    18
100
AcDbLine
 10
103.4275910711816
 20
127.1946823167133
 30
0.0
 11
103.4275910711816
 21
127.6550386275736
 31
0.0
  0
LINE
  5
175
330
14F
100
AcDbEntity
  8
Sketch Geometry(DIN)
  6
Continuous
 62
     7
370
    18
100
AcDbLine
 10
103.4275910711816
 20
127.6550386275736
 30
0.0
 11
103.5743629236721
 21
127.6550386275736
 31
0.0
  0
LINE
  5
176
330
14F
100
AcDbEntity
  8
Sketch Geometry(DIN)
  6
Continuous
 62
     7
370
    18
100
AcDbLine
 10
103.5743629236721
 20
127.6550386275736
 30
0.0
 11
103.5743629236721
 21
128.0753567911394
 31
0.0
  0
LINE
  5
177
330
14F
100
AcDbEntity
  8
Sketch Geometry(DIN)
  6
Continuous
 62
     7
370
    18
100
AcDbLine
 10
103.7344894971573
 20
128.0753567911394
 30
0.0
 11
103.7344894971573
 21
127.6550386275736
 31
0.0
  0
LINE
  5
178
330
14F
100
AcDbEntity
  8
Sketch Geometry(DIN)
  6
Continuous
 62
     7
370
    18
100
AcDbLine
 10
103.8679153005499
 20
127.6550386275736
 30
0.0
 11
103.4275910711816
 21
127.1946823167133
 31
0.0
  0
LINE
  5
179
330
14F
100
AcDbEntity
  8
Sketch Geometry(DIN)
  6
Continuous
 62
     7
370
    18
100
AcDbLine
 10
103.7344894971573
 20
127.6550386275736
 30
0.0
 11
103.8679153005499
 21
127.6550386275736
 31
0.0
  0
LINE
  5
17A
330
14F
100
AcDbEntity
  8
Sketch Geometry(DIN)
  6
Continuous
 62
     7
370
    18
100
AcDbLine
 10
104.0880947590273
 20
127.1813622833059
 30
0.0
 11
104.541765037493
 21
127.6616986442773
 31
0.0
  0
LINE
  5
17B
330
14F
100
AcDbEntity
  8
Sketch Geometry(DIN)
  6
Continuous
 62
     7
370
    18
100
AcDbLine
 10
104.541765037493
 20
127.6616986442773
 30
0.0
 11
104.7152029724891
 21
127.6616986442773
 31
0.0
  0
LINE
  5
17C
330
14F
100
AcDbEntity
  8
Sketch Geometry(DIN)
  6
Continuous
 62
     7
370
    18
100
AcDbLine
 10
104.7152029724891
 20
127.6616986442773
 30
0.0
 11
104.7152029724891
 21
128.0753567911394
 31
0.0
  0
LINE
  5
17D
330
14F
100
AcDbEntity
  8
Sketch Geometry(DIN)
  6
Continuous
 62
     7
370
    18
100
AcDbLine
 10
104.7152029724891
 20
128.0753567911394
 30
0.0
 11
103.7344894971573
 21
128.0753567911394
 31
0.0
  0
LINE
  5
17E
330
14F
100
AcDbEntity
  8
Sketch Geometry(DIN)
  6
Continuous
 62
     7
370
    18
100
AcDbLine
 10
106.466544552492
 20
126.8695208761829
 30
0.0
 11
106.466544552492
 21
127.2230827785689
 31
0.0
  0
LINE
  5
17F
330
14F
100
AcDbEntity
  8
Sketch Geometry(DIN)
  6
Continuous
 62
     7
370
    18
100
AcDbLine
 10
106.5065913716826
 20
126.4492027126165
 30
0.0
 11
106.0462697484097
 21
126.4492027126165
 31
0.0
  0
LINE
  5
180
330
14F
100
AcDbEntity
  8
Sketch Geometry(DIN)
  6
Continuous
 62
     7
370
    18
100
AcDbLine
 10
106.0462697484097
 20
126.4492027126165
 30
0.0
 11
106.0462697484097
 21
126.8695208761829
 31
0.0
  0
LINE
  5
181
330
14F
100
AcDbEntity
  8
Sketch Geometry(DIN)
  6
Continuous
 62
     7
370
    18
100
AcDbLine
 10
106.0462697484097
 20
126.8695208761829
 30
0.0
 11
106.466544552492
 21
126.8695208761829
 31
0.0
  0
LINE
  5
182
330
14F
100
AcDbEntity
  8
Sketch Geometry(DIN)
  6
Continuous
 62
     7
370
    18
100
AcDbLine
 10
106.5065913716826
 20
127.4299161879484
 30
0.0
 11
106.9469156010504
 21
127.4299161879484
 31
0.0
  0
LINE
  5
183
330
14F
100
AcDbEntity
  8
Sketch Geometry(DIN)
  6
Continuous
 62
     7
370
    18
100
AcDbLine
 10
106.466544552492
 20
127.2230827785689
 30
0.0
 11
106.0462697484097
 21
127.2230827785689
 31
0.0
  0
LINE
  5
184
330
14F
100
AcDbEntity
  8
Sketch Geometry(DIN)
  6
Continuous
 62
     7
370
    18
100
AcDbLine
 10
106.5065913716826
 20
127.6500869745293
 30
0.0
 11
106.5065913716826
 21
127.4299161879484
 31
0.0
  0
LINE
  5
185
330
14F
100
AcDbEntity
  8
Sketch Geometry(DIN)
  6
Continuous
 62
     7
370
    18
100
AcDbLine
 10
106.0462697484097
 20
127.6500869745293
 30
0.0
 11
106.5065913716826
 21
127.6500869745293
 31
0.0
  0
LINE
  5
186
330
14F
100
AcDbEntity
  8
Sketch Geometry(DIN)
  6
Continuous
 62
     7
370
    18
100
AcDbLine
 10
106.0462697484097
 20
127.2230827785689
 30
0.0
 11
106.0462697484097
 21
127.6500869745293
 31
0.0
  0
LINE
  5
187
330
14F
100
AcDbEntity
  8
Sketch Geometry(DIN)
  6
Continuous
 62
     7
370
    18
100
AcDbLine
 10
105.2323081756798
 20
126.4492027126165
 30
0.0
 11
105.032169470591
 21
126.4492027126165
 31
0.0
  0
LINE
  5
188
330
14F
100
AcDbEntity
  8
Sketch Geometry(DIN)
  6
Continuous
 62
     7
370
    18
100
AcDbLine
 10
105.2323081756798
 20
127.6500869745293
 30
0.0
 11
105.2323081756798
 21
126.4492027126165
 31
0.0
  0
LINE
  5
189
330
14F
100
AcDbEntity
  8
Sketch Geometry(DIN)
  6
Continuous
 62
     7
370
    18
100
AcDbLine
 10
106.9469156010504
 20
127.4299161879484
 30
0.0
 11
106.9469156010504
 21
128.0770651547993
 31
0.0
  0
LINE
  5
18A
330
14F
100
AcDbEntity
  8
Sketch Geometry(DIN)
  6
Continuous
 62
     7
370
    18
100
AcDbLine
 10
106.9469156010504
 20
128.0770651547993
 30
0.0
 11
105.032169470591
 21
128.0770651547993
 31
0.0
  0
LINE
  5
18B
330
14F
100
AcDbEntity
  8
Sketch Geometry(DIN)
  6
Continuous
 62
     7
370
    18
100
AcDbLine
 10
105.032169470591
 20
128.0770651547993
 30
0.0
 11
105.032169470591
 21
127.6500869745293
 31
0.0
  0
LINE
  5
18C
330
14F
100
AcDbEntity
  8
Sketch Geometry(DIN)
  6
Continuous
 62
     7
370
    18
100
AcDbLine
 10
102.0646377309122
 20
124.5375774404595
 30
0.0
 11
102.0646377309122
 21
129.533943808766
 31
0.0
  0
LINE
  5
18D
330
14F
100
AcDbEntity
  8
Sketch Geometry(DIN)
  6
Continuous
 62
     7
370
    18
100
AcDbLine
 10
102.2772726392172
 20
124.5367536102683
 30
0.0
 11
107.2676023428579
 21
124.5375774404595
 31
0.0
  0
LINE
  5
18E
330
14F
100
AcDbEntity
  8
Sketch Geometry(DIN)
  6
Continuous
 62
     7
370
    18
100
AcDbLine
 10
107.2676023428579
 20
124.5375774404595
 30
0.0
 11
107.2676023428579
 21
129.533943808766
 31
0.0
  0
LINE
  5
18F
330
14F
100
AcDbEntity
  8
Sketch Geometry(DIN)
  6
Continuous
 62
     7
370
    18
100
AcDbLine
 10
107.2676023428579
 20
129.533943808766
 30
0.0
 11
102.2772726392172
 21
129.533943808766
 31
0.0
  0
LINE
  5
190
330
14F
100
AcDbEntity
  8
Sketch Geometry(DIN)
  6
Continuous
 62
     7
370
    18
100
AcDbLine
 10
104.708542955785
 20
126.4474596613701
 30
0.0
 11
104.0880947590273
 21
127.1813622833059
 31
0.0
  0
LINE
  5
191
330
14F
100
AcDbEntity
  8
Sketch Geometry(DIN)
  6
Continuous
 62
     7
370
    18
100
AcDbLine
 10
103.7344894971573
 20
125.9871380380973
 30
0.0
 11
104.8419687591776
 21
125.9871380380973
 31
0.0
  0
LINE
  5
192
330
14F
100
AcDbEntity
  8
Sketch Geometry(DIN)
  6
Continuous
 62
     7
370
    18
100
AcDbLine
 10
103.8679153005499
 20
126.4474596613701
 30
0.0
 11
103.7344894971573
 21
126.4474596613701
 31
0.0
  0
LINE
  5
193
330
14F
100
AcDbEntity
  8
Sketch Geometry(DIN)
  6
Continuous
 62
     7
370
    18
100
AcDbLine
 10
103.7344894971573
 20
126.4474596613701
 30
0.0
 11
103.7344894971573
 21
125.9871380380973
 31
0.0
  0
LINE
  5
194
330
14F
100
AcDbEntity
  8
Sketch Geometry(DIN)
  6
Continuous
 62
     7
370
    18
100
AcDbLine
 10
103.5810229403762
 20
125.9871380380973
 30
0.0
 11
103.5810229403762
 21
126.4474596613701
 31
0.0
  0
LINE
  5
195
330
14F
100
AcDbEntity
  8
Sketch Geometry(DIN)
  6
Continuous
 62
     7
370
    18
100
AcDbLine
 10
103.4275910711816
 20
126.9478367757306
 30
0.0
 11
103.8679153005499
 21
126.4474596613701
 31
0.0
  0
LINE
  5
196
330
14F
100
AcDbEntity
  8
Sketch Geometry(DIN)
  6
Continuous
 62
     7
370
    18
100
AcDbLine
 10
103.5810229403762
 20
126.4474596613701
 30
0.0
 11
103.4275910711816
 21
126.4474596613701
 31
0.0
  0
LINE
  5
197
330
14F
100
AcDbEntity
  8
Sketch Geometry(DIN)
  6
Continuous
 62
     7
370
    18
100
AcDbLine
 10
103.4275910711816
 20
126.4474596613701
 30
0.0
 11
103.4275910711816
 21
126.9478367757306
 31
0.0
  0
LINE
  5
198
330
14F
100
AcDbEntity
  8
Sketch Geometry(DIN)
  6
Continuous
 62
     7
370
    18
100
AcDbLine
 10
102.420185497654
 20
125.9871380380973
 30
0.0
 11
103.5810229403762
 21
125.9871380380973
 31
0.0
  0
LINE
  5
199
330
14F
100
AcDbEntity
  8
Sketch Geometry(DIN)
  6
Continuous
 62
     7
370
    18
100
AcDbLine
 10
102.420185497654
 20
126.4474596613701
 30
0.0
 11
102.420185497654
 21
125.9871380380973
 31
0.0
  0
LINE
  5
19A
330
14F
100
AcDbEntity
  8
Sketch Geometry(DIN)
  6
Continuous
 62
     7
370
    18
100
AcDbLine
 10
102.6403649561314
 20
126.4474596613701
 30
0.0
 11
102.420185497654
 21
126.4474596613701
 31
0.0
  0
LINE
  5
19B
330
14F
100
AcDbEntity
  8
Sketch Geometry(DIN)
  6
Continuous
 62
     7
370
    18
100
AcDbLine
 10
102.6403649561314
 20
127.6550386275736
 30
0.0
 11
102.6403649561314
 21
126.4474596613701
 31
0.0
  0
LINE
  5
19C
330
14F
100
AcDbEntity
  8
Sketch Geometry(DIN)
  6
Continuous
 62
     7
370
    18
100
AcDbLine
 10
102.2772726392172
 20
129.533943808766
 30
0.0
 11
102.2772726392172
 21
124.5367536102683
 31
0.0
  0
LINE
  5
19D
330
14F
100
AcDbEntity
  8
Sketch Geometry(DIN)
  6
Continuous
 62
     7
370
    18
100
AcDbLine
 10
102.420185497654
 20
127.6550386275736
 30
0.0
 11
102.6403649561314
 21
127.6550386275736
 31
0.0
  0
LINE
  5
19E
330
14F
100
AcDbEntity
  8
Sketch Geometry(DIN)
  6
Continuous
 62
     7
370
    18
100
AcDbLine
 10
101.0907923978064
 20
127.656746991233
 30
0.0
 11
101.2509102993947
 21
127.656746991233
 31
0.0
  0
LINE
  5
19F
330
14F
100
AcDbEntity
  8
Sketch Geometry(DIN)
  6
Continuous
 62
     7
370
    18
100
AcDbLine
 10
101.0907923978064
 20
128.0770651547993
 30
0.0
 11
101.0907923978064
 21
127.656746991233
 31
0.0
  0
LINE
  5
1A0
330
14F
100
AcDbEntity
  8
Sketch Geometry(DIN)
  6
Continuous
 62
     7
370
    18
100
AcDbLine
 10
101.6845398244714
 20
127.656746991233
 30
0.0
 11
101.9113792996529
 21
127.656746991233
 31
0.0
  0
LINE
  5
1A1
330
14F
100
AcDbEntity
  8
Sketch Geometry(DIN)
  6
Continuous
 62
     7
370
    18
100
AcDbLine
 10
101.9113792996529
 20
128.0770651547993
 30
0.0
 11
101.0907923978064
 21
128.0770651547993
 31
0.0
  0
LINE
  5
1A2
330
14F
100
AcDbEntity
  8
Sketch Geometry(DIN)
  6
Continuous
 62
     7
370
    18
100
AcDbLine
 10
101.9113792996529
 20
127.656746991233
 30
0.0
 11
101.9113792996529
 21
128.0770651547993
 31
0.0
  0
LINE
  5
1A3
330
14F
100
AcDbEntity
  8
Sketch Geometry(DIN)
  6
Continuous
 62
     7
370
    18
100
AcDbLine
 10
97.58174406558607
 20
127.6521422140591
 30
0.0
 11
97.58174406558607
 21
128.0791117224321
 31
0.0
  0
LINE
  5
1A4
330
14F
100
AcDbEntity
  8
Sketch Geometry(DIN)
  6
Continuous
 62
     7
370
    18
100
AcDbLine
 10
98.25965225020826
 20
127.6715672627784
 30
0.0
 11
98.08617962762557
 21
126.9844061643244
 31
0.0
  0
LINE
  5
1A5
330
14F
100
AcDbEntity
  8
Sketch Geometry(DIN)
  6
Continuous
 62
     7
370
    18
100
AcDbLine
 10
98.08617962762557
 20
126.9844061643244
 30
0.0
 11
98.43978488949515
 21
126.9844061643244
 31
0.0
  0
LINE
  5
1A6
330
14F
100
AcDbEntity
  8
Sketch Geometry(DIN)
  6
Continuous
 62
     7
370
    18
100
AcDbLine
 10
98.43978488949515
 20
126.9844061643244
 30
0.0
 11
98.25965225020826
 21
127.6715672627784
 31
0.0
  0
LINE
  5
1A7
330
14F
100
AcDbEntity
  8
Sketch Geometry(DIN)
  6
Continuous
 62
     7
370
    18
100
AcDbLine
 10
97.58174406558607
 20
128.0791117224321
 30
0.0
 11
99.11619283597984
 21
128.0791117224321
 31
0.0
  0
LINE
  5
1A8
330
14F
100
AcDbEntity
  8
Sketch Geometry(DIN)
  6
Continuous
 62
     7
370
    18
100
AcDbLine
 10
99.11619283597984
 20
127.6521422140591
 30
0.0
 11
98.94272021339663
 21
127.6521422140591
 31
0.0
  0
LINE
  5
1A9
330
14F
100
AcDbEntity
  8
Sketch Geometry(DIN)
  6
Continuous
 62
     7
370
    18
100
AcDbLine
 10
99.11619283597984
 20
128.0791117224321
 30
0.0
 11
99.11619283597984
 21
127.6587935588663
 31
0.0
  0
LINE
  5
1AA
330
14F
100
AcDbEntity
  8
Sketch Geometry(DIN)
  6
Continuous
 62
     7
370
    18
100
AcDbLine
 10
98.94272021339663
 20
127.6521422140591
 30
0.0
 11
99.30297682007381
 21
126.4512492802498
 31
0.0
  0
LINE
  5
1AB
330
14F
100
AcDbEntity
  8
Sketch Geometry(DIN)
  6
Continuous
 62
     7
370
    18
100
AcDbLine
 10
99.30297682007381
 20
126.4512492802498
 30
0.0
 11
99.49645550845856
 21
126.4512492802498
 31
0.0
  0
LINE
  5
1AC
330
14F
100
AcDbEntity
  8
Sketch Geometry(DIN)
  6
Continuous
 62
     7
370
    18
100
AcDbLine
 10
99.49645550845856
 20
126.4512492802498
 30
0.0
 11
99.49645550845856
 21
125.990927656977
 31
0.0
  0
LINE
  5
1AD
330
14F
100
AcDbEntity
  8
Sketch Geometry(DIN)
  6
Continuous
 62
     7
370
    18
100
AcDbLine
 10
99.49645550845856
 20
125.990927656977
 30
0.0
 11
98.36231883582909
 21
125.990927656977
 31
0.0
  0
LINE
  5
1AE
330
14F
100
AcDbEntity
  8
Sketch Geometry(DIN)
  6
Continuous
 62
     7
370
    18
100
AcDbLine
 10
98.36231883582909
 20
125.990927656977
 30
0.0
 11
98.36231883582909
 21
126.4512492802498
 31
0.0
  0
LINE
  5
1AF
330
14F
100
AcDbEntity
  8
Sketch Geometry(DIN)
  6
Continuous
 62
     7
370
    18
100
AcDbLine
 10
98.36231883582909
 20
126.4512492802498
 30
0.0
 11
98.56910888572512
 21
126.4512492802498
 31
0.0
  0
LINE
  5
1B0
330
14F
100
AcDbEntity
  8
Sketch Geometry(DIN)
  6
Continuous
 62
     7
370
    18
100
AcDbLine
 10
98.52241072172734
 20
126.6447279686345
 30
0.0
 11
98.00202754156533
 21
126.6447279686345
 31
0.0
  0
LINE
  5
1B1
330
14F
100
AcDbEntity
  8
Sketch Geometry(DIN)
  6
Continuous
 62
     7
370
    18
100
AcDbLine
 10
98.56910888572512
 20
126.4512492802498
 30
0.0
 11
98.52241072172734
 21
126.6447279686345
 31
0.0
  0
LINE
  5
1B2
330
14F
100
AcDbEntity
  8
Sketch Geometry(DIN)
  6
Continuous
 62
     7
370
    18
100
AcDbLine
 10
98.00202754156533
 20
126.6447279686345
 30
0.0
 11
97.94200067226325
 21
126.4512492802498
 31
0.0
  0
LINE
  5
1B3
330
14F
100
AcDbEntity
  8
Sketch Geometry(DIN)
  6
Continuous
 62
     7
370
    18
100
AcDbLine
 10
97.94200067226325
 20
126.4512492802498
 30
0.0
 11
98.12879332825378
 21
126.4512492802498
 31
0.0
  0
LINE
  5
1B4
330
14F
100
AcDbEntity
  8
Sketch Geometry(DIN)
  6
Continuous
 62
     7
370
    18
100
AcDbLine
 10
98.12879332825378
 20
126.4512492802498
 30
0.0
 11
98.12879332825378
 21
125.990927656977
 31
0.0
  0
LINE
  5
1B5
330
14F
100
AcDbEntity
  8
Sketch Geometry(DIN)
  6
Continuous
 62
     7
370
    18
100
AcDbLine
 10
97.36822462381239
 20
126.4512492802498
 30
0.0
 11
97.74852198387851
 21
127.6521422140591
 31
0.0
  0
LINE
  5
1B6
330
14F
100
AcDbEntity
  8
Sketch Geometry(DIN)
  6
Continuous
 62
     7
370
    18
100
AcDbLine
 10
97.22814747561304
 20
126.4512492802498
 30
0.0
 11
97.36822462381239
 21
126.4512492802498
 31
0.0
  0
LINE
  5
1B7
330
14F
100
AcDbEntity
  8
Sketch Geometry(DIN)
  6
Continuous
 62
     7
370
    18
100
AcDbLine
 10
98.12879332825378
 20
125.990927656977
 30
0.0
 11
97.22814747561304
 21
125.990927656977
 31
0.0
  0
LINE
  5
1B8
330
14F
100
AcDbEntity
  8
Sketch Geometry(DIN)
  6
Continuous
 62
     7
370
    18
100
AcDbLine
 10
97.22814747561304
 20
125.990927656977
 30
0.0
 11
97.22814747561304
 21
126.4512492802498
 31
0.0
  0
LINE
  5
1B9
330
14F
100
AcDbEntity
  8
Sketch Geometry(DIN)
  6
Continuous
 62
     7
370
    18
100
AcDbLine
 10
97.74852198387851
 20
127.6521422140591
 30
0.0
 11
97.58174406558607
 21
127.6521422140591
 31
0.0
  0
LINE
  5
1BA
330
14F
100
AcDbEntity
  8
Sketch Geometry(DIN)
  6
Continuous
 62
     7
370
    18
100
AcDbLine
 10
101.0707863320044
 20
125.9888377298602
 30
0.0
 11
101.6845398244714
 21
125.9888377298602
 31
0.0
  0
LINE
  5
1BB
330
14F
100
AcDbEntity
  8
Sketch Geometry(DIN)
  6
Continuous
 62
     7
370
    18
100
AcDbLine
 10
100.5036963159481
 20
125.9888377298602
 30
0.0
 11
100.5036963159481
 21
126.4492027126165
 31
0.0
  0
LINE
  5
1BC
330
14F
100
AcDbEntity
  8
Sketch Geometry(DIN)
  6
Continuous
 62
     7
370
    18
100
AcDbLine
 10
100.5036963159481
 20
126.4492027126165
 30
0.0
 11
100.330223693365
 21
126.4492027126165
 31
0.0
  0
LINE
  5
1BD
330
14F
100
AcDbEntity
  8
Sketch Geometry(DIN)
  6
Continuous
 62
     7
370
    18
100
AcDbLine
 10
99.64972261161467
 20
125.9888377298602
 30
0.0
 11
100.5036963159481
 21
125.9888377298602
 31
0.0
  0
LINE
  5
1BE
330
14F
100
AcDbEntity
  8
Sketch Geometry(DIN)
  6
Continuous
 62
     7
370
    18
100
AcDbLine
 10
99.85654734909727
 20
126.4492027126165
 30
0.0
 11
99.64972261161467
 21
126.4492027126165
 31
0.0
  0
LINE
  5
1BF
330
14F
100
AcDbEntity
  8
Sketch Geometry(DIN)
  6
Continuous
 62
     7
370
    18
100
AcDbLine
 10
99.64972261161467
 20
126.4492027126165
 30
0.0
 11
99.64972261161467
 21
125.9888377298602
 31
0.0
  0
LINE
  5
1C0
330
14F
100
AcDbEntity
  8
Sketch Geometry(DIN)
  6
Continuous
 62
     7
370
    18
100
AcDbLine
 10
101.6845398244714
 20
125.9888377298602
 30
0.0
 11
101.6845398244714
 21
127.656746991233
 31
0.0
  0
LINE
  5
1C1
330
14F
100
AcDbEntity
  8
Sketch Geometry(DIN)
  6
Continuous
 62
     7
370
    18
100
AcDbLine
 10
100.330223693365
 20
126.4492027126165
 30
0.0
 11
100.330223693365
 21
127.2364374995637
 31
0.0
  0
LINE
  5
1C2
330
14F
100
AcDbEntity
  8
Sketch Geometry(DIN)
  6
Continuous
 62
     7
370
    18
100
AcDbLine
 10
100.330223693365
 20
127.2364374995637
 30
0.0
 11
101.0707863320044
 21
125.9888377298602
 31
0.0
  0
LINE
  5
1C3
330
14F
100
AcDbEntity
  8
Sketch Geometry(DIN)
  6
Continuous
 62
     7
370
    18
100
AcDbLine
 10
101.2509102993947
 20
127.656746991233
 30
0.0
 11
101.2509102993947
 21
126.9762459094827
 31
0.0
  0
LINE
  5
1C4
330
14F
100
AcDbEntity
  8
Sketch Geometry(DIN)
  6
Continuous
 62
     7
370
    18
100
AcDbLine
 10
99.85654734909727
 20
127.656746991233
 30
0.0
 11
99.85654734909727
 21
126.4492027126165
 31
0.0
  0
LINE
  5
1C5
330
14F
100
AcDbEntity
  8
Sketch Geometry(DIN)
  6
Continuous
 62
     7
370
    18
100
AcDbLine
 10
101.2509102993947
 20
126.9762459094827
 30
0.0
 11
100.5904152834459
 21
128.0770651547993
 31
0.0
  0
LINE
  5
1C6
330
14F
100
AcDbEntity
  8
Sketch Geometry(DIN)
  6
Continuous
 62
     7
370
    18
100
AcDbLine
 10
99.64972261161467
 20
127.656746991233
 30
0.0
 11
99.85654734909727
 21
127.656746991233
 31
0.0
  0
LINE
  5
1C7
330
14F
100
AcDbEntity
  8
Sketch Geometry(DIN)
  6
Continuous
 62
     7
370
    18
100
AcDbLine
 10
100.5904152834459
 20
128.0770651547993
 30
0.0
 11
99.64972261161467
 21
128.0770651547993
 31
0.0
  0
LINE
  5
1C8
330
14F
100
AcDbEntity
  8
Sketch Geometry(DIN)
  6
Continuous
 62
     7
370
    18
100
AcDbLine
 10
99.64972261161467
 20
128.0770651547993
 30
0.0
 11
99.64972261161467
 21
127.656746991233
 31
0.0
  0
LINE
  5
1C9
330
14F
100
AcDbEntity
  8
Sketch Geometry(DIN)
  6
Continuous
 62
     7
370
    18
100
AcDbLine
 10
99.11619283597984
 20
127.6587935588663
 30
0.0
 11
99.11619283597984
 21
127.6521422140591
 31
0.0
  0
LINE
  5
1CA
330
14F
100
AcDbEntity
  8
Sketch Geometry(DIN)
  6
Continuous
 62
     7
370
    18
100
AcDbLine
 10
97.0742993553746
 20
124.5375774404595
 30
0.0
 11
102.0646377309122
 21
124.5375774404595
 31
0.0
  0
LINE
  5
1CB
330
14F
100
AcDbEntity
  8
Sketch Geometry(DIN)
  6
Continuous
 62
     7
370
    18
100
AcDbLine
 10
97.0742993553746
 20
129.533943808766
 30
0.0
 11
97.0742993553746
 21
124.5375774404595
 31
0.0
  0
LINE
  5
1CC
330
14F
100
AcDbEntity
  8
Sketch Geometry(DIN)
  6
Continuous
 62
     7
370
    18
100
AcDbLine
 10
102.0646377309122
 20
129.533943808766
 30
0.0
 11
97.0742993553746
 21
129.533943808766
 31
0.0
  0
LINE
  5
1CD
330
14F
100
AcDbEntity
  8
Sketch Geometry(DIN)
  6
Continuous
 62
     7
370
    18
100
AcDbLine
 10
96.56334252697977
 20
127.3913696068958
 30
0.0
 11
96.55003116546891
 21
127.3313167219032
 31
0.0
  0
LINE
  5
1CE
330
14F
100
AcDbEntity
  8
Sketch Geometry(DIN)
  6
Continuous
 62
     7
370
    18
100
AcDbLine
 10
96.55003116546891
 20
127.3313167219032
 30
0.0
 11
96.52999041207989
 21
127.2779498693052
 31
0.0
  0
LINE
  5
1CF
330
14F
100
AcDbEntity
  8
Sketch Geometry(DIN)
  6
Continuous
 62
     7
370
    18
100
AcDbLine
 10
96.52999041207989
 20
127.2779498693052
 30
0.0
 11
96.50332432957416
 21
127.2178969843126
 31
0.0
  0
LINE
  5
1D0
330
14F
100
AcDbEntity
  8
Sketch Geometry(DIN)
  6
Continuous
 62
     7
370
    18
100
AcDbLine
 10
96.46996354277778
 20
127.1711901484184
 30
0.0
 11
96.42991672358721
 21
127.1245180001106
 31
0.0
  0
LINE
  5
1D1
330
14F
100
AcDbEntity
  8
Sketch Geometry(DIN)
  6
Continuous
 62
     7
370
    18
100
AcDbLine
 10
96.42991672358721
 20
127.1245180001106
 30
0.0
 11
96.38990459198366
 21
127.0778111642164
 31
0.0
  0
LINE
  5
1D2
330
14F
100
AcDbEntity
  8
Sketch Geometry(DIN)
  6
Continuous
 62
     7
370
    18
100
AcDbLine
 10
96.38990459198366
 20
127.0778111642164
 30
0.0
 11
96.34319775608933
 21
127.0444590493165
 31
0.0
  0
LINE
  5
1D3
330
14F
100
AcDbEntity
  8
Sketch Geometry(DIN)
  6
Continuous
 62
     7
370
    18
100
AcDbLine
 10
96.34319775608933
 20
127.0444590493165
 30
0.0
 11
96.28983957538782
 21
127.0177582792238
 31
0.0
  0
LINE
  5
1D4
330
14F
100
AcDbEntity
  8
Sketch Geometry(DIN)
  6
Continuous
 62
     7
370
    18
100
AcDbLine
 10
96.28983957538782
 20
127.0177582792238
 30
0.0
 11
96.2631388052952
 21
126.9844061643244
 31
0.0
  0
LINE
  5
1D5
330
14F
100
AcDbEntity
  8
Sketch Geometry(DIN)
  6
Continuous
 62
     7
370
    18
100
AcDbLine
 10
96.50332432957416
 20
127.2178969843126
 30
0.0
 11
96.46996354277778
 21
127.1711901484184
 31
0.0
  0
LINE
  5
1D6
330
14F
100
AcDbEntity
  8
Sketch Geometry(DIN)
  6
Continuous
 62
     7
370
    18
100
AcDbLine
 10
96.50332432957416
 20
126.4440169183604
 30
0.0
 11
96.70346303466747
 21
126.4440169183604
 31
0.0
  0
LINE
  5
1D7
330
14F
100
AcDbEntity
  8
Sketch Geometry(DIN)
  6
Continuous
 62
     7
370
    18
100
AcDbLine
 10
96.2631388052952
 20
126.9844061643244
 30
0.0
 11
96.50332432957416
 21
126.4440169183604
 31
0.0
  0
LINE
  5
1D8
330
14F
100
AcDbEntity
  8
Sketch Geometry(DIN)
  6
Continuous
 62
     7
370
    18
100
AcDbLine
 10
96.70346303466747
 20
126.4440169183604
 30
0.0
 11
96.70346303466775
 21
125.9836519356054
 31
0.0
  0
LINE
  5
1D9
330
14F
100
AcDbEntity
  8
Sketch Geometry(DIN)
  6
Continuous
 62
     7
370
    18
100
AcDbLine
 10
96.70346303466775
 20
125.9836519356054
 30
0.0
 11
95.96959510031894
 21
125.9836519356054
 31
0.0
  0
LINE
  5
1DA
330
14F
100
AcDbEntity
  8
Sketch Geometry(DIN)
  6
Continuous
 62
     7
370
    18
100
AcDbLine
 10
96.12302696951054
 20
128.0652106719415
 30
0.0
 11
96.18307985450318
 21
128.0385185737453
 31
0.0
  0
LINE
  5
1DB
330
14F
100
AcDbEntity
  8
Sketch Geometry(DIN)
  6
Continuous
 62
     7
370
    18
100
AcDbLine
 10
96.0029472152188
 20
128.0718706886462
 30
0.0
 11
96.0630001002108
 21
128.0718706886462
 31
0.0
  0
LINE
  5
1DC
330
14F
100
AcDbEntity
  8
Sketch Geometry(DIN)
  6
Continuous
 62
     7
370
    18
100
AcDbLine
 10
96.0630001002108
 20
128.0718706886462
 30
0.0
 11
96.12302696951054
 21
128.0652106719415
 31
0.0
  0
LINE
  5
1DD
330
14F
100
AcDbEntity
  8
Sketch Geometry(DIN)
  6
Continuous
 62
     7
370
    18
100
AcDbLine
 10
95.74951970459785
 20
127.5380373966253
 30
0.0
 11
95.73616498360301
 21
127.5580781500138
 31
0.0
  0
LINE
  5
1DE
330
14F
100
AcDbEntity
  8
Sketch Geometry(DIN)
  6
Continuous
 62
     7
370
    18
100
AcDbLine
 10
91.85580337634981
 20
129.533943808766
 30
0.0
 11
91.85580337634981
 21
124.5375774404595
 31
0.0
  0
LINE
  5
1DF
330
14F
100
AcDbEntity
  8
Sketch Geometry(DIN)
  6
Continuous
 62
     7
370
    18
100
AcDbLine
 10
91.85580337634981
 20
124.5375774404595
 30
0.0
 11
96.85282778428158
 21
124.5375774404595
 31
0.0
  0
LINE
  5
1E0
330
14F
100
AcDbEntity
  8
Sketch Geometry(DIN)
  6
Continuous
 62
     7
370
    18
100
AcDbLine
 10
96.85282778428158
 20
124.5375774404595
 30
0.0
 11
96.85282778428158
 21
129.533943808766
 31
0.0
  0
LINE
  5
1E1
330
14F
100
AcDbEntity
  8
Sketch Geometry(DIN)
  6
Continuous
 62
     7
370
    18
100
AcDbLine
 10
96.85282778428158
 20
129.533943808766
 30
0.0
 11
91.85580337634981
 21
129.533943808766
 31
0.0
  0
LINE
  5
1E2
330
14F
100
AcDbEntity
  8
Sketch Geometry(DIN)
  6
Continuous
 62
     7
370
    18
100
AcDbLine
 10
94.51517059313244
 20
127.6515611969787
 30
0.0
 11
94.29502582224202
 21
127.6515611969787
 31
0.0
  0
LINE
  5
1E3
330
14F
100
AcDbEntity
  8
Sketch Geometry(DIN)
  6
Continuous
 62
     7
370
    18
100
AcDbLine
 10
94.29502582224202
 20
127.6515611969787
 30
0.0
 11
94.29502582224202
 21
128.0718706886462
 31
0.0
  0
LINE
  5
1E4
330
14F
100
AcDbEntity
  8
Sketch Geometry(DIN)
  6
Continuous
 62
     7
370
    18
100
AcDbLine
 10
94.29502582224202
 20
128.0718706886462
 30
0.0
 11
96.0029472152188
 21
128.0718706886462
 31
0.0
  0
LINE
  5
1E5
330
14F
100
AcDbEntity
  8
Sketch Geometry(DIN)
  6
Continuous
 62
     7
370
    18
100
AcDbLine
 10
95.75617104940505
 20
127.5180313308232
 30
0.0
 11
95.74951970459785
 21
127.5380373966253
 31
0.0
  0
LINE
  5
1E6
330
14F
100
AcDbEntity
  8
Sketch Geometry(DIN)
  6
Continuous
 62
     7
370
    18
100
AcDbLine
 10
95.63609996700732
 20
127.65814316661
 30
0.0
 11
95.61609390120526
 21
127.6648031833137
 31
0.0
  0
LINE
  5
1E7
330
14F
100
AcDbEntity
  8
Sketch Geometry(DIN)
  6
Continuous
 62
     7
370
    18
100
AcDbLine
 10
95.73616498360301
 20
127.5580781500138
 30
0.0
 11
95.72951363879589
 21
127.5780842158158
 31
0.0
  0
LINE
  5
1E8
330
14F
100
AcDbEntity
  8
Sketch Geometry(DIN)
  6
Continuous
 62
     7
370
    18
100
AcDbLine
 10
95.72951363879589
 20
127.5780842158158
 30
0.0
 11
95.7094989010973
 21
127.5980902816174
 31
0.0
  0
LINE
  5
1E9
330
14F
100
AcDbEntity
  8
Sketch Geometry(DIN)
  6
Continuous
 62
     7
370
    18
100
AcDbLine
 10
95.67614678619788
 20
127.638137100808
 30
0.0
 11
95.66280073710002
 21
127.6447971175117
 31
0.0
  0
LINE
  5
1EA
330
14F
100
AcDbEntity
  8
Sketch Geometry(DIN)
  6
Continuous
 62
     7
370
    18
100
AcDbLine
 10
95.7094989010973
 20
127.5980902816174
 30
0.0
 11
95.69615285199944
 21
127.6180963474194
 31
0.0
  0
LINE
  5
1EB
330
14F
100
AcDbEntity
  8
Sketch Geometry(DIN)
  6
Continuous
 62
     7
370
    18
100
AcDbLine
 10
95.69615285199944
 20
127.6180963474194
 30
0.0
 11
95.67614678619788
 21
127.638137100808
 31
0.0
  0
LINE
  5
1EC
330
14F
100
AcDbEntity
  8
Sketch Geometry(DIN)
  6
Continuous
 62
     7
370
    18
100
AcDbLine
 10
105.032169470591
 20
127.6500869745293
 30
0.0
 11
105.2323081756798
 21
127.6500869745293
 31
0.0
  0
LINE
  5
1ED
330
14F
100
AcDbEntity
  8
Sketch Geometry(DIN)
  6
Continuous
 62
     7
370
    18
100
AcDbLine
 10
96.18307985450318
 20
128.0385185737453
 30
0.0
 11
96.22978669039742
 21
128.0185125079437
 31
0.0
  0
LINE
  5
1EE
330
14F
100
AcDbEntity
  8
Sketch Geometry(DIN)
  6
Continuous
 62
     7
370
    18
100
AcDbLine
 10
96.22978669039742
 20
128.0185125079437
 30
0.0
 11
96.28983957538967
 21
127.9918117378511
 31
0.0
  0
LINE
  5
1EF
330
14F
100
AcDbEntity
  8
Sketch Geometry(DIN)
  6
Continuous
 62
     7
370
    18
100
AcDbLine
 10
96.28983957538967
 20
127.9918117378511
 30
0.0
 11
96.32985170699658
 21
127.9584509510524
 31
0.0
  0
LINE
  5
1F0
330
14F
100
AcDbEntity
  8
Sketch Geometry(DIN)
  6
Continuous
 62
     7
370
    18
100
AcDbLine
 10
96.32985170699658
 20
127.9584509510524
 30
0.0
 11
96.38320988769462
 21
127.9317588528585
 31
0.0
  0
LINE
  5
1F1
330
14F
100
AcDbEntity
  8
Sketch Geometry(DIN)
  6
Continuous
 62
     7
370
    18
100
AcDbLine
 10
96.38320988769462
 20
127.9317588528585
 30
0.0
 11
96.42326537878004
 21
127.8917467212558
 31
0.0
  0
LINE
  5
1F2
330
14F
100
AcDbEntity
  8
Sketch Geometry(DIN)
  6
Continuous
 62
     7
370
    18
100
AcDbLine
 10
96.42326537878004
 20
127.8917467212558
 30
0.0
 11
96.46327751038359
 21
127.8383798686578
 31
0.0
  0
LINE
  5
1F3
330
14F
100
AcDbEntity
  8
Sketch Geometry(DIN)
  6
Continuous
 62
     7
370
    18
100
AcDbLine
 10
96.5700372312704
 20
127.4514224918879
 30
0.0
 11
96.56334252697977
 21
127.3913696068958
 31
0.0
  0
LINE
  5
1F4
330
14F
100
AcDbEntity
  8
Sketch Geometry(DIN)
  6
Continuous
 62
     7
370
    18
100
AcDbLine
 10
96.57003723127045
 20
127.5114406892935
 30
0.0
 11
96.5700372312704
 21
127.4514224918879
 31
0.0
  0
LINE
  5
1F5
330
14F
100
AcDbEntity
  8
Sketch Geometry(DIN)
  6
Continuous
 62
     7
370
    18
100
AcDbLine
 10
96.57003723127047
 20
127.5714935742857
 30
0.0
 11
96.57003723127045
 21
127.5114406892935
 31
0.0
  0
LINE
  5
1F6
330
14F
100
AcDbEntity
  8
Sketch Geometry(DIN)
  6
Continuous
 62
     7
370
    18
100
AcDbLine
 10
96.56334252697977
 20
127.6315551311748
 30
0.0
 11
96.57003723127047
 21
127.5714935742857
 31
0.0
  0
LINE
  5
1F7
330
14F
100
AcDbEntity
  8
Sketch Geometry(DIN)
  6
Continuous
 62
     7
370
    18
100
AcDbLine
 10
96.54333646117775
 20
127.6916080161674
 30
0.0
 11
96.56334252697977
 21
127.6315551311748
 31
0.0
  0
LINE
  5
1F8
330
14F
100
AcDbEntity
  8
Sketch Geometry(DIN)
  6
Continuous
 62
     7
370
    18
100
AcDbLine
 10
96.52333039537621
 20
127.7382801644747
 30
0.0
 11
96.54333646117775
 21
127.6916080161674
 31
0.0
  0
LINE
  5
1F9
330
14F
100
AcDbEntity
  8
Sketch Geometry(DIN)
  6
Continuous
 62
     7
370
    18
100
AcDbLine
 10
96.48996960857983
 20
127.7916730327631
 30
0.0
 11
96.52333039537621
 21
127.7382801644747
 31
0.0
  0
LINE
  5
1FA
330
14F
100
AcDbEntity
  8
Sketch Geometry(DIN)
  6
Continuous
 62
     7
370
    18
100
AcDbLine
 10
96.46327751038359
 20
127.8383798686578
 30
0.0
 11
96.48996960857983
 21
127.7916730327631
 31
0.0
  0
LINE
  5
1FB
330
14F
100
AcDbEntity
  8
Sketch Geometry(DIN)
  6
Continuous
 62
     7
370
    18
100
AcDbLine
 10
93.22251164791238
 20
126.4511799050758
 30
0.0
 11
93.22251164791238
 21
126.864838051938
 31
0.0
  0
LINE
  5
1FC
330
14F
100
AcDbEntity
  8
Sketch Geometry(DIN)
  6
Continuous
 62
     7
370
    18
100
AcDbLine
 10
93.40264428719919
 20
126.4511799050758
 30
0.0
 11
93.22251164791238
 21
126.4511799050758
 31
0.0
  0
LINE
  5
1FD
330
14F
100
AcDbEntity
  8
Sketch Geometry(DIN)
  6
Continuous
 62
     7
370
    18
100
AcDbLine
 10
92.3685726311659
 20
127.6520728388851
 30
0.0
 11
92.3685726311659
 21
126.4511799050758
 31
0.0
  0
LINE
  5
1FE
330
14F
100
AcDbEntity
  8
Sketch Geometry(DIN)
  6
Continuous
 62
     7
370
    18
100
AcDbLine
 10
92.16839923849006
 20
127.6520728388851
 30
0.0
 11
92.3685726311659
 21
127.6520728388851
 31
0.0
  0
LINE
  5
1FF
330
14F
100
AcDbEntity
  8
Sketch Geometry(DIN)
  6
Continuous
 62
     7
370
    18
100
AcDbLine
 10
93.22251164791238
 20
126.864838051938
 30
0.0
 11
93.63616979477448
 21
126.864838051938
 31
0.0
  0
LINE
  5
200
330
14F
100
AcDbEntity
  8
Sketch Geometry(DIN)
  6
Continuous
 62
     7
370
    18
100
AcDbLine
 10
93.63616979477448
 20
126.864838051938
 30
0.0
 11
93.63616979477448
 21
127.2250946586152
 31
0.0
  0
LINE
  5
201
330
14F
100
AcDbEntity
  8
Sketch Geometry(DIN)
  6
Continuous
 62
     7
370
    18
100
AcDbLine
 10
93.22251164791238
 20
127.2250946586152
 30
0.0
 11
93.22251164791238
 21
127.6520728388851
 31
0.0
  0
LINE
  5
202
330
14F
100
AcDbEntity
  8
Sketch Geometry(DIN)
  6
Continuous
 62
     7
370
    18
100
AcDbLine
 10
92.16839923849006
 20
128.0857370515493
 30
0.0
 11
92.16839923849006
 21
127.6520728388851
 31
0.0
  0
LINE
  5
203
330
14F
100
AcDbEntity
  8
Sketch Geometry(DIN)
  6
Continuous
 62
     7
370
    18
100
AcDbLine
 10
94.12985220484376
 20
128.0857370515493
 30
0.0
 11
92.16839923849006
 21
128.0857370515493
 31
0.0
  0
LINE
  5
204
330
14F
100
AcDbEntity
  8
Sketch Geometry(DIN)
  6
Continuous
 62
     7
370
    18
100
AcDbLine
 10
93.22251164791238
 20
127.6520728388851
 30
0.0
 11
93.67618192637806
 21
127.6520728388851
 31
0.0
  0
LINE
  5
205
330
14F
100
AcDbEntity
  8
Sketch Geometry(DIN)
  6
Continuous
 62
     7
370
    18
100
AcDbLine
 10
93.67618192637806
 20
127.6520728388851
 30
0.0
 11
93.67618192637806
 21
127.4319280679947
 31
0.0
  0
LINE
  5
206
330
14F
100
AcDbEntity
  8
Sketch Geometry(DIN)
  6
Continuous
 62
     7
370
    18
100
AcDbLine
 10
94.51517059313244
 20
126.4440169183623
 30
0.0
 11
94.51517059313244
 21
127.6515611969787
 31
0.0
  0
LINE
  5
207
330
14F
100
AcDbEntity
  8
Sketch Geometry(DIN)
  6
Continuous
 62
     7
370
    18
100
AcDbLine
 10
93.67618192637806
 20
127.4319280679947
 30
0.0
 11
94.12985220484376
 21
127.4319280679947
 31
0.0
  0
LINE
  5
208
330
14F
100
AcDbEntity
  8
Sketch Geometry(DIN)
  6
Continuous
 62
     7
370
    18
100
AcDbLine
 10
94.12985220484376
 20
127.4319280679947
 30
0.0
 11
94.12985220484376
 21
128.0857370515493
 31
0.0
  0
LINE
  5
209
330
14F
100
AcDbEntity
  8
Sketch Geometry(DIN)
  6
Continuous
 62
     7
370
    18
100
AcDbLine
 10
93.63616979477448
 20
127.2250946586152
 30
0.0
 11
93.22251164791238
 21
127.2250946586152
 31
0.0
  0
LINE
  5
20A
330
14F
100
AcDbEntity
  8
Sketch Geometry(DIN)
  6
Continuous
 62
     7
370
    18
100
AcDbLine
 10
92.3685726311659
 20
126.4511799050758
 30
0.0
 11
92.16839923849006
 21
126.4511799050758
 31
0.0
  0
LINE
  5
20B
330
14F
100
AcDbEntity
  8
Sketch Geometry(DIN)
  6
Continuous
 62
     7
370
    18
100
AcDbLine
 10
93.40264428719919
 20
125.990858281803
 30
0.0
 11
93.40264428719919
 21
126.4511799050758
 31
0.0
  0
LINE
  5
20C
330
14F
100
AcDbEntity
  8
Sketch Geometry(DIN)
  6
Continuous
 62
     7
370
    18
100
AcDbLine
 10
92.16839923849006
 20
125.990858281803
 30
0.0
 11
93.40264428719919
 21
125.990858281803
 31
0.0
  0
LINE
  5
20D
330
14F
100
AcDbEntity
  8
Sketch Geometry(DIN)
  6
Continuous
 62
     7
370
    18
100
AcDbLine
 10
92.16839923849006
 20
126.4511799050758
 30
0.0
 11
92.16839923849006
 21
125.990858281803
 31
0.0
  0
LINE
  5
20E
330
14F
100
AcDbEntity
  8
Sketch Geometry(DIN)
  6
Continuous
 62
     7
370
    18
100
AcDbLine
 10
95.66280073710002
 20
127.6447971175117
 30
0.0
 11
95.63609996700732
 21
127.65814316661
 31
0.0
  0
LINE
  5
20F
330
14F
100
AcDbEntity
  8
Sketch Geometry(DIN)
  6
Continuous
 62
     7
370
    18
100
AcDbLine
 10
95.74285968789418
 20
127.3178926257348
 30
0.0
 11
95.74951970459785
 21
127.3378986915364
 31
0.0
  0
LINE
  5
210
330
14F
100
AcDbEntity
  8
Sketch Geometry(DIN)
  6
Continuous
 62
     7
370
    18
100
AcDbLine
 10
95.74951970459785
 20
127.3378986915364
 30
0.0
 11
95.76286575369572
 21
127.3645994616291
 31
0.0
  0
LINE
  5
211
330
14F
100
AcDbEntity
  8
Sketch Geometry(DIN)
  6
Continuous
 62
     7
370
    18
100
AcDbLine
 10
95.76286575369572
 20
127.3645994616291
 30
0.0
 11
95.76952577039946
 21
127.3846055274307
 31
0.0
  0
LINE
  5
212
330
14F
100
AcDbEntity
  8
Sketch Geometry(DIN)
  6
Continuous
 62
     7
370
    18
100
AcDbLine
 10
95.76952577039946
 20
127.3846055274307
 30
0.0
 11
95.78287181949779
 21
127.4179663142276
 31
0.0
  0
LINE
  5
213
330
14F
100
AcDbEntity
  8
Sketch Geometry(DIN)
  6
Continuous
 62
     7
370
    18
100
AcDbLine
 10
95.78287181949779
 20
127.4179663142276
 30
0.0
 11
95.78287181949779
 21
127.4379723800291
 31
0.0
  0
LINE
  5
214
330
14F
100
AcDbEntity
  8
Sketch Geometry(DIN)
  6
Continuous
 62
     7
370
    18
100
AcDbLine
 10
95.78287181949779
 20
127.4379723800291
 30
0.0
 11
95.78287181949779
 21
127.4646644782248
 31
0.0
  0
LINE
  5
215
330
14F
100
AcDbEntity
  8
Sketch Geometry(DIN)
  6
Continuous
 62
     7
370
    18
100
AcDbLine
 10
95.78287181949779
 20
127.4646644782248
 30
0.0
 11
95.76952577039946
 21
127.4846792159234
 31
0.0
  0
LINE
  5
216
330
14F
100
AcDbEntity
  8
Sketch Geometry(DIN)
  6
Continuous
 62
     7
370
    18
100
AcDbLine
 10
95.76952577039946
 20
127.4846792159234
 30
0.0
 11
95.75617104940505
 21
127.5180313308232
 31
0.0
  0
LINE
  5
217
330
14F
100
AcDbEntity
  8
Sketch Geometry(DIN)
  6
Continuous
 62
     7
370
    18
100
AcDbLine
 10
95.61609390120526
 20
127.6648031833137
 30
0.0
 11
95.58939313111256
 21
127.6781579043086
 31
0.0
  0
LINE
  5
218
330
14F
100
AcDbEntity
  8
Sketch Geometry(DIN)
  6
Continuous
 62
     7
370
    18
100
AcDbLine
 10
95.58939313111256
 20
127.6781579043086
 30
0.0
 11
95.56938706531102
 21
127.6781579043086
 31
0.0
  0
LINE
  5
219
330
14F
100
AcDbEntity
  8
Sketch Geometry(DIN)
  6
Continuous
 62
     7
370
    18
100
AcDbLine
 10
95.56938706531102
 20
127.6781579043086
 30
0.0
 11
95.549380999509
 21
127.6781579043086
 31
0.0
  0
LINE
  5
21A
330
14F
100
AcDbEntity
  8
Sketch Geometry(DIN)
  6
Continuous
 62
     7
370
    18
100
AcDbLine
 10
95.549380999509
 20
127.6781579043086
 30
0.0
 11
95.29584942613215
 21
127.6781579043086
 31
0.0
  0
LINE
  5
21B
330
14F
100
AcDbEntity
  8
Sketch Geometry(DIN)
  6
Continuous
 62
     7
370
    18
100
AcDbLine
 10
95.29584942613215
 20
127.6781579043086
 30
0.0
 11
95.29584942613215
 21
127.191126839046
 31
0.0
  0
LINE
  5
21C
330
14F
100
AcDbEntity
  8
Sketch Geometry(DIN)
  6
Continuous
 62
     7
370
    18
100
AcDbLine
 10
95.29584942613215
 20
127.191126839046
 30
0.0
 11
95.549380999509
 21
127.191126839046
 31
0.0
  0
LINE
  5
21D
330
14F
100
AcDbEntity
  8
Sketch Geometry(DIN)
  6
Continuous
 62
     7
370
    18
100
AcDbLine
 10
95.549380999509
 20
127.191126839046
 30
0.0
 11
95.56938706531102
 21
127.191126839046
 31
0.0
  0
LINE
  5
21E
330
14F
100
AcDbEntity
  8
Sketch Geometry(DIN)
  6
Continuous
 62
     7
370
    18
100
AcDbLine
 10
95.72951363879589
 20
127.2978865599328
 30
0.0
 11
95.74285968789418
 21
127.3178926257348
 31
0.0
  0
LINE
  5
21F
330
14F
100
AcDbEntity
  8
Sketch Geometry(DIN)
  6
Continuous
 62
     7
370
    18
100
AcDbLine
 10
95.7094989010973
 20
127.2778458065443
 30
0.0
 11
95.72951363879589
 21
127.2978865599328
 31
0.0
  0
LINE
  5
220
330
14F
100
AcDbEntity
  8
Sketch Geometry(DIN)
  6
Continuous
 62
     7
370
    18
100
AcDbLine
 10
95.67614678619788
 20
127.2444936916444
 30
0.0
 11
95.69615285199944
 21
127.2645344450329
 31
0.0
  0
LINE
  5
221
330
14F
100
AcDbEntity
  8
Sketch Geometry(DIN)
  6
Continuous
 62
     7
370
    18
100
AcDbLine
 10
95.66280073710002
 20
127.2378336749407
 30
0.0
 11
95.67614678619788
 21
127.2444936916444
 31
0.0
  0
LINE
  5
222
330
14F
100
AcDbEntity
  8
Sketch Geometry(DIN)
  6
Continuous
 62
     7
370
    18
100
AcDbLine
 10
95.63609996700732
 20
127.2178276091387
 30
0.0
 11
95.66280073710002
 21
127.2378336749407
 31
0.0
  0
LINE
  5
223
330
14F
100
AcDbEntity
  8
Sketch Geometry(DIN)
  6
Continuous
 62
     7
370
    18
100
AcDbLine
 10
95.61609390120526
 20
127.2044815600408
 30
0.0
 11
95.63609996700732
 21
127.2178276091387
 31
0.0
  0
LINE
  5
224
330
14F
100
AcDbEntity
  8
Sketch Geometry(DIN)
  6
Continuous
 62
     7
370
    18
100
AcDbLine
 10
95.59608783540372
 20
127.1977868557497
 30
0.0
 11
95.61609390120526
 21
127.2044815600408
 31
0.0
  0
LINE
  5
225
330
14F
100
AcDbEntity
  8
Sketch Geometry(DIN)
  6
Continuous
 62
     7
370
    18
100
AcDbLine
 10
95.56938706531102
 20
127.191126839046
 30
0.0
 11
95.59608783540372
 21
127.1977868557497
 31
0.0
  0
LINE
  5
226
330
14F
100
AcDbEntity
  8
Sketch Geometry(DIN)
  6
Continuous
 62
     7
370
    18
100
AcDbLine
 10
95.69615285199944
 20
127.2645344450329
 30
0.0
 11
95.7094989010973
 21
127.2778458065443
 31
0.0
  0
LINE
  5
227
330
14F
100
AcDbEntity
  8
Sketch Geometry(DIN)
  6
Continuous
 62
     7
370
    18
100
AcDbLine
 10
94.29502582224202
 20
125.9836519356054
 30
0.0
 11
94.29502582224202
 21
126.4440169183623
 31
0.0
  0
LINE
  5
228
330
14F
100
AcDbEntity
  8
Sketch Geometry(DIN)
  6
Continuous
 62
     7
370
    18
100
AcDbLine
 10
94.29502582224202
 20
126.4440169183623
 30
0.0
 11
94.51517059313244
 21
126.4440169183623
 31
0.0
  0
LINE
  5
229
330
14F
100
AcDbEntity
  8
Sketch Geometry(DIN)
  6
Continuous
 62
     7
370
    18
100
AcDbLine
 10
95.48922405176057
 20
125.9836519356054
 30
0.0
 11
94.29502582224202
 21
125.9836519356054
 31
0.0
  0
LINE
  5
22A
330
14F
100
AcDbEntity
  8
Sketch Geometry(DIN)
  6
Continuous
 62
     7
370
    18
100
AcDbLine
 10
95.30244006766654
 20
126.8776464434394
 30
0.0
 11
95.30244006766654
 21
126.4440169183623
 31
0.0
  0
LINE
  5
22B
330
14F
100
AcDbEntity
  8
Sketch Geometry(DIN)
  6
Continuous
 62
     7
370
    18
100
AcDbLine
 10
95.30244006766654
 20
126.4440169183623
 30
0.0
 11
95.48922405176057
 21
126.4440169183623
 31
0.0
  0
LINE
  5
22C
330
14F
100
AcDbEntity
  8
Sketch Geometry(DIN)
  6
Continuous
 62
     7
370
    18
100
AcDbLine
 10
95.58263772354912
 20
126.8776464434394
 30
0.0
 11
95.30244006766654
 21
126.8776464434394
 31
0.0
  0
LINE
  5
22D
330
14F
100
AcDbEntity
  8
Sketch Geometry(DIN)
  6
Continuous
 62
     7
370
    18
100
AcDbLine
 10
95.48922405176057
 20
126.4440169183623
 30
0.0
 11
95.48922405176057
 21
125.9836519356054
 31
0.0
  0
LINE
  5
22E
330
14F
100
AcDbEntity
  8
Sketch Geometry(DIN)
  6
Continuous
 62
     7
370
    18
100
AcDbLine
 10
95.96959510031894
 20
125.9836519356054
 30
0.0
 11
95.58263772354912
 21
126.8776464434394
 31
0.0
  0
LINE
  5
22F
330
14F
100
AcDbEntity
  8
Sketch Geometry(DIN)
  6
Continuous
 62
     7
370
    18
100
AcDbLine
 10
106.5065913716826
 20
126.6493414177054
 30
0.0
 11
106.5065913716826
 21
126.4492027126165
 31
0.0
  0
LINE
  5
230
330
14F
100
AcDbEntity
  8
Sketch Geometry(DIN)
  6
Continuous
 62
     7
370
    18
100
AcDbLine
 10
106.9469156010504
 20
126.6493414177054
 30
0.0
 11
106.5065913716826
 21
126.6493414177054
 31
0.0
  0
LINE
  5
231
330
14F
100
AcDbEntity
  8
Sketch Geometry(ISO)
  6
Continuous
 62
     7
370
    25
100
AcDbLine
 10
89.59999999999999
 20
110.2741925130958
 30
0.0
 11
154.6
 21
110.2741925130957
 31
0.0
  0
MTEXT
  5
232
330
14F
100
AcDbEntity
  8
Symbols(ISO)
 62
     7
100
AcDbMText
 10
155.6
 20
144.5241925130958
 30
0.0
 40
1.49859994649887
 41
23.77876622243585
 71
     4
 72
     1
  1
Revision Description:
  7
Text__1.5mm
 73
     1
 44
1.0
  0
MTEXT
  5
233
330
14F
100
AcDbEntity
  8
Symbols(ISO)
 62
     7
100
AcDbMText
 10
91.09999999999997
 20
105.2368704004262
 30
0.0
 40
1.299999952316284
 41
62.47629165649414
 71
     4
 72
     1
  1
\fArial|b0|i0;These drawings and specifications are the property of NIRO-Plan AG and shall not be reproduced, copied or transfered to any third party without the prior written permission of NIRO-Plan AG, Aarburg, Switzerland
  7
Text__1.3mm
 73
     2
 44
0.9442214369773864
  0
MTEXT
  5
234
330
14F
100
AcDbEntity
  8
Symbols(ISO)
 62
     7
100
AcDbMText
 10
264.6
 20
108.7741925130957
 30
0.0
 40
1.49859994649887
 41
6.68705082292643
 71
     4
 72
     1
  1
\fArial|b0|i0;Rev.
  7
Text__1.5mm
 73
     1
 44
1.0
  0
MTEXT
  5
235
330
14F
100
AcDbEntity
  8
Symbols(ISO)
 62
     7
100
AcDbMText
 10
275.6
 20
108.7741925130957
 30
0.0
 40
1.49859994649887
 41
6.68705082292643
 71
     4
 72
     1
  1
\fArial|b0|i0;Sheet
  7
Text__1.5mm
 73
     1
 44
1.0
  0
MTEXT
  5
236
330
14F
100
AcDbEntity
  8
Symbols(ISO)
 62
     7
100
AcDbMText
 10
205.6
 20
108.7741925130957
 30
0.0
 40
1.49859994649887
 41
6.629477143287658
 71
     4
 72
     1
  1
\fArial|b0|i0;Format
  7
Text__1.5mm
 73
     1
 44
1.0
  0
MTEXT
  5
237
330
14F
100
AcDbEntity
  8
Symbols(ISO)
 62
     7
100
AcDbMText
 10
248.1
 20
137.0241925130958
 30
0.0
 40
1.49859994649887
 41
9.419934749603271
 71
     4
 72
     1
  1
EAN / UPC
  7
Text__1.5mm
 73
     1
 44
1.0
  0
MTEXT
  5
238
330
14F
100
AcDbEntity
  8
Symbols(ISO)
 62
     7
100
AcDbMText
 10
205.6
 20
144.3687682948396
 30
0.0
 40
1.49859994649887
 41
8.959617614746093
 71
     4
 72
     1
  1
Projection
  7
Text__1.5mm
 73
     1
 44
1.0
  0
MTEXT
  5
239
330
14F
100
AcDbEntity
  8
Symbols(ISO)
 62
     7
100
AcDbMText
 10
248.1
 20
144.3687682948396
 30
0.0
 40
1.49859994649887
 41
41.00067758866362
 71
     4
 72
     1
  1
Local part number (producing site)
  7
Text__1.5mm
 73
     1
 44
1.0
  0
MTEXT
  5
23A
330
14F
100
AcDbEntity
  8
Symbols(ISO)
 62
     7
100
AcDbMText
 10
218.1
 20
108.7741925130957
 30
0.0
 40
1.49859994649887
 41
13.84170077910116
 71
     4
 72
     1
  1
Drawing number
  7
Text__1.5mm
 73
     1
 44
1.0
  0
MTEXT
  5
23B
330
14F
100
AcDbEntity
  8
Symbols(ISO)
 62
     7
100
AcDbMText
 10
205.6
 20
137.0241925130958
 30
0.0
 40
1.49859994649887
 41
16.71329739486093
 71
     4
 72
     1
  1
WS global number
  7
Text__1.5mm
 73
     1
 44
1.0
  0
MTEXT
  5
23C
330
14F
100
AcDbEntity
  8
Symbols(ISO)
 62
     7
100
AcDbMText
 10
283.1
 20
108.7741925130957
 30
0.0
 40
1.49859994649887
 41
6.68705082292643
 71
     4
 72
     1
  1
Sheets
  7
Text__1.5mm
 73
     1
 44
1.0
  0
MTEXT
  5
23D
330
14F
100
AcDbEntity
  8
Symbols(ISO)
 62
     7
100
AcDbMText
 10
91.09999999999997
 20
116.4337326665147
 30
0.0
 40
2.000000029802322
 41
51.58130403925817
 71
     4
 72
     1
  1
\fArial|b0|i0;\H2.0000;Franke Washroom Systems\PE-Mail: ws-info.int@franke.com\PInternet: www.franke.com
  7
Text__1.3mm
 73
     2
 44
0.9442214369773864
  0
MTEXT
  5
23E
330
14F
100
AcDbEntity
  8
Symbols(ISO)
 62
     7
100
AcDbMText
 10
90.6
 20
144.5241925130958
 30
0.0
 40
1.49859994649887
 41
8.959617614746093
 71
     4
 72
     1
  1
Drawn by
  7
Text__1.5mm
 73
     1
 44
1.0
  0
MTEXT
  5
23F
330
14F
100
AcDbEntity
  8
Symbols(ISO)
 62
     7
100
AcDbMText
 10
90.6
 20
137.0241925130958
 30
0.0
 40
1.49859994649887
 41
9.318276643753051
 71
     4
 72
     1
  1
Revised by
  7
Text__1.5mm
 73
     1
 44
1.0
  0
MTEXT
  5
240
330
14F
100
AcDbEntity
  8
Symbols(ISO)
 62
     7
100
AcDbMText
 10
135.6
 20
137.0241925130958
 30
0.0
 40
1.49859994649887
 41
12.0866436953507
 71
     4
 72
     1
  1
Revision date
  7
Text__1.5mm
 73
     1
 44
1.0
  0
MTEXT
  5
241
330
14F
100
AcDbEntity
  8
Symbols(ISO)
 62
     7
100
AcDbMText
 10
135.6
 20
144.5241925130958
 30
0.0
 40
1.49859994649887
 41
12.73810746214334
 71
     4
 72
     1
  1
Creation date
  7
Text__1.5mm
 73
     1
 44
1.0
  0
MTEXT
  5
242
330
14F
100
AcDbEntity
  8
Symbols(ISO)
 62
     7
100
AcDbMText
 10
110.6
 20
144.5241925130958
 30
0.0
 40
1.49859994649887
 41
10.88769435882568
 71
     4
 72
     1
  1
Departement
  7
Text__1.5mm
 73
     1
 44
1.0
  0
MTEXT
  5
243
330
14F
100
AcDbEntity
  8
Symbols(ISO)
 62
     7
100
AcDbMText
 10
110.6
 20
137.0241925130958
 30
0.0
 40
1.49859994649887
 41
13.53864551460898
 71
     4
 72
     1
  1
Departement
  7
Text__1.5mm
 73
     1
 44
1.0
  0
ATTDEF
  5
245
102
{ACAD_XDICTIONARY
360
12C6
102
}
330
14F
100
AcDbEntity
  8
Symbols(ISO)
 62
     7
100
AcDbText
 10
206.2282401091405
 20
123.5241925130958
 30
0.0
 40
5.0
  1
G20480N
  7
Text Style20
100
AcDbAttributeDefinition
  3
Title
  2
Title_001
 70
     0
  0
ATTDEF
  5
247
102
{ACAD_XDICTIONARY
360
12C9
102
}
330
14F
100
AcDbEntity
  8
Symbols(ISO)
 62
     7
100
AcDbText
 10
206.6000000000001
 20
117.7741925428981
 30
0.0
 40
3.499999940395355
  1

  7
Text Style9
 11
206.6000000000001
 21
119.5241925130958
 31
0.0
100
AcDbAttributeDefinition
  3
Auxiliary_Remark1
  2
Auxiliary_Remark1
 70
     0
 74
     2
  0
ATTDEF
  5
248
102
{ACAD_XDICTIONARY
360
12CC
102
}
330
14F
100
AcDbEntity
  8
Symbols(ISO)
 62
     7
100
AcDbText
 10
206.6
 20
111.2741925428982
 30
0.0
 40
3.499999940395355
  1

  7
Text Style9
 11
206.6
 21
113.0241925130958
 31
0.0
100
AcDbAttributeDefinition
  3
Auxiliary_Remark2
  2
Auxiliary_Remark2
 70
     0
 74
     2
  0
ATTDEF
  5
24A
102
{ACAD_XDICTIONARY
360
12CF
102
}
330
14F
100
AcDbEntity
  8
Symbols(ISO)
 62
     7
100
AcDbText
 10
248.1
 20
139.7741925130958
 30
0.0
 40
2.5
  1

  7
Text Style38
 11
248.1
 21
141.0241925130958
 31
0.0
100
AcDbAttributeDefinition
  3
Part_number
  2
Part_number
 70
     0
 74
     2
  0
ATTDEF
  5
24B
102
{ACAD_XDICTIONARY
360
12D2
102
}
330
14F
100
AcDbEntity
  8
Symbols(ISO)
 62
     7
100
AcDbText
 10
217.8100954979536
 20
101.8082989251012
 30
0.0
 40
5.0
  1
0093-129729
  7
Text Style20
100
AcDbAttributeDefinition
  3
Document_Number
  2
Document_Number_001
 70
     0
  0
ATTDEF
  5
24D
102
{ACAD_XDICTIONARY
360
12D5
102
}
330
14F
100
AcDbEntity
  8
Symbols(ISO)
 62
     7
100
AcDbText
 10
155.6
 20
136.0241924832935
 30
0.0
 40
2.000000029802322
  1

  7
Text Style40
 11
155.6
 21
138.0241925130958
 31
0.0
100
AcDbAttributeDefinition
  3
Revision_Memo_1
  2
Revision_Memo_1
 70
     0
 74
     3
  0
ATTDEF
  5
24E
102
{ACAD_XDICTIONARY
360
12D8
102
}
330
14F
100
AcDbEntity
  8
Symbols(ISO)
 62
     7
100
AcDbText
 10
264.6
 20
101.7741925130957
 30
0.0
 40
5.0
  1

  7
Text Style20
 11
264.6
 21
104.2741925130957
 31
0.0
100
AcDbAttributeDefinition
  3
Revision_Index_1
  2
Revision_Index_1
 70
     0
 74
     2
  0
ATTDEF
  5
24F
102
{ACAD_XDICTIONARY
360
12DB
102
}
330
14F
100
AcDbEntity
  8
Symbols(ISO)
 62
     7
100
AcDbText
 10
205.6
 20
101.7741925130958
 30
0.0
 40
5.0
  1
A4
  7
Text Style20
100
AcDbAttributeDefinition
  3
Sheet Size
  2
Sheet_Size_001
 70
     0
  0
ATTDEF
  5
250
102
{ACAD_XDICTIONARY
360
12DE
102
}
330
14F
100
AcDbEntity
  8
Symbols(ISO)
 62
     7
100
AcDbText
 10
90.47448840194965
 20
140.0248746264449
 30
0.0
 40
2.000000029802322
  1
SS136
  7
Text Style40
100
AcDbAttributeDefinition
  3
Drawn_By
  2
Drawn_By_001
 70
     0
  0
ATTDEF
  5
251
102
{ACAD_XDICTIONARY
360
12E1
102
}
330
14F
100
AcDbEntity
  8
Symbols(ISO)
 62
     7
100
AcDbText
 10
90.6
 20
132.5241924981947
 30
0.0
 40
2.000000029802322
  1

  7
Text Style40
 11
90.6
 21
133.5241925130958
 31
0.0
100
AcDbAttributeDefinition
  3
Modified_By
  2
Modified_By
 70
     0
 74
     2
  0
ATTDEF
  5
252
102
{ACAD_XDICTIONARY
360
12E4
102
}
330
14F
100
AcDbEntity
  8
Symbols(ISO)
 62
     7
100
AcDbText
 10
135.5181446099671
 20
140.0241924981947
 30
0.0
 40
2.000000029802322
  1
21/10/2010
  7
Text Style40
100
AcDbAttributeDefinition
  3
Drawn_Date
  2
Drawn_Date_001
 70
     0
  0
ATTDEF
  5
253
102
{ACAD_XDICTIONARY
360
12E7
102
}
330
14F
100
AcDbEntity
  8
Symbols(ISO)
 62
     7
100
AcDbText
 10
135.6
 20
132.5241924981947
 30
0.0
 40
2.000000029802322
  1

  7
Text Style40
 11
135.6
 21
133.5241925130958
 31
0.0
100
AcDbAttributeDefinition
  3
Modified_Date
  2
Modified_Date
 70
     0
 74
     2
  0
ATTDEF
  5
254
102
{ACAD_XDICTIONARY
360
12EA
102
}
330
14F
100
AcDbEntity
  8
Symbols(ISO)
 62
     7
100
AcDbText
 10
155.6
 20
140.0241924981946
 30
0.0
 40
2.000000029802322
  1

  7
Text Style40
 11
155.6
 21
141.0241925130958
 31
0.0
100
AcDbAttributeDefinition
  3
Revision_Titel_1
  2
Revision_Titel_1
 70
     0
 74
     2
  0
ATTDEF
  5
255
102
{ACAD_XDICTIONARY
360
12ED
102
}
330
14F
100
AcDbEntity
  8
Symbols(ISO)
 62
     7
100
AcDbText
 10
276.8366984993179
 20
101.7639605894941
 30
0.0
 40
5.0
  1
1
 41
0.9
  7
Text__5.0mm
100
AcDbAttributeDefinition
  3
Sheet number
  2
Sheet_number_001
 70
     0
  0
ATTDEF
  5
256
102
{ACAD_XDICTIONARY
360
12F0
102
}
330
14F
100
AcDbEntity
  8
Symbols(ISO)
 62
     7
100
AcDbText
 10
284.2139154160983
 20
101.7741925130957
 30
0.0
 40
5.0
  1
4
 41
0.9
  7
Text__5.0mm
100
AcDbAttributeDefinition
  3
Number of sheets
  2
Number_of_sheets_001
 70
     0
  0
ATTDEF
  5
257
102
{ACAD_XDICTIONARY
360
12F3
102
}
330
14F
100
AcDbEntity
  8
Symbols(ISO)
 62
     7
100
AcDbText
 10
205.6
 20
132.2741925130958
 30
0.0
 40
2.5
  1

  7
Text Style38
 11
205.6
 21
133.5241925130958
 31
0.0
100
AcDbAttributeDefinition
  3
FUN
  2
FUN
 70
     0
 74
     2
  0
ATTDEF
  5
258
102
{ACAD_XDICTIONARY
360
12F6
102
}
330
14F
100
AcDbEntity
  8
Symbols(ISO)
 62
     7
100
AcDbText
 10
247.9345839017736
 20
132.2912457190985
 30
0.0
 40
2.5
  1
7612979003390
  7
Text Style38
100
AcDbAttributeDefinition
  3
EAN
  2
EAN_001
 70
     0
  0
ATTDEF
  5
259
102
{ACAD_XDICTIONARY
360
12F9
102
}
330
14F
100
AcDbEntity
  8
Symbols(ISO)
 62
     7
100
AcDbText
 10
110.370804907908
 20
132.8011365678058
 30
0.0
 40
2.000000029802322
  1
FSI-Marketing
  7
Text Style40
100
AcDbAttributeDefinition
  3
Departement
  2
Departement_001
 70
     0
  0
ATTDEF
  5
25A
102
{ACAD_XDICTIONARY
360
12FC
102
}
330
14F
100
AcDbEntity
  8
Symbols(ISO)
 62
     7
100
AcDbText
 10
110.370804907908
 20
140.3011365678057
 30
0.0
 40
2.000000029802322
  1
FSI-Marketing
  7
Text Style40
100
AcDbAttributeDefinition
  3
Departement
  2
Departement_001
 70
     0
  0
ENDBLK
  5
151
330
14F
100
AcDbEntity
  8
0
100
AcDbBlockEnd
  0
BLOCK
  5
271
330
270
100
AcDbEntity
  8
0
100
AcDbBlockBegin
  2
Borders Verkauf Border_85x80
 70
     0
 10
0.0
 20
0.0
 30
0.0
  3
Borders Verkauf Border_85x80
  1

  0
LINE
  5
273
330
270
100
AcDbEntity
  8
Phantom Lines(ISO)
100
AcDbLine
 10
20.00000000000014
 20
228.0000000000001
 30
0.0
 11
190.0
 21
228.0000000000001
 31
0.0
  0
LINE
  5
274
330
270
100
AcDbEntity
  8
Phantom Lines(ISO)
100
AcDbLine
 10
190.0
 20
228.0000000000001
 30
0.0
 11
190.0
 21
68.00000000000004
 31
0.0
  0
LINE
  5
275
330
270
100
AcDbEntity
  8
Phantom Lines(ISO)
100
AcDbLine
 10
190.0
 20
68.00000000000003
 30
0.0
 11
20.0
 21
68.00000000000003
 31
0.0
  0
LINE
  5
276
330
270
100
AcDbEntity
  8
Phantom Lines(ISO)
100
AcDbLine
 10
20.0
 20
68.00000000000003
 30
0.0
 11
20.00000000000014
 21
228.0000000000001
 31
0.0
  0
LINE
  5
277
330
270
100
AcDbEntity
  8
Sketch Geometry(ISO)
100
AcDbLine
 10
204.9999999999999
 20
292.0
 30
0.0
 11
5.0
 21
292.0
 31
0.0
  0
LINE
  5
278
330
270
100
AcDbEntity
  8
Sketch Geometry(ISO)
100
AcDbLine
 10
4.999999999999982
 20
292.0
 30
0.0
 11
5.000000000000007
 21
5.0
 31
0.0
  0
LINE
  5
279
330
270
100
AcDbEntity
  8
Sketch Geometry(ISO)
100
AcDbLine
 10
5.000000000000007
 20
5.0
 30
0.0
 11
205.0
 21
5.0
 31
0.0
  0
LINE
  5
27A
330
270
100
AcDbEntity
  8
Sketch Geometry(ISO)
100
AcDbLine
 10
205.0
 20
5.0
 30
0.0
 11
204.9999999999999
 21
292.0
 31
0.0
  0
ENDBLK
  5
272
330
270
100
AcDbEntity
  8
0
100
AcDbBlockEnd
  0
BLOCK
  5
2CC
330
2CB
100
AcDbEntity
  8
0
100
AcDbBlockBegin
  2
*D11
 70
     1
 10
0.0
 20
0.0
 30
0.0
  3
*D11
  1

  0
LINE
  5
3B0
330
2CB
100
AcDbEntity
  8
Bemaßungen(DIN)
  6
Continuous
 62
     7
370
    25
100
AcDbLine
 10
1081.894522460061
 20
1149.453932261113
 30
0.0
 11
991.8020317178198
 21
1149.453932261113
 31
0.0
  0
LINE
  5
3B1
330
2CB
100
AcDbEntity
  8
Bemaßungen(DIN)
  6
Continuous
 62
     7
370
    25
100
AcDbLine
 10
1081.894522460156
 20
1699.453969983723
 30
0.0
 11
991.80203171782
 21
1699.453969983723
 31
0.0
  0
LINE
  5
3B2
330
2CB
100
AcDbEntity
  8
Bemaßungen(DIN)
  6
Continuous
 62
     7
370
    25
100
AcDbLine
 10
1007.80203171782
 20
1181.453932261113
 30
0.0
 11
1007.80203171782
 21
1400.115615515325
 31
0.0
  0
LINE
  5
3B3
330
2CB
100
AcDbEntity
  8
Bemaßungen(DIN)
  6
Continuous
 62
     7
370
    25
100
AcDbLine
 10
1007.80203171782
 20
1667.453969983723
 30
0.0
 11
1007.80203171782
 21
1448.792286729513
 31
0.0
  0
SOLID
  5
3B4
330
2CB
100
AcDbEntity
  8
Bemaßungen(DIN)
  6
Continuous
 62
     7
100
AcDbTrace
 10
1002.468698384486
 20
1181.453932261113
 30
0.0
 11
1013.135365051153
 21
1181.453932261113
 31
0.0
 12
1007.80203171782
 22
1149.453932261113
 32
0.0
 13
1007.80203171782
 23
1149.453932261113
 33
0.0
  0
SOLID
  5
3B5
330
2CB
100
AcDbEntity
  8
Bemaßungen(DIN)
  6
Continuous
 62
     7
100
AcDbTrace
 10
1002.468698384486
 20
1667.453969983723
 30
0.0
 11
1013.135365051153
 21
1667.453969983723
 31
0.0
 12
1007.80203171782
 22
1699.453969983723
 32
0.0
 13
1007.80203171782
 23
1699.453969983723
 33
0.0
  0
MTEXT
  5
3B6
330
2CB
100
AcDbEntity
  8
Bemaßungen(DIN)
  6
Continuous
 62
     7
370
    30
100
AcDbMText
 10
976.0355932687565
 20
1424.453951122419
 30
0.0
 40
32.0
 41
0.0
 71
     4
 72
     1
  1
\A1;550
  7
Text__4.0mm
 73
     1
 44
1.0
  0
POINT
  5
3B7
330
2CB
100
AcDbEntity
  8
Defpoints
  6
Continuous
 62
     0
100
AcDbPoint
 10
1097.894522460061
 20
1149.453932261113
 30
0.0
  0
POINT
  5
3B8
330
2CB
100
AcDbEntity
  8
Defpoints
  6
Continuous
 62
     0
100
AcDbPoint
 10
1097.894522460156
 20
1699.453969983723
 30
0.0
  0
POINT
  5
3B9
330
2CB
100
AcDbEntity
  8
Defpoints
  6
Continuous
 62
     0
100
AcDbPoint
 10
1007.80203171782
 20
1699.453969983723
 30
0.0
  0
ENDBLK
  5
2CD
330
2CB
100
AcDbEntity
  8
0
100
AcDbBlockEnd
  0
BLOCK
  5
3BC
330
3BB
100
AcDbEntity
  8
0
100
AcDbBlockBegin
  2
*D12
 70
     1
 10
0.0
 20
0.0
 30
0.0
  3
*D12
  1

  0
LINE
  5
4A0
330
3BB
100
AcDbEntity
  8
Bemaßungen(DIN)
  6
Continuous
 62
     7
370
    25
100
AcDbLine
 10
276.5596500455504
 20
1699.45396998372
 30
0.0
 11
194.5618390539854
 21
1699.45396998372
 31
0.0
  0
LINE
  5
4A1
330
3BB
100
AcDbEntity
  8
Bemaßungen(DIN)
  6
Continuous
 62
     7
370
    25
100
AcDbLine
 10
306.6780710981821
 20
1549.453969983623
 30
0.0
 11
194.5618390539853
 21
1549.453969983623
 31
0.0
  0
LINE
  5
4A2
330
3BB
100
AcDbEntity
  8
Bemaßungen(DIN)
  6
Continuous
 62
     7
370
    25
100
AcDbLine
 10
210.5618390539854
 20
1667.45396998372
 30
0.0
 11
210.5618390539854
 21
1648.792305590764
 31
0.0
  0
LINE
  5
4A3
330
3BB
100
AcDbEntity
  8
Bemaßungen(DIN)
  6
Continuous
 62
     7
370
    25
100
AcDbLine
 10
210.5618390539854
 20
1581.453969983623
 30
0.0
 11
210.5618390539854
 21
1600.115634376576
 31
0.0
  0
SOLID
  5
4A4
330
3BB
100
AcDbEntity
  8
Bemaßungen(DIN)
  6
Continuous
 62
     7
100
AcDbTrace
 10
205.228505720652
 20
1667.45396998372
 30
0.0
 11
215.8951723873187
 21
1667.45396998372
 31
0.0
 12
210.5618390539854
 22
1699.45396998372
 32
0.0
 13
210.5618390539854
 23
1699.45396998372
 33
0.0
  0
SOLID
  5
4A5
330
3BB
100
AcDbEntity
  8
Bemaßungen(DIN)
  6
Continuous
 62
     7
100
AcDbTrace
 10
205.228505720652
 20
1581.453969983623
 30
0.0
 11
215.8951723873187
 21
1581.453969983623
 31
0.0
 12
210.5618390539854
 22
1549.453969983623
 32
0.0
 13
210.5618390539854
 23
1549.453969983623
 33
0.0
  0
MTEXT
  5
4A6
330
3BB
100
AcDbEntity
  8
Bemaßungen(DIN)
  6
Continuous
 62
     7
370
    30
100
AcDbMText
 10
180.1509258077574
 20
1624.45396998367
 30
0.0
 40
32.0
 41
0.0
 71
     4
 72
     1
  1
\A1;150
  7
Text__4.0mm
 73
     1
 44
1.0
  0
POINT
  5
4A7
330
3BB
100
AcDbEntity
  8
Defpoints
  6
Continuous
 62
     0
100
AcDbPoint
 10
292.5596500455504
 20
1699.45396998372
 30
0.0
  0
POINT
  5
4A8
330
3BB
100
AcDbEntity
  8
Defpoints
  6
Continuous
 62
     0
100
AcDbPoint
 10
322.6780710981821
 20
1549.453969983623
 30
0.0
  0
POINT
  5
4A9
330
3BB
100
AcDbEntity
  8
Defpoints
  6
Continuous
 62
     0
100
AcDbPoint
 10
210.5618390539854
 20
1549.453969983623
 30
0.0
  0
ENDBLK
  5
3BD
330
3BB
100
AcDbEntity
  8
0
100
AcDbBlockEnd
  0
BLOCK
  5
4AC
330
4AB
100
AcDbEntity
  8
0
100
AcDbBlockBegin
  2
*D13
 70
     1
 10
0.0
 20
0.0
 30
0.0
  3
*D13
  1

  0
LINE
  5
591
330
4AB
100
AcDbEntity
  8
Bemaßungen(DIN)
  6
Continuous
 62
     7
370
    25
100
AcDbLine
 10
248.9807026928561
 20
1549.453969983623
 30
0.0
 11
193.6407864224063
 21
1549.453969983623
 31
0.0
  0
LINE
  5
592
330
4AB
100
AcDbEntity
  8
Bemaßungen(DIN)
  6
Continuous
 62
     7
370
    25
100
AcDbLine
 10
273.9807026771294
 20
1449.453969983728
 30
0.0
 11
193.6407864224063
 21
1449.453969983728
 31
0.0
  0
LINE
  5
593
330
4AB
100
AcDbEntity
  8
Bemaßungen(DIN)
  6
Continuous
 62
     7
370
    25
100
AcDbLine
 10
209.6407864224063
 20
1581.453969983623
 30
0.0
 11
209.6407864224064
 21
1613.453969983623
 31
0.0
  0
LINE
  5
594
330
4AB
100
AcDbEntity
  8
Bemaßungen(DIN)
  6
Continuous
 62
     7
370
    25
100
AcDbLine
 10
209.6407864224063
 20
1417.453969983728
 30
0.0
 11
209.6407864224063
 21
1385.453969983728
 31
0.0
  0
SOLID
  5
595
330
4AB
100
AcDbEntity
  8
Bemaßungen(DIN)
  6
Continuous
 62
     7
100
AcDbTrace
 10
204.307453089073
 20
1581.453969983623
 30
0.0
 11
214.9741197557397
 21
1581.453969983623
 31
0.0
 12
209.6407864224063
 22
1549.453969983623
 32
0.0
 13
209.6407864224063
 23
1549.453969983623
 33
0.0
  0
SOLID
  5
596
330
4AB
100
AcDbEntity
  8
Bemaßungen(DIN)
  6
Continuous
 62
     7
100
AcDbTrace
 10
204.307453089073
 20
1417.453969983728
 30
0.0
 11
214.9741197557397
 21
1417.453969983728
 31
0.0
 12
209.6407864224063
 22
1449.453969983728
 32
0.0
 13
209.6407864224063
 23
1449.453969983728
 33
0.0
  0
MTEXT
  5
597
330
4AB
100
AcDbEntity
  8
Bemaßungen(DIN)
  6
Continuous
 62
     7
370
    30
100
AcDbMText
 10
179.2298731761784
 20
1499.453969983675
 30
0.0
 40
32.0
 41
0.0
 71
     4
 72
     1
  1
\A1;100
  7
Text__4.0mm
 73
     1
 44
1.0
  0
POINT
  5
598
330
4AB
100
AcDbEntity
  8
Defpoints
  6
Continuous
 62
     0
100
AcDbPoint
 10
264.9807026928561
 20
1549.453969983623
 30
0.0
  0
POINT
  5
599
330
4AB
100
AcDbEntity
  8
Defpoints
  6
Continuous
 62
     0
100
AcDbPoint
 10
289.9807026771294
 20
1449.453969983728
 30
0.0
  0
POINT
  5
59A
330
4AB
100
AcDbEntity
  8
Defpoints
  6
Continuous
 62
     0
100
AcDbPoint
 10
209.6407864224063
 20
1449.453969983728
 30
0.0
  0
ENDBLK
  5
4AD
330
4AB
100
AcDbEntity
  8
0
100
AcDbBlockEnd
  0
BLOCK
  5
59D
330
59C
100
AcDbEntity
  8
0
100
AcDbBlockBegin
  2
*D14
 70
     1
 10
0.0
 20
0.0
 30
0.0
  3
*D14
  1

  0
LINE
  5
681
330
59C
100
AcDbEntity
  8
Bemaßungen(DIN)
  6
Continuous
 62
     7
370
    25
100
AcDbLine
 10
503.9807026769067
 20
844.2085881206878
 30
0.0
 11
192.8255867259729
 21
844.208588120688
 31
0.0
  0
LINE
  5
682
330
59C
100
AcDbEntity
  8
Bemaßungen(DIN)
  6
Continuous
 62
     7
370
    25
100
AcDbLine
 10
273.9807026769069
 20
989.2085881206879
 30
0.0
 11
192.825586725973
 21
989.2085881206879
 31
0.0
  0
LINE
  5
683
330
59C
100
AcDbEntity
  8
Bemaßungen(DIN)
  6
Continuous
 62
     7
370
    25
100
AcDbLine
 10
208.825586725973
 20
876.208588120688
 30
0.0
 11
208.825586725973
 21
892.3702525135936
 31
0.0
  0
LINE
  5
684
330
59C
100
AcDbEntity
  8
Bemaßungen(DIN)
  6
Continuous
 62
     7
370
    25
100
AcDbLine
 10
208.825586725973
 20
957.2085881206879
 30
0.0
 11
208.825586725973
 21
941.0469237277819
 31
0.0
  0
SOLID
  5
685
330
59C
100
AcDbEntity
  8
Bemaßungen(DIN)
  6
Continuous
 62
     7
100
AcDbTrace
 10
203.4922533926396
 20
876.208588120688
 30
0.0
 11
214.1589200593063
 21
876.208588120688
 31
0.0
 12
208.825586725973
 22
844.208588120688
 32
0.0
 13
208.825586725973
 23
844.208588120688
 33
0.0
  0
SOLID
  5
686
330
59C
100
AcDbEntity
  8
Bemaßungen(DIN)
  6
Continuous
 62
     7
100
AcDbTrace
 10
203.4922533926396
 20
957.2085881206879
 30
0.0
 11
214.1589200593063
 21
957.2085881206879
 31
0.0
 12
208.825586725973
 22
989.2085881206879
 32
0.0
 13
208.825586725973
 23
989.2085881206879
 33
0.0
  0
MTEXT
  5
687
330
59C
100
AcDbEntity
  8
Bemaßungen(DIN)
  6
Continuous
 62
     7
370
    30
100
AcDbMText
 10
178.2575111373874
 20
916.7085881206878
 30
0.0
 40
32.0
 41
0.0
 71
     4
 72
     1
  1
\A1;145
  7
Text__4.0mm
 73
     1
 44
1.0
  0
POINT
  5
688
330
59C
100
AcDbEntity
  8
Defpoints
  6
Continuous
 62
     0
100
AcDbPoint
 10
519.9807026769068
 20
844.2085881206878
 30
0.0
  0
POINT
  5
689
330
59C
100
AcDbEntity
  8
Defpoints
  6
Continuous
 62
     0
100
AcDbPoint
 10
289.9807026769068
 20
989.2085881206879
 30
0.0
  0
POINT
  5
68A
330
59C
100
AcDbEntity
  8
Defpoints
  6
Continuous
 62
     0
100
AcDbPoint
 10
208.825586725973
 20
989.2085881206879
 30
0.0
  0
ENDBLK
  5
59E
330
59C
100
AcDbEntity
  8
0
100
AcDbBlockEnd
  0
BLOCK
  5
68F
330
68E
100
AcDbEntity
  8
0
100
AcDbBlockBegin
  2
*D15
 70
     1
 10
0.0
 20
0.0
 30
0.0
  3
*D15
  1

  0
LINE
  5
76D
330
68E
100
AcDbEntity
  8
Bemaßungen(DIN)
  6
Continuous
 62
     7
370
    25
100
AcDbLine
 10
1127.894522460156
 20
1713.453969983718
 30
0.0
 11
1127.894522460156
 21
1761.611346173016
 31
0.0
  0
LINE
  5
76E
330
68E
100
AcDbEntity
  8
Bemaßungen(DIN)
  6
Continuous
 62
     7
370
    25
100
AcDbLine
 10
1097.894522460156
 20
1715.453969983727
 30
0.0
 11
1097.894522460156
 21
1761.611346173016
 31
0.0
  0
LINE
  5
76F
330
68E
100
AcDbEntity
  8
Bemaßungen(DIN)
  6
Continuous
 62
     7
370
    25
100
AcDbLine
 10
1065.894522460156
 20
1745.611346173016
 30
0.0
 11
1033.894522460156
 21
1745.611346173016
 31
0.0
  0
LINE
  5
770
330
68E
100
AcDbEntity
  8
Bemaßungen(DIN)
  6
Continuous
 62
     7
370
    25
100
AcDbLine
 10
1159.894522460156
 20
1745.611346173016
 30
0.0
 11
1191.894522460156
 21
1745.611346173016
 31
0.0
  0
SOLID
  5
771
330
68E
100
AcDbEntity
  8
Bemaßungen(DIN)
  6
Continuous
 62
     7
100
AcDbTrace
 10
1065.894522460156
 20
1750.944679506349
 30
0.0
 11
1065.894522460156
 21
1740.278012839683
 31
0.0
 12
1097.894522460156
 22
1745.611346173016
 32
0.0
 13
1097.894522460156
 23
1745.611346173016
 33
0.0
  0
SOLID
  5
772
330
68E
100
AcDbEntity
  8
Bemaßungen(DIN)
  6
Continuous
 62
     7
100
AcDbTrace
 10
1159.894522460156
 20
1750.944679506349
 30
0.0
 11
1159.894522460156
 21
1740.278012839683
 31
0.0
 12
1127.894522460156
 22
1745.611346173016
 32
0.0
 13
1127.894522460156
 23
1745.611346173016
 33
0.0
  0
MTEXT
  5
773
330
68E
100
AcDbEntity
  8
Bemaßungen(DIN)
  6
Continuous
 62
     7
370
    30
100
AcDbMText
 10
1199.894522460156
 20
1745.611346173016
 30
0.0
 40
32.0
 41
0.0
 71
     4
 72
     1
  1
\A1;30
  7
Text__4.0mm
 73
     1
 44
1.0
  0
POINT
  5
774
330
68E
100
AcDbEntity
  8
Defpoints
  6
Continuous
 62
     0
100
AcDbPoint
 10
1127.894522460156
 20
1697.453969983718
 30
0.0
  0
POINT
  5
775
330
68E
100
AcDbEntity
  8
Defpoints
  6
Continuous
 62
     0
100
AcDbPoint
 10
1097.894522460156
 20
1699.453969983727
 30
0.0
  0
POINT
  5
776
330
68E
100
AcDbEntity
  8
Defpoints
  6
Continuous
 62
     0
100
AcDbPoint
 10
1097.894522460156
 20
1745.611346173016
 30
0.0
  0
ENDBLK
  5
690
330
68E
100
AcDbEntity
  8
0
100
AcDbBlockEnd
  0
BLOCK
  5
779
330
778
100
AcDbEntity
  8
0
100
AcDbBlockBegin
  2
*D16
 70
     1
 10
0.0
 20
0.0
 30
0.0
  3
*D16
  1

  0
LINE
  5
85D
330
778
100
AcDbEntity
  8
Bemaßungen(DIN)
  6
Continuous
 62
     7
370
    25
100
AcDbLine
 10
765.9807026769067
 20
989.2085881206879
 30
0.0
 11
897.8268194038577
 21
989.2085881206877
 31
0.0
  0
LINE
  5
85E
330
778
100
AcDbEntity
  8
Bemaßungen(DIN)
  6
Continuous
 62
     7
370
    25
100
AcDbLine
 10
730.9807026769067
 20
609.2085881206878
 30
0.0
 11
897.8268194038575
 21
609.2085881206877
 31
0.0
  0
LINE
  5
85F
330
778
100
AcDbEntity
  8
Bemaßungen(DIN)
  6
Continuous
 62
     7
370
    25
100
AcDbLine
 10
881.8268194038576
 20
957.2085881206877
 30
0.0
 11
881.8268194038576
 21
823.5578377796235
 31
0.0
  0
LINE
  5
860
330
778
100
AcDbEntity
  8
Bemaßungen(DIN)
  6
Continuous
 62
     7
370
    25
100
AcDbLine
 10
881.8268194038576
 20
641.2085881206877
 30
0.0
 11
881.8268194038576
 21
774.8593384617517
 31
0.0
  0
SOLID
  5
861
330
778
100
AcDbEntity
  8
Bemaßungen(DIN)
  6
Continuous
 62
     7
100
AcDbTrace
 10
876.4934860705244
 20
957.2085881206877
 30
0.0
 11
887.1601527371911
 21
957.2085881206877
 31
0.0
 12
881.8268194038576
 22
989.2085881206877
 32
0.0
 13
881.8268194038576
 23
989.2085881206877
 33
0.0
  0
SOLID
  5
862
330
778
100
AcDbEntity
  8
Bemaßungen(DIN)
  6
Continuous
 62
     7
100
AcDbTrace
 10
876.4934860705242
 20
641.2085881206877
 30
0.0
 11
887.1601527371909
 21
641.2085881206877
 31
0.0
 12
881.8268194038576
 22
609.2085881206877
 32
0.0
 13
881.8268194038576
 23
609.2085881206877
 33
0.0
  0
MTEXT
  5
863
330
778
100
AcDbEntity
  8
Bemaßungen(DIN)
  6
Continuous
 62
     7
370
    30
100
AcDbMText
 10
850.0702036011913
 20
799.2085881206878
 30
0.0
 40
32.0
 41
0.0
 71
     4
 72
     1
  1
\A1;380
  7
Text__4.0mm
 73
     1
 44
1.0
  0
POINT
  5
864
330
778
100
AcDbEntity
  8
Defpoints
  6
Continuous
 62
     0
100
AcDbPoint
 10
749.9807026769067
 20
989.2085881206879
 30
0.0
  0
POINT
  5
865
330
778
100
AcDbEntity
  8
Defpoints
  6
Continuous
 62
     0
100
AcDbPoint
 10
714.9807026769067
 20
609.2085881206878
 30
0.0
  0
POINT
  5
866
330
778
100
AcDbEntity
  8
Defpoints
  6
Continuous
 62
     0
100
AcDbPoint
 10
881.8268194038576
 20
609.2085881206877
 30
0.0
  0
ENDBLK
  5
77A
330
778
100
AcDbEntity
  8
0
100
AcDbBlockEnd
  0
BLOCK
  5
873
330
872
100
AcDbEntity
  8
0
100
AcDbBlockBegin
  2
*D17
 70
     1
 10
0.0
 20
0.0
 30
0.0
  3
*D17
  1

  0
LINE
  5
951
330
872
100
AcDbEntity
  8
Bemaßungen(DIN)
  6
Continuous
 62
     7
370
    25
100
AcDbLine
 10
499.9807026771294
 20
1146.453969983728
 30
0.0
 11
499.9807026771294
 21
1091.453969983728
 31
0.0
  0
LINE
  5
952
330
872
100
AcDbEntity
  8
Bemaßungen(DIN)
  6
Continuous
 62
     7
370
    25
100
AcDbLine
 10
539.9807026771294
 20
1146.453969983728
 30
0.0
 11
539.9807026771294
 21
1091.453969983728
 31
0.0
  0
LINE
  5
953
330
872
100
AcDbEntity
  8
Bemaßungen(DIN)
  6
Continuous
 62
     7
370
    25
100
AcDbLine
 10
467.9807026771293
 20
1107.453969983728
 30
0.0
 11
435.9807026771293
 21
1107.453969983728
 31
0.0
  0
LINE
  5
954
330
872
100
AcDbEntity
  8
Bemaßungen(DIN)
  6
Continuous
 62
     7
370
    25
100
AcDbLine
 10
571.9807026771294
 20
1107.453969983728
 30
0.0
 11
627.6181402603677
 21
1107.453969983728
 31
0.0
  0
SOLID
  5
955
330
872
100
AcDbEntity
  8
Bemaßungen(DIN)
  6
Continuous
 62
     7
100
AcDbTrace
 10
467.9807026771293
 20
1112.787303317061
 30
0.0
 11
467.9807026771293
 21
1102.120636650394
 31
0.0
 12
499.9807026771294
 22
1107.453969983728
 32
0.0
 13
499.9807026771294
 23
1107.453969983728
 33
0.0
  0
SOLID
  5
956
330
872
100
AcDbEntity
  8
Bemaßungen(DIN)
  6
Continuous
 62
     7
100
AcDbTrace
 10
571.9807026771294
 20
1112.787303317061
 30
0.0
 11
571.9807026771294
 21
1102.120636650394
 31
0.0
 12
539.9807026771294
 22
1107.453969983728
 32
0.0
 13
539.9807026771294
 23
1107.453969983728
 33
0.0
  0
MTEXT
  5
957
330
872
100
AcDbEntity
  8
Bemaßungen(DIN)
  6
Continuous
 62
     7
370
    30
100
AcDbMText
 10
635.6181402603677
 20
1107.453969983728
 30
0.0
 40
32.0
 41
0.0
 71
     4
 72
     1
  1
\A1;40
  7
Text__4.0mm
 73
     1
 44
1.0
  0
POINT
  5
958
330
872
100
AcDbEntity
  8
Defpoints
  6
Continuous
 62
     0
100
AcDbPoint
 10
499.9807026771294
 20
1162.453969983728
 30
0.0
  0
POINT
  5
959
330
872
100
AcDbEntity
  8
Defpoints
  6
Continuous
 62
     0
100
AcDbPoint
 10
539.9807026771294
 20
1162.453969983728
 30
0.0
  0
POINT
  5
95A
330
872
100
AcDbEntity
  8
Defpoints
  6
Continuous
 62
     0
100
AcDbPoint
 10
539.9807026771294
 20
1107.453969983728
 30
0.0
  0
ENDBLK
  5
874
330
872
100
AcDbEntity
  8
0
100
AcDbBlockEnd
  0
BLOCK
  5
95D
330
95C
100
AcDbEntity
  8
0
100
AcDbBlockBegin
  2
*D18
 70
     1
 10
0.0
 20
0.0
 30
0.0
  3
*D18
  1

  0
LINE
  5
A41
330
95C
100
AcDbEntity
  8
Bemaßungen(DIN)
  6
Continuous
 62
     7
370
    25
100
AcDbLine
 10
580.9807026771294
 20
1187.453969983728
 30
0.0
 11
840.8498988565025
 21
1187.453969983728
 31
0.0
  0
LINE
  5
A42
330
95C
100
AcDbEntity
  8
Bemaßungen(DIN)
  6
Continuous
 62
     7
370
    25
100
AcDbLine
 10
710.9807026771294
 20
1667.453969983728
 30
0.0
 11
840.8498988565025
 21
1667.453969983728
 31
0.0
  0
LINE
  5
A43
330
95C
100
AcDbEntity
  8
Bemaßungen(DIN)
  6
Continuous
 62
     7
370
    25
100
AcDbLine
 10
824.8498988565025
 20
1219.453969983728
 30
0.0
 11
824.8498988565026
 21
1364.304356412813
 31
0.0
  0
LINE
  5
A44
330
95C
100
AcDbEntity
  8
Bemaßungen(DIN)
  6
Continuous
 62
     7
370
    25
100
AcDbLine
 10
824.8498988565026
 20
1635.453969983728
 30
0.0
 11
824.8498988565026
 21
1412.981027627001
 31
0.0
  0
SOLID
  5
A45
330
95C
100
AcDbEntity
  8
Bemaßungen(DIN)
  6
Continuous
 62
     7
100
AcDbTrace
 10
819.516565523169
 20
1219.453969983728
 30
0.0
 11
830.1832321898357
 21
1219.453969983728
 31
0.0
 12
824.8498988565025
 22
1187.453969983728
 32
0.0
 13
824.8498988565025
 23
1187.453969983728
 33
0.0
  0
SOLID
  5
A46
330
95C
100
AcDbEntity
  8
Bemaßungen(DIN)
  6
Continuous
 62
     7
100
AcDbTrace
 10
819.5165655231692
 20
1635.453969983728
 30
0.0
 11
830.1832321898359
 21
1635.453969983728
 31
0.0
 12
824.8498988565026
 22
1667.453969983728
 32
0.0
 13
824.8498988565026
 23
1667.453969983728
 33
0.0
  0
MTEXT
  5
A47
330
95C
100
AcDbEntity
  8
Bemaßungen(DIN)
  6
Continuous
 62
     7
370
    30
100
AcDbMText
 10
792.5039242699947
 20
1388.642692019907
 30
0.0
 40
32.0
 41
0.0
 71
     4
 72
     1
  1
\A1;480
  7
Text__4.0mm
 73
     1
 44
1.0
  0
POINT
  5
A48
330
95C
100
AcDbEntity
  8
Defpoints
  6
Continuous
 62
     0
100
AcDbPoint
 10
564.9807026771294
 20
1187.453969983728
 30
0.0
  0
POINT
  5
A49
330
95C
100
AcDbEntity
  8
Defpoints
  6
Continuous
 62
     0
100
AcDbPoint
 10
694.9807026771294
 20
1667.453969983728
 30
0.0
  0
POINT
  5
A4A
330
95C
100
AcDbEntity
  8
Defpoints
  6
Continuous
 62
     0
100
AcDbPoint
 10
824.8498988565026
 20
1667.453969983728
 30
0.0
  0
ENDBLK
  5
95E
330
95C
100
AcDbEntity
  8
0
100
AcDbBlockEnd
  0
BLOCK
  5
A4D
330
A4C
100
AcDbEntity
  8
0
100
AcDbBlockBegin
  2
*D19
 70
     1
 10
0.0
 20
0.0
 30
0.0
  3
*D19
  1

  0
LINE
  5
B2B
330
A4C
100
AcDbEntity
  8
Bemaßungen(DIN)
  6
Continuous
 62
     7
370
    25
100
AcDbLine
 10
289.9807026769068
 20
1005.208588120688
 30
0.0
 11
289.9807026769068
 21
1048.587785638045
 31
0.0
  0
LINE
  5
B2C
330
A4C
100
AcDbEntity
  8
Bemaßungen(DIN)
  6
Continuous
 62
     7
370
    25
100
AcDbLine
 10
749.9807026769067
 20
1005.208588120688
 30
0.0
 11
749.9807026769067
 21
1048.587785638045
 31
0.0
  0
LINE
  5
B2D
330
A4C
100
AcDbEntity
  8
Bemaßungen(DIN)
  6
Continuous
 62
     7
370
    25
100
AcDbLine
 10
321.9807026769069
 20
1032.587785638045
 30
0.0
 11
479.6347280903991
 21
1032.587785638045
 31
0.0
  0
LINE
  5
B2E
330
A4C
100
AcDbEntity
  8
Bemaßungen(DIN)
  6
Continuous
 62
     7
370
    25
100
AcDbLine
 10
717.9807026769067
 20
1032.587785638045
 30
0.0
 11
560.3266772634143
 21
1032.587785638045
 31
0.0
  0
SOLID
  5
B2F
330
A4C
100
AcDbEntity
  8
Bemaßungen(DIN)
  6
Continuous
 62
     7
100
AcDbTrace
 10
321.9807026769069
 20
1037.921118971379
 30
0.0
 11
321.9807026769069
 21
1027.254452304712
 31
0.0
 12
289.9807026769068
 22
1032.587785638045
 32
0.0
 13
289.9807026769068
 23
1032.587785638045
 33
0.0
  0
SOLID
  5
B30
330
A4C
100
AcDbEntity
  8
Bemaßungen(DIN)
  6
Continuous
 62
     7
100
AcDbTrace
 10
717.9807026769067
 20
1037.921118971379
 30
0.0
 11
717.9807026769067
 21
1027.254452304712
 31
0.0
 12
749.9807026769067
 22
1032.587785638045
 32
0.0
 13
749.9807026769067
 23
1032.587785638045
 33
0.0
  0
MTEXT
  5
B31
330
A4C
100
AcDbEntity
  8
Bemaßungen(DIN)
  6
Continuous
 62
     7
370
    30
100
AcDbMText
 10
487.6347280903991
 20
1032.587785638045
 30
0.0
 40
32.0
 41
0.0
 71
     4
 72
     1
  1
\A1;460
  7
Text__4.0mm
 73
     1
 44
1.0
  0
POINT
  5
B32
330
A4C
100
AcDbEntity
  8
Defpoints
  6
Continuous
 62
     0
100
AcDbPoint
 10
289.9807026769068
 20
989.2085881206879
 30
0.0
  0
POINT
  5
B33
330
A4C
100
AcDbEntity
  8
Defpoints
  6
Continuous
 62
     0
100
AcDbPoint
 10
749.9807026769067
 20
989.2085881206879
 30
0.0
  0
POINT
  5
B34
330
A4C
100
AcDbEntity
  8
Defpoints
  6
Continuous
 62
     0
100
AcDbPoint
 10
749.9807026769067
 20
1032.587785638045
 30
0.0
  0
ENDBLK
  5
A4E
330
A4C
100
AcDbEntity
  8
0
100
AcDbBlockEnd
  0
BLOCK
  5
B39
330
B38
100
AcDbEntity
  8
0
100
AcDbBlockBegin
  2
*D20
 70
     1
 10
0.0
 20
0.0
 30
0.0
  3
*D20
  1

  0
LINE
  5
C17
330
B38
100
AcDbEntity
  8
Bemaßungen(DIN)
  6
Continuous
 62
     7
370
    25
100
AcDbLine
 10
1254.718023447424
 20
1133.186547237246
 30
0.0
 11
1254.718023447424
 21
1091.453969983726
 31
0.0
  0
LINE
  5
C18
330
B38
100
AcDbEntity
  8
Bemaßungen(DIN)
  6
Continuous
 62
     7
370
    25
100
AcDbLine
 10
1097.894522460058
 20
1143.791388328796
 30
0.0
 11
1097.894522460058
 21
1091.453969983726
 31
0.0
  0
LINE
  5
C19
330
B38
100
AcDbEntity
  8
Bemaßungen(DIN)
  6
Continuous
 62
     7
370
    25
100
AcDbLine
 10
1286.718023447424
 20
1107.453969983726
 30
0.0
 11
1318.718023447424
 21
1107.453969983726
 31
0.0
  0
LINE
  5
C1A
330
B38
100
AcDbEntity
  8
Bemaßungen(DIN)
  6
Continuous
 62
     7
370
    25
100
AcDbLine
 10
1065.894522460058
 20
1107.453969983726
 30
0.0
 11
1033.894522460058
 21
1107.453969983726
 31
0.0
  0
SOLID
  5
C1B
330
B38
100
AcDbEntity
  8
Bemaßungen(DIN)
  6
Continuous
 62
     7
100
AcDbTrace
 10
1286.718023447424
 20
1112.787303317059
 30
0.0
 11
1286.718023447424
 21
1102.120636650393
 31
0.0
 12
1254.718023447424
 22
1107.453969983726
 32
0.0
 13
1254.718023447424
 23
1107.453969983726
 33
0.0
  0
SOLID
  5
C1C
330
B38
100
AcDbEntity
  8
Bemaßungen(DIN)
  6
Continuous
 62
     7
100
AcDbTrace
 10
1065.894522460058
 20
1112.787303317059
 30
0.0
 11
1065.894522460058
 21
1102.120636650393
 31
0.0
 12
1097.894522460058
 22
1107.453969983726
 32
0.0
 13
1097.894522460058
 23
1107.453969983726
 33
0.0
  0
MTEXT
  5
C1D
330
B38
100
AcDbEntity
  8
Bemaßungen(DIN)
  6
Continuous
 62
     7
370
    30
100
AcDbMText
 10
1145.846246475527
 20
1107.453969983726
 30
0.0
 40
32.0
 41
0.0
 71
     4
 72
     1
  1
\A1;157
  7
Text__4.0mm
 73
     1
 44
1.0
  0
POINT
  5
C1E
330
B38
100
AcDbEntity
  8
Defpoints
  6
Continuous
 62
     0
100
AcDbPoint
 10
1254.718023447424
 20
1149.186547237246
 30
0.0
  0
POINT
  5
C1F
330
B38
100
AcDbEntity
  8
Defpoints
  6
Continuous
 62
     0
100
AcDbPoint
 10
1097.894522460058
 20
1159.791388328796
 30
0.0
  0
POINT
  5
C20
330
B38
100
AcDbEntity
  8
Defpoints
  6
Continuous
 62
     0
100
AcDbPoint
 10
1097.894522460058
 20
1107.453969983726
 30
0.0
  0
ENDBLK
  5
B3A
330
B38
100
AcDbEntity
  8
0
100
AcDbBlockEnd
  0
BLOCK
  5
C23
330
C22
100
AcDbEntity
  8
0
100
AcDbBlockBegin
  2
*D21
 70
     1
 10
0.0
 20
0.0
 30
0.0
  3
*D21
  1

  0
LINE
  5
D07
330
C22
100
AcDbEntity
  8
Bemaßungen(DIN)
  6
Continuous
 62
     7
370
    25
100
AcDbLine
 10
306.6780710981821
 20
1449.453969983623
 30
0.0
 11
193.6407864224063
 21
1449.453969983623
 31
0.0
  0
LINE
  5
D08
330
C22
100
AcDbEntity
  8
Bemaßungen(DIN)
  6
Continuous
 62
     7
370
    25
100
AcDbLine
 10
503.9807026771269
 20
1149.19754931683
 30
0.0
 11
193.6407864224062
 21
1149.19754931683
 31
0.0
  0
LINE
  5
D09
330
C22
100
AcDbEntity
  8
Bemaßungen(DIN)
  6
Continuous
 62
     7
370
    25
100
AcDbLine
 10
209.6407864224063
 20
1417.453969983623
 30
0.0
 11
209.6407864224063
 21
1323.675009309162
 31
0.0
  0
LINE
  5
D0A
330
C22
100
AcDbEntity
  8
Bemaßungen(DIN)
  6
Continuous
 62
     7
370
    25
100
AcDbLine
 10
209.6407864224063
 20
1181.19754931683
 30
0.0
 11
209.6407864224063
 21
1274.97650999129
 31
0.0
  0
SOLID
  5
D0B
330
C22
100
AcDbEntity
  8
Bemaßungen(DIN)
  6
Continuous
 62
     7
100
AcDbTrace
 10
204.307453089073
 20
1417.453969983623
 30
0.0
 11
214.9741197557397
 21
1417.453969983623
 31
0.0
 12
209.6407864224063
 22
1449.453969983623
 32
0.0
 13
209.6407864224063
 23
1449.453969983623
 33
0.0
  0
SOLID
  5
D0C
330
C22
100
AcDbEntity
  8
Bemaßungen(DIN)
  6
Continuous
 62
     7
100
AcDbTrace
 10
204.3074530890729
 20
1181.19754931683
 30
0.0
 11
214.9741197557396
 21
1181.19754931683
 31
0.0
 12
209.6407864224063
 22
1149.19754931683
 32
0.0
 13
209.6407864224063
 23
1149.19754931683
 33
0.0
  0
MTEXT
  5
D0D
330
C22
100
AcDbEntity
  8
Bemaßungen(DIN)
  6
Continuous
 62
     7
370
    30
100
AcDbMText
 10
177.8841706197401
 20
1299.325759650226
 30
0.0
 40
32.0
 41
0.0
 71
     4
 72
     1
  1
\A1;300
  7
Text__4.0mm
 73
     1
 44
1.0
  0
POINT
  5
D0E
330
C22
100
AcDbEntity
  8
Defpoints
  6
Continuous
 62
     0
100
AcDbPoint
 10
322.6780710981821
 20
1449.453969983623
 30
0.0
  0
POINT
  5
D0F
330
C22
100
AcDbEntity
  8
Defpoints
  6
Continuous
 62
     0
100
AcDbPoint
 10
519.9807026771269
 20
1149.19754931683
 30
0.0
  0
POINT
  5
D10
330
C22
100
AcDbEntity
  8
Defpoints
  6
Continuous
 62
     0
100
AcDbPoint
 10
209.6407864224063
 20
1149.19754931683
 30
0.0
  0
ENDBLK
  5
C24
330
C22
100
AcDbEntity
  8
0
100
AcDbBlockEnd
  0
BLOCK
  5
D13
330
D12
100
AcDbEntity
  8
0
100
AcDbBlockBegin
  2
*D22
 70
     1
 10
0.0
 20
0.0
 30
0.0
  3
*D22
  1

  0
LINE
  5
E04
330
D12
100
AcDbEntity
  8
Bemaßungen(DIN)
  6
Continuous
 62
     7
370
    25
100
AcDbLine
 10
763.4017553087082
 20
1699.45396998372
 30
0.0
 11
779.4584511328244
 21
1699.45396998372
 31
0.0
  0
LINE
  5
E05
330
D12
100
AcDbEntity
  8
Bemaßungen(DIN)
  6
Continuous
 62
     7
370
    25
100
AcDbLine
 10
710.9807026771294
 20
1667.453969983728
 30
0.0
 11
779.4584511328244
 21
1667.453969983728
 31
0.0
  0
LINE
  5
E06
330
D12
100
AcDbEntity
  8
Bemaßungen(DIN)
  6
Continuous
 62
     7
370
    25
100
AcDbLine
 10
763.4584511328244
 20
1635.453969983728
 30
0.0
 11
763.4584511328244
 21
1603.453969983728
 31
0.0
  0
LINE
  5
E07
330
D12
100
AcDbEntity
  8
Bemaßungen(DIN)
  6
Continuous
 62
     7
370
    25
100
AcDbLine
 10
763.4584511328244
 20
1731.45396998372
 30
0.0
 11
763.4584511328244
 21
1769.860075533018
 31
0.0
  0
LINE
  5
E08
330
D12
100
AcDbEntity
  8
Bemaßungen(DIN)
  6
Continuous
 62
     7
370
    25
100
AcDbLine
 10
763.4584511328244
 20
1769.860075533018
 30
0.0
 11
795.4584511328244
 21
1769.860075533018
 31
0.0
  0
SOLID
  5
E09
330
D12
100
AcDbEntity
  8
Bemaßungen(DIN)
  6
Continuous
 62
     7
100
AcDbTrace
 10
758.125117799491
 20
1635.453969983728
 30
0.0
 11
768.7917844661577
 21
1635.453969983728
 31
0.0
 12
763.4584511328244
 22
1667.453969983728
 32
0.0
 13
763.4584511328244
 23
1667.453969983728
 33
0.0
  0
SOLID
  5
E0A
330
D12
100
AcDbEntity
  8
Bemaßungen(DIN)
  6
Continuous
 62
     7
100
AcDbTrace
 10
758.125117799491
 20
1731.45396998372
 30
0.0
 11
768.7917844661577
 21
1731.45396998372
 31
0.0
 12
763.4584511328244
 22
1699.45396998372
 32
0.0
 13
763.4584511328244
 23
1699.45396998372
 33
0.0
  0
MTEXT
  5
E0B
330
D12
100
AcDbEntity
  8
Bemaßungen(DIN)
  6
Continuous
 62
     7
370
    30
100
AcDbMText
 10
803.4584511328242
 20
1769.860075533019
 30
0.0
 40
32.0
 41
0.0
 71
     4
 72
     1
  1
\A1;32
  7
Text__4.0mm
 73
     1
 44
1.0
  0
POINT
  5
E0C
330
D12
100
AcDbEntity
  8
Defpoints
  6
Continuous
 62
     0
100
AcDbPoint
 10
747.4017553087082
 20
1699.45396998372
 30
0.0
  0
POINT
  5
E0D
330
D12
100
AcDbEntity
  8
Defpoints
  6
Continuous
 62
     0
100
AcDbPoint
 10
694.9807026771294
 20
1667.453969983728
 30
0.0
  0
POINT
  5
E0E
330
D12
100
AcDbEntity
  8
Defpoints
  6
Continuous
 62
     0
100
AcDbPoint
 10
763.4584511328244
 20
1667.453969983728
 30
0.0
  0
ENDBLK
  5
D14
330
D12
100
AcDbEntity
  8
0
100
AcDbBlockEnd
  0
BLOCK
  5
E11
330
E10
100
AcDbEntity
  8
0
100
AcDbBlockBegin
  2
*D23
 70
     1
 10
0.0
 20
0.0
 30
0.0
  3
*D23
  1

  0
LINE
  5
F02
330
E10
100
AcDbEntity
  8
Bemaßungen(DIN)
  6
Continuous
 62
     7
370
    25
100
AcDbLine
 10
535.9807026771269
 20
1149.19754931683
 30
0.0
 11
901.4971015837538
 21
1149.19754931683
 31
0.0
  0
LINE
  5
F03
330
E10
100
AcDbEntity
  8
Bemaßungen(DIN)
  6
Continuous
 62
     7
370
    25
100
AcDbLine
 10
580.9807026771294
 20
1187.453969983728
 30
0.0
 11
901.4971015837538
 21
1187.453969983728
 31
0.0
  0
LINE
  5
F04
330
E10
100
AcDbEntity
  8
Bemaßungen(DIN)
  6
Continuous
 62
     7
370
    25
100
AcDbLine
 10
885.4971015837538
 20
1219.453969983728
 30
0.0
 11
885.4971015837538
 21
1251.453969983728
 31
0.0
  0
LINE
  5
F05
330
E10
100
AcDbEntity
  8
Bemaßungen(DIN)
  6
Continuous
 62
     7
370
    25
100
AcDbLine
 10
885.4971015837538
 20
1117.19754931683
 30
0.0
 11
885.4971015837538
 21
1068.703646600044
 31
0.0
  0
LINE
  5
F06
330
E10
100
AcDbEntity
  8
Bemaßungen(DIN)
  6
Continuous
 62
     7
370
    25
100
AcDbLine
 10
885.4971015837538
 20
1068.703646600044
 30
0.0
 11
853.4971015837539
 21
1068.703646600044
 31
0.0
  0
SOLID
  5
F07
330
E10
100
AcDbEntity
  8
Bemaßungen(DIN)
  6
Continuous
 62
     7
100
AcDbTrace
 10
880.1637682504205
 20
1219.453969983728
 30
0.0
 11
890.8304349170872
 21
1219.453969983728
 31
0.0
 12
885.4971015837538
 22
1187.453969983728
 32
0.0
 13
885.4971015837538
 23
1187.453969983728
 33
0.0
  0
SOLID
  5
F08
330
E10
100
AcDbEntity
  8
Bemaßungen(DIN)
  6
Continuous
 62
     7
100
AcDbTrace
 10
880.1637682504205
 20
1117.19754931683
 30
0.0
 11
890.8304349170872
 21
1117.19754931683
 31
0.0
 12
885.4971015837538
 22
1149.19754931683
 32
0.0
 13
885.4971015837538
 23
1149.19754931683
 33
0.0
  0
MTEXT
  5
F09
330
E10
100
AcDbEntity
  8
Bemaßungen(DIN)
  6
Continuous
 62
     7
370
    30
100
AcDbMText
 10
804.2026961292508
 20
1068.703646600044
 30
0.0
 40
32.0
 41
0.0
 71
     4
 72
     1
  1
\A1;38
  7
Text__4.0mm
 73
     1
 44
1.0
  0
POINT
  5
F0A
330
E10
100
AcDbEntity
  8
Defpoints
  6
Continuous
 62
     0
100
AcDbPoint
 10
519.9807026771269
 20
1149.19754931683
 30
0.0
  0
POINT
  5
F0B
330
E10
100
AcDbEntity
  8
Defpoints
  6
Continuous
 62
     0
100
AcDbPoint
 10
564.9807026771294
 20
1187.453969983728
 30
0.0
  0
POINT
  5
F0C
330
E10
100
AcDbEntity
  8
Defpoints
  6
Continuous
 62
     0
100
AcDbPoint
 10
885.4971015837538
 20
1187.453969983728
 30
0.0
  0
ENDBLK
  5
E12
330
E10
100
AcDbEntity
  8
0
100
AcDbBlockEnd
  0
BLOCK
  5
F11
330
F10
100
AcDbEntity
  8
0
100
AcDbBlockBegin
  2
*D24
 70
     1
 10
0.0
 20
0.0
 30
0.0
  3
*D24
  1

  0
LINE
  5
FEF
330
F10
100
AcDbEntity
  8
Bemaßungen(DIN)
  6
Continuous
 62
     7
370
    25
100
AcDbLine
 10
369.9807026771294
 20
1708.453969983728
 30
0.0
 11
369.9807026771294
 21
1763.453969983728
 31
0.0
  0
LINE
  5
FF0
330
F10
100
AcDbEntity
  8
Bemaßungen(DIN)
  6
Continuous
 62
     7
370
    25
100
AcDbLine
 10
469.9807026771294
 20
1708.453969983728
 30
0.0
 11
469.9807026771294
 21
1763.453969983728
 31
0.0
  0
LINE
  5
FF1
330
F10
100
AcDbEntity
  8
Bemaßungen(DIN)
  6
Continuous
 62
     7
370
    25
100
AcDbLine
 10
437.9807026771294
 20
1747.453969983728
 30
0.0
 11
401.9807026771293
 21
1747.453969983728
 31
0.0
  0
LINE
  5
FF2
330
F10
100
AcDbEntity
  8
Bemaßungen(DIN)
  6
Continuous
 62
     7
370
    25
100
AcDbLine
 10
369.9807026771294
 20
1747.453969983728
 30
0.0
 11
334.0684466919423
 21
1747.453969983728
 31
0.0
  0
SOLID
  5
FF3
330
F10
100
AcDbEntity
  8
Bemaßungen(DIN)
  6
Continuous
 62
     7
100
AcDbTrace
 10
437.9807026771294
 20
1752.787303317061
 30
0.0
 11
437.9807026771294
 21
1742.120636650395
 31
0.0
 12
469.9807026771294
 22
1747.453969983728
 32
0.0
 13
469.9807026771294
 23
1747.453969983728
 33
0.0
  0
SOLID
  5
FF4
330
F10
100
AcDbEntity
  8
Bemaßungen(DIN)
  6
Continuous
 62
     7
100
AcDbTrace
 10
401.9807026771293
 20
1752.787303317061
 30
0.0
 11
401.9807026771293
 21
1742.120636650395
 31
0.0
 12
369.9807026771294
 22
1747.453969983728
 32
0.0
 13
369.9807026771294
 23
1747.453969983728
 33
0.0
  0
MTEXT
  5
FF5
330
F10
100
AcDbEntity
  8
Bemaßungen(DIN)
  6
Continuous
 62
     7
370
    30
100
AcDbMText
 10
265.246620199487
 20
1747.453969983728
 30
0.0
 40
32.0
 41
0.0
 71
     4
 72
     1
  1
\A1;100
  7
Text__4.0mm
 73
     1
 44
1.0
  0
POINT
  5
FF6
330
F10
100
AcDbEntity
  8
Defpoints
  6
Continuous
 62
     0
100
AcDbPoint
 10
369.9807026771294
 20
1692.453969983728
 30
0.0
  0
POINT
  5
FF7
330
F10
100
AcDbEntity
  8
Defpoints
  6
Continuous
 62
     0
100
AcDbPoint
 10
469.9807026771294
 20
1692.453969983728
 30
0.0
  0
POINT
  5
FF8
330
F10
100
AcDbEntity
  8
Defpoints
  6
Continuous
 62
     0
100
AcDbPoint
 10
469.9807026771294
 20
1747.453969983728
 30
0.0
  0
ENDBLK
  5
F12
330
F10
100
AcDbEntity
  8
0
100
AcDbBlockEnd
  0
BLOCK
  5
FFB
330
FFA
100
AcDbEntity
  8
0
100
AcDbBlockBegin
  2
*D25
 70
     1
 10
0.0
 20
0.0
 30
0.0
  3
*D25
  1

  0
LINE
  5
10D9
330
FFA
100
AcDbEntity
  8
Bemaßungen(DIN)
  6
Continuous
 62
     7
370
    25
100
AcDbLine
 10
469.9807026771294
 20
1708.453969983728
 30
0.0
 11
469.9807026771294
 21
1808.206037794011
 31
0.0
  0
LINE
  5
10DA
330
FFA
100
AcDbEntity
  8
Bemaßungen(DIN)
  6
Continuous
 62
     7
370
    25
100
AcDbLine
 10
569.9807026771294
 20
1708.453969983728
 30
0.0
 11
569.9807026771294
 21
1808.206037794011
 31
0.0
  0
LINE
  5
10DB
330
FFA
100
AcDbEntity
  8
Bemaßungen(DIN)
  6
Continuous
 62
     7
370
    25
100
AcDbLine
 10
537.9807026771294
 20
1792.206037794011
 30
0.0
 11
501.9807026771293
 21
1792.206037794011
 31
0.0
  0
LINE
  5
10DC
330
FFA
100
AcDbEntity
  8
Bemaßungen(DIN)
  6
Continuous
 62
     7
370
    25
100
AcDbLine
 10
469.9807026771294
 20
1792.206037794011
 30
0.0
 11
434.0684466919423
 21
1792.206037794011
 31
0.0
  0
SOLID
  5
10DD
330
FFA
100
AcDbEntity
  8
Bemaßungen(DIN)
  6
Continuous
 62
     7
100
AcDbTrace
 10
537.9807026771294
 20
1797.539371127345
 30
0.0
 11
537.9807026771294
 21
1786.872704460678
 31
0.0
 12
569.9807026771294
 22
1792.206037794011
 32
0.0
 13
569.9807026771294
 23
1792.206037794011
 33
0.0
  0
SOLID
  5
10DE
330
FFA
100
AcDbEntity
  8
Bemaßungen(DIN)
  6
Continuous
 62
     7
100
AcDbTrace
 10
501.9807026771293
 20
1797.539371127345
 30
0.0
 11
501.9807026771293
 21
1786.872704460678
 31
0.0
 12
469.9807026771294
 22
1792.206037794011
 32
0.0
 13
469.9807026771294
 23
1792.206037794011
 33
0.0
  0
MTEXT
  5
10DF
330
FFA
100
AcDbEntity
  8
Bemaßungen(DIN)
  6
Continuous
 62
     7
370
    30
100
AcDbMText
 10
365.246620199487
 20
1792.206037794011
 30
0.0
 40
32.0
 41
0.0
 71
     4
 72
     1
  1
\A1;100
  7
Text__4.0mm
 73
     1
 44
1.0
  0
POINT
  5
10E0
330
FFA
100
AcDbEntity
  8
Defpoints
  6
Continuous
 62
     0
100
AcDbPoint
 10
469.9807026771294
 20
1692.453969983728
 30
0.0
  0
POINT
  5
10E1
330
FFA
100
AcDbEntity
  8
Defpoints
  6
Continuous
 62
     0
100
AcDbPoint
 10
569.9807026771294
 20
1692.453969983728
 30
0.0
  0
POINT
  5
10E2
330
FFA
100
AcDbEntity
  8
Defpoints
  6
Continuous
 62
     0
100
AcDbPoint
 10
569.9807026771294
 20
1792.206037794011
 30
0.0
  0
ENDBLK
  5
FFC
330
FFA
100
AcDbEntity
  8
0
100
AcDbBlockEnd
  0
BLOCK
  5
10E5
330
10E4
100
AcDbEntity
  8
0
100
AcDbBlockBegin
  2
*D26
 70
     1
 10
0.0
 20
0.0
 30
0.0
  3
*D26
  1

  0
LINE
  5
11C3
330
10E4
100
AcDbEntity
  8
Bemaßungen(DIN)
  6
Continuous
 62
     7
370
    25
100
AcDbLine
 10
569.9807026771294
 20
1708.453969983728
 30
0.0
 11
569.9807026771294
 21
1763.453969983728
 31
0.0
  0
LINE
  5
11C4
330
10E4
100
AcDbEntity
  8
Bemaßungen(DIN)
  6
Continuous
 62
     7
370
    25
100
AcDbLine
 10
669.9807026771294
 20
1708.453969983728
 30
0.0
 11
669.9807026771294
 21
1763.453969983728
 31
0.0
  0
LINE
  5
11C5
330
10E4
100
AcDbEntity
  8
Bemaßungen(DIN)
  6
Continuous
 62
     7
370
    25
100
AcDbLine
 10
601.9807026771294
 20
1747.453969983728
 30
0.0
 11
637.9807026771294
 21
1747.453969983728
 31
0.0
  0
LINE
  5
11C6
330
10E4
100
AcDbEntity
  8
Bemaßungen(DIN)
  6
Continuous
 62
     7
370
    25
100
AcDbLine
 10
669.9807026771294
 20
1747.453969983728
 30
0.0
 11
701.9807026771294
 21
1747.453969983728
 31
0.0
  0
SOLID
  5
11C7
330
10E4
100
AcDbEntity
  8
Bemaßungen(DIN)
  6
Continuous
 62
     7
100
AcDbTrace
 10
601.9807026771294
 20
1752.787303317061
 30
0.0
 11
601.9807026771294
 21
1742.120636650395
 31
0.0
 12
569.9807026771294
 22
1747.453969983728
 32
0.0
 13
569.9807026771294
 23
1747.453969983728
 33
0.0
  0
SOLID
  5
11C8
330
10E4
100
AcDbEntity
  8
Bemaßungen(DIN)
  6
Continuous
 62
     7
100
AcDbTrace
 10
637.9807026771294
 20
1752.787303317061
 30
0.0
 11
637.9807026771294
 21
1742.120636650395
 31
0.0
 12
669.9807026771294
 22
1747.453969983728
 32
0.0
 13
669.9807026771294
 23
1747.453969983728
 33
0.0
  0
MTEXT
  5
11C9
330
10E4
100
AcDbEntity
  8
Bemaßungen(DIN)
  6
Continuous
 62
     7
370
    30
100
AcDbMText
 10
709.9807026771294
 20
1747.453969983728
 30
0.0
 40
32.0
 41
0.0
 71
     4
 72
     1
  1
\A1;100
  7
Text__4.0mm
 73
     1
 44
1.0
  0
POINT
  5
11CA
330
10E4
100
AcDbEntity
  8
Defpoints
  6
Continuous
 62
     0
100
AcDbPoint
 10
569.9807026771294
 20
1692.453969983728
 30
0.0
  0
POINT
  5
11CB
330
10E4
100
AcDbEntity
  8
Defpoints
  6
Continuous
 62
     0
100
AcDbPoint
 10
669.9807026771294
 20
1692.453969983728
 30
0.0
  0
POINT
  5
11CC
330
10E4
100
AcDbEntity
  8
Defpoints
  6
Continuous
 62
     0
100
AcDbPoint
 10
669.9807026771294
 20
1747.453969983728
 30
0.0
  0
ENDBLK
  5
10E6
330
10E4
100
AcDbEntity
  8
0
100
AcDbBlockEnd
  0
BLOCK
  5
11CF
330
11CE
100
AcDbEntity
  8
0
100
AcDbBlockBegin
  2
*D27
 70
     1
 10
0.0
 20
0.0
 30
0.0
  3
*D27
  1

  0
LINE
  5
12AD
330
11CE
100
AcDbEntity
  8
Bemaßungen(DIN)
  6
Continuous
 62
     7
370
    25
100
AcDbLine
 10
324.9807026769068
 20
593.2085881206878
 30
0.0
 11
324.9807026769068
 21
563.9368601246594
 31
0.0
  0
LINE
  5
12AE
330
11CE
100
AcDbEntity
  8
Bemaßungen(DIN)
  6
Continuous
 62
     7
370
    25
100
AcDbLine
 10
714.9807026769067
 20
593.2085881206878
 30
0.0
 11
714.9807026769067
 21
563.9368601246594
 31
0.0
  0
LINE
  5
12AF
330
11CE
100
AcDbEntity
  8
Bemaßungen(DIN)
  6
Continuous
 62
     7
370
    25
100
AcDbLine
 10
356.9807026769069
 20
579.9368601246595
 30
0.0
 11
480.2240868742408
 21
579.9368601246595
 31
0.0
  0
LINE
  5
12B0
330
11CE
100
AcDbEntity
  8
Bemaßungen(DIN)
  6
Continuous
 62
     7
370
    25
100
AcDbLine
 10
682.9807026769067
 20
579.9368601246595
 30
0.0
 11
559.7373184795729
 21
579.9368601246595
 31
0.0
  0
SOLID
  5
12B1
330
11CE
100
AcDbEntity
  8
Bemaßungen(DIN)
  6
Continuous
 62
     7
100
AcDbTrace
 10
356.9807026769069
 20
585.2701934579928
 30
0.0
 11
356.9807026769069
 21
574.6035267913261
 31
0.0
 12
324.9807026769068
 22
579.9368601246595
 32
0.0
 13
324.9807026769068
 23
579.9368601246595
 33
0.0
  0
SOLID
  5
12B2
330
11CE
100
AcDbEntity
  8
Bemaßungen(DIN)
  6
Continuous
 62
     7
100
AcDbTrace
 10
682.9807026769067
 20
585.2701934579928
 30
0.0
 11
682.9807026769067
 21
574.6035267913261
 31
0.0
 12
714.9807026769067
 22
579.9368601246595
 32
0.0
 13
714.9807026769067
 23
579.9368601246595
 33
0.0
  0
MTEXT
  5
12B3
330
11CE
100
AcDbEntity
  8
Bemaßungen(DIN)
  6
Continuous
 62
     7
370
    30
100
AcDbMText
 10
488.2240868742409
 20
579.9368601246595
 30
0.0
 40
32.0
 41
0.0
 71
     4
 72
     1
  1
\A1;390
  7
Text__4.0mm
 73
     1
 44
1.0
  0
POINT
  5
12B4
330
11CE
100
AcDbEntity
  8
Defpoints
  6
Continuous
 62
     0
100
AcDbPoint
 10
324.9807026769068
 20
609.2085881206878
 30
0.0
  0
POINT
  5
12B5
330
11CE
100
AcDbEntity
  8
Defpoints
  6
Continuous
 62
     0
100
AcDbPoint
 10
714.9807026769067
 20
609.2085881206878
 30
0.0
  0
POINT
  5
12B6
330
11CE
100
AcDbEntity
  8
Defpoints
  6
Continuous
 62
     0
100
AcDbPoint
 10
714.9807026769067
 20
579.9368601246595
 30
0.0
  0
ENDBLK
  5
11D0
330
11CE
100
AcDbEntity
  8
0
100
AcDbBlockEnd
  0
ENDSEC
  0
SECTION
  2
ENTITIES
  0
INSERT
  5
25B
330
77
100
AcDbEntity
  8
0
100
AcDbBlockReference
 66
     1
  2
Title Blocks WS-Marketing-FUN
 10
-676.8
 20
-762.1935401047663
 30
0.0
 41
8.0
 42
8.0
 43
8.0
  0
ATTRIB
  5
25D
102
{ACAD_XDICTIONARY
360
12FF
102
}
330
25B
100
AcDbEntity
  8
Symbols(ISO)
 62
     7
100
AcDbText
 10
973.0259208731242
 20
226.0000000000005
 30
0.0
 40
40.0
  1
G20480N
  7
Text Style20
100
AcDbAttribute
  2
Title_001
 70
     0
  0
ATTRIB
  5
25E
102
{ACAD_XDICTIONARY
360
1302
102
}
330
25B
100
AcDbEntity
  8
Symbols(ISO)
 62
     7
100
AcDbText
 10
976.0000000000005
 20
180.000000238419
 30
0.0
 40
27.99999952316284
  1

  7
Text Style9
 11
976.0000000000005
 21
194.0000000000005
 31
0.0
100
AcDbAttribute
  2
Auxiliary_Remark1
 70
     0
 74
     2
  0
ATTRIB
  5
25F
102
{ACAD_XDICTIONARY
360
1305
102
}
330
25B
100
AcDbEntity
  8
Symbols(ISO)
 62
     7
100
AcDbText
 10
976.0
 20
128.0000002384191
 30
0.0
 40
27.99999952316284
  1

  7
Text Style9
 11
976.0
 21
142.0000000000006
 31
0.0
100
AcDbAttribute
  2
Auxiliary_Remark2
 70
     0
 74
     2
  0
ATTRIB
  5
260
102
{ACAD_XDICTIONARY
360
1308
102
}
330
25B
100
AcDbEntity
  8
Symbols(ISO)
 62
     7
100
AcDbText
 10
1308.0
 20
356.0000000000005
 30
0.0
 40
20.0
  1

  7
Text Style38
 11
1308.0
 21
366.0000000000005
 31
0.0
100
AcDbAttribute
  2
Part_number
 70
     0
 74
     2
  0
ATTRIB
  5
261
102
{ACAD_XDICTIONARY
360
130B
102
}
330
25B
100
AcDbEntity
  8
Symbols(ISO)
 62
     7
100
AcDbText
 10
1065.680763983628
 20
52.27285129604368
 30
0.0
 40
40.0
  1
0093-129729
  7
Text Style20
100
AcDbAttribute
  2
Document_Number_001
 70
     0
  0
ATTRIB
  5
262
102
{ACAD_XDICTIONARY
360
130E
102
}
330
25B
100
AcDbEntity
  8
Symbols(ISO)
 62
     7
100
AcDbText
 10
568.0
 20
325.9999997615818
 30
0.0
 40
16.00000023841858
  1

  7
Text Style40
 11
568.0
 21
342.0000000000003
 31
0.0
100
AcDbAttribute
  2
Revision_Memo_1
 70
     0
 74
     3
  0
ATTRIB
  5
263
102
{ACAD_XDICTIONARY
360
1311
102
}
330
25B
100
AcDbEntity
  8
Symbols(ISO)
 62
     7
100
AcDbText
 10
1440.0
 20
51.9999999999996
 30
0.0
 40
40.0
  1

  7
Text Style20
 11
1440.0
 21
71.9999999999996
 31
0.0
100
AcDbAttribute
  2
Revision_Index_1
 70
     0
 74
     2
  0
ATTRIB
  5
264
102
{ACAD_XDICTIONARY
360
1314
102
}
330
25B
100
AcDbEntity
  8
Symbols(ISO)
 62
     7
100
AcDbText
 10
968.0000000000001
 20
52.00000000000002
 30
0.0
 40
40.0
  1
A4
  7
Text Style20
100
AcDbAttribute
  2
Sheet_Size_001
 70
     0
  0
ATTRIB
  5
265
102
{ACAD_XDICTIONARY
360
1317
102
}
330
25B
100
AcDbEntity
  8
Symbols(ISO)
 62
     7
100
AcDbText
 10
46.99590721559703
 20
358.0054569067934
 30
0.0
 40
16.00000023841858
  1
SS136
  7
Text Style40
100
AcDbAttribute
  2
Drawn_By_001
 70
     0
  0
ATTRIB
  5
266
102
{ACAD_XDICTIONARY
360
131A
102
}
330
25B
100
AcDbEntity
  8
Symbols(ISO)
 62
     7
100
AcDbText
 10
47.99999999999982
 20
297.9999998807914
 30
0.0
 40
16.00000023841858
  1

  7
Text Style40
 11
47.99999999999982
 21
306.0000000000007
 31
0.0
100
AcDbAttribute
  2
Modified_By
 70
     0
 74
     2
  0
ATTRIB
  5
267
102
{ACAD_XDICTIONARY
360
131D
102
}
330
25B
100
AcDbEntity
  8
Symbols(ISO)
 62
     7
100
AcDbText
 10
407.3451568797373
 20
357.9999998807912
 30
0.0
 40
16.00000023841858
  1
21/10/2010
  7
Text Style40
100
AcDbAttribute
  2
Drawn_Date_001
 70
     0
  0
ATTRIB
  5
268
102
{ACAD_XDICTIONARY
360
1320
102
}
330
25B
100
AcDbEntity
  8
Symbols(ISO)
 62
     7
100
AcDbText
 10
408.0
 20
297.9999998807914
 30
0.0
 40
16.00000023841858
  1

  7
Text Style40
 11
408.0
 21
306.0000000000007
 31
0.0
100
AcDbAttribute
  2
Modified_Date
 70
     0
 74
     2
  0
ATTRIB
  5
269
102
{ACAD_XDICTIONARY
360
1323
102
}
330
25B
100
AcDbEntity
  8
Symbols(ISO)
 62
     7
100
AcDbText
 10
568.0
 20
357.999999880791
 30
0.0
 40
16.00000023841858
  1

  7
Text Style40
 11
568.0
 21
366.0000000000002
 31
0.0
100
AcDbAttribute
  2
Revision_Titel_1
 70
     0
 74
     2
  0
ATTRIB
  5
26A
102
{ACAD_XDICTIONARY
360
1326
102
}
330
25B
100
AcDbEntity
  8
Symbols(ISO)
 62
     7
100
AcDbText
 10
1537.893587994543
 20
51.91814461118649
 30
0.0
 40
40.0
  1
1
 41
0.9
  7
Text__5.0mm
100
AcDbAttribute
  2
Sheet_number_001
 70
     0
  0
ATTRIB
  5
26B
102
{ACAD_XDICTIONARY
360
1329
102
}
330
25B
100
AcDbEntity
  8
Symbols(ISO)
 62
     7
100
AcDbText
 10
1596.911323328786
 20
51.9999999999996
 30
0.0
 40
40.0
  1
4
 41
0.9
  7
Text__5.0mm
100
AcDbAttribute
  2
Number_of_sheets_001
 70
     0
  0
ATTRIB
  5
26C
102
{ACAD_XDICTIONARY
360
132C
102
}
330
25B
100
AcDbEntity
  8
Symbols(ISO)
 62
     7
100
AcDbText
 10
968.0000000000001
 20
296.0000000000005
 30
0.0
 40
20.0
  1

  7
Text Style38
 11
968.0000000000001
 21
306.0000000000005
 31
0.0
100
AcDbAttribute
  2
FUN
 70
     0
 74
     2
  0
ATTRIB
  5
26D
102
{ACAD_XDICTIONARY
360
132F
102
}
330
25B
100
AcDbEntity
  8
Symbols(ISO)
 62
     7
100
AcDbText
 10
1306.676671214188
 20
296.1364256480223
 30
0.0
 40
20.0
  1
7612979003390
  7
Text Style38
100
AcDbAttribute
  2
EAN_001
 70
     0
  0
ATTRIB
  5
26E
102
{ACAD_XDICTIONARY
360
1332
102
}
330
25B
100
AcDbEntity
  8
Symbols(ISO)
 62
     7
100
AcDbText
 10
206.1664392632643
 20
300.2155524376802
 30
0.0
 40
16.00000023841858
  1
FSI-Marketing
  7
Text Style40
100
AcDbAttribute
  2
Departement_001
 70
     0
  0
ATTRIB
  5
26F
102
{ACAD_XDICTIONARY
360
1335
102
}
330
25B
100
AcDbEntity
  8
Symbols(ISO)
 62
     7
100
AcDbText
 10
206.1664392632643
 20
360.2155524376801
 30
0.0
 40
16.00000023841858
  1
FSI-Marketing
  7
Text Style40
100
AcDbAttribute
  2
Departement_001
 70
     0
  0
SEQEND
  5
25C
330
25B
100
AcDbEntity
  8
0
  0
INSERT
  5
27B
330
77
100
AcDbEntity
  8
0
100
AcDbBlockReference
  2
Borders Verkauf Border_85x80
 10
0.0
 20
0.0
 30
0.0
 41
8.0
 42
8.0
 43
8.0
  0
LINE
  5
27C
330
77
100
AcDbEntity
  8
MaVisibleEdge
100
AcDbLine
 10
289.9807026769068
 20
989.2085881206879
 30
0.0
 11
749.9807026769067
 21
989.2085881206879
 31
0.0
  0
LINE
  5
27D
330
77
100
AcDbEntity
  8
MaVisibleEdge
100
AcDbLine
 10
292.5596500453279
 20
961.2085881206878
 30
0.0
 11
289.9807026769068
 21
989.2085881206879
 31
0.0
  0
LINE
  5
27E
330
77
100
AcDbEntity
  8
MaVisibleEdge
100
AcDbLine
 10
749.9807026769067
 20
989.2085881206879
 30
0.0
 11
747.4017553084856
 21
961.2085881206878
 31
0.0
  0
LINE
  5
27F
330
77
100
AcDbEntity
  8
MaVisibleEdge
100
AcDbLine
 10
292.7438605716437
 20
959.2085881206877
 30
0.0
 11
747.21754478217
 21
959.2085881206878
 31
0.0
  0
LINE
  5
280
330
77
100
AcDbEntity
  8
MaVisibleEdge
100
AcDbLine
 10
747.4017553084856
 20
961.2085881206878
 30
0.0
 11
747.2175447821699
 21
959.2085881206878
 31
0.0
  0
LINE
  5
281
330
77
100
AcDbEntity
  8
MaVisibleEdge
100
AcDbLine
 10
292.7438605716437
 20
959.2085881206877
 30
0.0
 11
292.559650045328
 21
961.2085881206878
 31
0.0
  0
CIRCLE
  5
282
330
77
100
AcDbEntity
  8
MaVisibleEdge
100
AcDbCircle
 10
519.9807026769068
 20
844.2085881206878
 30
0.0
 40
21.77444855922427
  0
LINE
  5
283
330
77
100
AcDbEntity
  8
MaVisibleEdge thinFlag
100
AcDbLine
 10
339.653770085187
 20
844.3228210064807
 30
0.0
 11
339.6537700851871
 21
724.0943552348949
 31
0.0
  0
LINE
  5
284
330
77
100
AcDbEntity
  8
MaVisibleEdge thinFlag
100
AcDbLine
 10
341.6461594813705
 20
724.0943552348949
 30
0.0
 11
341.5902617582908
 21
724.0943552348949
 31
0.0
  0
LINE
  5
285
330
77
100
AcDbEntity
  8
MaVisibleEdge thinFlag
100
AcDbLine
 10
341.5902617582907
 20
844.3228210064807
 30
0.0
 11
341.6461594813705
 21
844.3228210064807
 31
0.0
  0
ELLIPSE
  5
286
330
77
100
AcDbEntity
  8
MaVisibleEdge thinFlag
100
AcDbEllipse
 10
415.4421678197097
 20
843.7471229778848
 30
0.0
 11
-53.79364489571432
 21
53.7936448957143
 31
0.0
210
0.0
220
0.0
230
1.0
 40
0.9924325091389668
 41
5.501585242055419
 42
7.064785372303751
  0
LINE
  5
287
330
77
100
AcDbEntity
  8
MaVisibleEdge thinFlag
100
AcDbLine
 10
414.8664697911138
 20
917.5990290393039
 30
0.0
 11
414.8664697911138
 21
917.5431313162242
 31
0.0
  0
LINE
  5
288
330
77
100
AcDbEntity
  8
MaVisibleEdge thinFlag
100
AcDbLine
 10
625.0949355626998
 20
919.5355207124077
 30
0.0
 11
414.8664697911138
 21
919.5355207124077
 31
0.0
  0
LINE
  5
289
330
77
100
AcDbEntity
  8
MaVisibleEdge thinFlag
100
AcDbLine
 10
625.0949355626998
 20
917.5990290393039
 30
0.0
 11
625.0949355626998
 21
917.5431313162242
 31
0.0
  0
ELLIPSE
  5
28A
330
77
100
AcDbEntity
  8
MaVisibleEdge thinFlag
100
AcDbEllipse
 10
624.5192375341038
 20
843.7471229778848
 30
0.0
 11
53.7936448957143
 21
53.7936448957143
 31
0.0
210
0.0
220
0.0
230
0.9999999999999998
 40
0.9924325091389672
 41
5.50158524205542
 42
7.064785372303752
  0
LINE
  5
28B
330
77
100
AcDbEntity
  8
MaVisibleEdge thinFlag
100
AcDbLine
 10
698.3711435955228
 20
844.3228210064807
 30
0.0
 11
698.315245872443
 21
844.3228210064807
 31
0.0
  0
LINE
  5
28C
330
77
100
AcDbEntity
  8
MaVisibleEdge thinFlag
100
AcDbLine
 10
700.3076352686265
 20
724.0943552348949
 30
0.0
 11
700.3076352686265
 21
844.3228210064807
 31
0.0
  0
ELLIPSE
  5
28D
330
77
100
AcDbEntity
  8
MaVisibleEdge thinFlag
100
AcDbEllipse
 10
624.5192375341038
 20
724.6700532634908
 30
0.0
 11
53.79364489571432
 21
-53.7936448957143
 31
0.0
210
0.0
220
0.0
230
1.0
 40
0.9924325091389668
 41
5.501585242055417
 42
7.064785372303751
  0
LINE
  5
28E
330
77
100
AcDbEntity
  8
MaVisibleEdge thinFlag
100
AcDbLine
 10
414.8664697911138
 20
648.881655528968
 30
0.0
 11
625.0949355626998
 21
648.881655528968
 31
0.0
  0
ELLIPSE
  5
28F
330
77
100
AcDbEntity
  8
MaVisibleEdge thinFlag
100
AcDbEllipse
 10
415.4421678197097
 20
724.6700532634908
 30
0.0
 11
-53.7936448957143
 21
-53.7936448957143
 31
0.0
210
0.0
220
0.0
230
0.9999999999999998
 40
0.9924325091389668
 41
5.50158524205542
 42
7.064785372303751
  0
CIRCLE
  5
290
330
77
100
AcDbEntity
  8
MaVisibleEdge thinFlag
100
AcDbCircle
 10
519.9807026769068
 20
844.2085881206878
 30
0.0
 40
35.18612171769279
  0
LINE
  5
291
330
77
100
AcDbEntity
  8
MaVisibleEdge
100
AcDbLine
 10
324.980702676907
 20
609.2085881206878
 30
0.0
 11
322.6780710979596
 21
634.2085881206878
 31
0.0
  0
LINE
  5
292
330
77
100
AcDbEntity
  8
MaVisibleEdge
100
AcDbLine
 10
324.9807026769068
 20
609.2085881206878
 30
0.0
 11
714.9807026769067
 21
609.2085881206878
 31
0.0
  0
LINE
  5
293
330
77
100
AcDbEntity
  8
MaVisibleEdge
100
AcDbLine
 10
717.2833342558542
 20
634.2085881206878
 30
0.0
 11
714.9807026769067
 21
609.2085881206878
 31
0.0
  0
LINE
  5
294
330
77
100
AcDbEntity
  8
MaVisibleEdge
100
AcDbLine
 10
717.2833342558542
 20
634.2085881206878
 30
0.0
 11
744.9149132032227
 21
934.2085881206878
 31
0.0
  0
LINE
  5
295
330
77
100
AcDbEntity
  8
MaVisibleEdge
100
AcDbLine
 10
295.0464921505911
 20
934.2085881206877
 30
0.0
 11
322.6780710979596
 21
634.2085881206878
 31
0.0
  0
LINE
  5
296
330
77
100
AcDbEntity
  8
MaVisibleEdge
100
AcDbLine
 10
292.7438605716437
 20
959.2085881206877
 30
0.0
 11
295.0464921505911
 21
934.2085881206877
 31
0.0
  0
LINE
  5
297
330
77
100
AcDbEntity
  8
MaVisibleEdge
100
AcDbLine
 10
744.9149132032227
 20
934.2085881206878
 30
0.0
 11
747.21754478217
 21
959.2085881206878
 31
0.0
  0
LINE
  5
298
330
77
100
AcDbEntity
  8
MaVisibleEdge
100
AcDbLine
 10
749.9807026771293
 20
1449.453969983728
 30
0.0
 11
749.9807026771293
 21
1699.453969983728
 31
0.0
  0
LINE
  5
299
330
77
100
AcDbEntity
  8
MaVisibleEdge
100
AcDbLine
 10
289.9807026771294
 20
1699.453969983728
 30
0.0
 11
289.9807026771294
 21
1449.453969983728
 31
0.0
  0
LINE
  5
29A
330
77
100
AcDbEntity
  8
MaVisibleEdge
100
AcDbLine
 10
717.2833342560767
 20
1549.453969983623
 30
0.0
 11
744.9149132034452
 21
1549.453969983712
 31
0.0
  0
LINE
  5
29B
330
77
100
AcDbEntity
  8
MaVisibleEdge
100
AcDbLine
 10
295.0464921508136
 20
1549.453969983712
 30
0.0
 11
322.6780710981821
 21
1549.453969983623
 31
0.0
  0
LINE
  5
29C
330
77
100
AcDbEntity
  8
MaVisibleEdge
100
AcDbLine
 10
324.9807026771294
 20
1524.453969983615
 30
0.0
 11
324.9807026771294
 21
1474.453969983615
 31
0.0
  0
LINE
  5
29D
330
77
100
AcDbEntity
  8
MaVisibleEdge
100
AcDbLine
 10
714.9807026771293
 20
1524.453969983615
 30
0.0
 11
714.9807026771293
 21
1474.453969983615
 31
0.0
  0
LINE
  5
29E
330
77
100
AcDbEntity
  8
MaVisibleEdge
100
AcDbLine
 10
717.2833342560767
 20
1549.453969983623
 30
0.0
 11
322.6780710981821
 21
1549.453969983623
 31
0.0
  0
ELLIPSE
  5
29F
330
77
100
AcDbEntity
  8
MaVisibleEdge
100
AcDbEllipse
 10
717.2833342560767
 20
1474.453969983622
 30
0.0
 11
-0.0000000000000002
 21
25.0
 31
0.0
210
0.0
220
0.0
230
1.0
 40
0.0921052631578947
 41
1.570796326795488
 42
3.141592653555122
  0
ELLIPSE
  5
2A0
330
77
100
AcDbEntity
  8
MaVisibleEdge
100
AcDbEllipse
 10
322.6780710981821
 20
1474.453969983622
 30
0.0
 11
-0.0000000000000002
 21
-25.0
 31
0.0
210
0.0
220
0.0
230
1.0
 40
0.0921052631578947
 41
0.0
 42
1.570796326794305
  0
LINE
  5
2A1
330
77
100
AcDbEntity
  8
MaVisibleEdge
100
AcDbLine
 10
322.6780710981821
 20
1449.453969983623
 30
0.0
 11
717.2833342560767
 21
1449.453969983623
 31
0.0
  0
ELLIPSE
  5
2A2
330
77
100
AcDbEntity
  8
MaVisibleEdge
100
AcDbEllipse
 10
322.6780710981821
 20
1524.453969983623
 30
0.0
 11
0.0000000000000002
 21
-25.0
 31
0.0
210
0.0
220
0.0
230
1.0
 40
0.0921052631578947
 41
1.570796326794305
 42
3.141592653624442
  0
ELLIPSE
  5
2A3
330
77
100
AcDbEntity
  8
MaVisibleEdge
100
AcDbEllipse
 10
717.2833342560767
 20
1524.453969983623
 30
0.0
 11
0.0000000000000002
 21
25.0
 31
0.0
210
0.0
220
0.0
230
1.0
 40
0.0921052631578947
 41
0.0
 42
1.570796326795488
  0
ELLIPSE
  5
2A4
330
77
100
AcDbEntity
  8
MaVisibleEdge
100
AcDbEllipse
 10
747.4017553087082
 20
1697.45396998372
 30
0.0
 11
0.0
 21
2.0
 31
0.0
210
0.0
220
0.0
230
1.0
 40
0.0921052631578947
 41
0.0
 42
1.570796326795464
  0
LINE
  5
2A5
330
77
100
AcDbEntity
  8
MaVisibleEdge
100
AcDbLine
 10
747.4017553087082
 20
1699.45396998372
 30
0.0
 11
292.5596500455504
 21
1699.45396998372
 31
0.0
  0
ELLIPSE
  5
2A6
330
77
100
AcDbEntity
  8
MaVisibleEdge
100
AcDbEllipse
 10
292.5596500455505
 20
1697.45396998372
 30
0.0
 11
0.0
 21
-2.0
 31
0.0
210
0.0
220
0.0
230
1.0
 40
0.0921052631578947
 41
1.570796326794328
 42
3.141592653624559
  0
ELLIPSE
  5
2A7
330
77
100
AcDbEntity
  8
MaVisibleEdge
100
AcDbEllipse
 10
295.0464921508137
 20
1574.453969983712
 30
0.0
 11
0.0000000000000002
 21
-25.0
 31
0.0
210
0.0
220
0.0
230
1.0
 40
0.0921052631578947
 41
4.712388980384098
 42
6.28318530721425
  0
ELLIPSE
  5
2A8
330
77
100
AcDbEntity
  8
MaVisibleEdge
100
AcDbEllipse
 10
744.9149132034452
 20
1574.453969983712
 30
0.0
 11
0.0000000000000002
 21
25.0
 31
0.0
210
0.0
220
0.0
230
1.0
 40
0.0921052631578947
 41
3.141592653555143
 42
4.712388980385281
  0
LINE
  5
2A9
330
77
100
AcDbEntity
  8
MaVisibleEdge
100
AcDbLine
 10
292.7438605718663
 20
1574.453969983719
 30
0.0
 11
292.7438605718663
 21
1697.453969983719
 31
0.0
  0
LINE
  5
2AA
330
77
100
AcDbEntity
  8
MaVisibleEdge
100
AcDbLine
 10
292.5596500455505
 20
1699.45396998372
 30
0.0
 11
289.9807026771294
 21
1699.453969983728
 31
0.0
  0
LINE
  5
2AB
330
77
100
AcDbEntity
  8
MaVisibleEdge
100
AcDbLine
 10
749.9807026771293
 20
1699.453969983728
 30
0.0
 11
747.4017553087082
 21
1699.45396998372
 31
0.0
  0
LINE
  5
2AC
330
77
100
AcDbEntity
  8
MaVisibleEdge
100
AcDbLine
 10
747.2175447823927
 20
1574.453969983719
 30
0.0
 11
747.2175447823927
 21
1697.453969983719
 31
0.0
  0
LINE
  5
2AD
330
77
100
AcDbEntity
  8
MaVisibleEdge
100
AcDbLine
 10
289.9807026771294
 20
1449.453969983728
 30
0.0
 11
322.6780710981821
 21
1449.453969983623
 31
0.0
  0
LINE
  5
2AE
330
77
100
AcDbEntity
  8
MaVisibleEdge
100
AcDbLine
 10
717.2833342560767
 20
1449.453969983623
 30
0.0
 11
749.9807026771293
 21
1449.453969983728
 31
0.0
  0
SPLINE
  5
2AF
330
77
100
AcDbEntity
  8
MaVisibleEdge
100
AcDbSpline
210
0.0
220
0.0
230
1.0
 70
     8
 71
     3
 72
    18
 73
    14
 74
     0
 42
0.0000000001
 43
0.0000000001
 40
0.0
 40
0.0
 40
0.0
 40
0.0
 40
0.0787573023476433
 40
0.0787573023476433
 40
0.1573431792861804
 40
0.1573431792861804
 40
0.2355912772595371
 40
0.2355912772595371
 40
0.3135315947975279
 40
0.3135315947975279
 40
0.3773124232334331
 40
0.3773124232334331
 40
0.4411364979266788
 40
0.4411364979266788
 40
0.4411364979266788
 40
0.4411364979266788
 10
293.9049525730557
 20
1449.453969983728
 30
0.0
 10
293.6424282318968
 20
1449.453969983728
 30
0.0
 10
293.3823577947879
 20
1449.402705938044
 30
0.0
 10
292.8971924307372
 20
1449.203514806298
 30
0.0
 10
292.6765892191468
 20
1449.057671450703
 30
0.0
 10
292.3047980205514
 20
1448.69021652025
 30
0.0
 10
292.1568773753585
 20
1448.472447783446
 30
0.0
 10
291.9535672517527
 20
1447.993241230239
 30
0.0
 10
291.899797126917
 20
1447.736637677318
 30
0.0
 10
291.8943598310247
 20
1447.264346878359
 30
0.0
 10
291.9259545911513
 20
1447.05280044452
 30
0.0
 10
292.0548176718321
 20
1446.64751302171
 30
0.0
 10
292.1512860866992
 20
1446.456435719056
 30
0.0
 10
292.2760459246886
 20
1446.28414476374
 30
0.0
  0
SPLINE
  5
2B0
330
77
100
AcDbEntity
  8
MaVisibleEdge
100
AcDbSpline
210
0.0
220
0.0
230
1.0
 70
     8
 71
     3
 72
    18
 73
    14
 74
     0
 42
0.0000000001
 43
0.0000000001
 40
0.0
 40
0.0
 40
0.0
 40
0.0
 40
0.0780944744274839
 40
0.0780944744274839
 40
0.1559519626106376
 40
0.1559519626106376
 40
0.2338214403544833
 40
0.2338214403544833
 40
0.3119434176923105
 40
0.3119434176923105
 40
0.3764936055969994
 40
0.3764936055969994
 40
0.4410892900771181
 40
0.4410892900771181
 40
0.4410892900771181
 40
0.4410892900771181
 10
747.6853594295703
 20
1446.28414476374
 30
0.0
 10
747.8380346117839
 20
1446.494986276687
 30
0.0
 10
747.9480674188616
 20
1446.733583318342
 30
0.0
 10
748.0700096896136
 20
1447.238891893593
 30
0.0
 10
748.081021892558
 20
1447.500581946447
 30
0.0
 10
748.0020399083918
 20
1448.013598980228
 30
0.0
 10
747.9128056149093
 20
1448.259903026411
 30
0.0
 10
747.6446495711656
 20
1448.705386314384
 30
0.0
 10
747.4680430509401
 20
1448.900090580501
 30
0.0
 10
747.0866043761794
 20
1449.184164928984
 30
0.0
 10
746.8944698676374
 20
1449.284124603469
 30
0.0
 10
746.4857790358392
 20
1449.419477900893
 30
0.0
 10
746.2717918590306
 20
1449.453969983728
 30
0.0
 10
746.0564527812032
 20
1449.453969983728
 30
0.0
  0
ELLIPSE
  5
2B1
330
77
100
AcDbEntity
  8
MaVisibleEdge
100
AcDbEllipse
 10
-3892.703239030918
 20
3274.964534831013
 30
0.0
 11
-5096.602439367415
 21
36.40326991370416
 31
0.0
210
0.0
220
0.0
230
1.0
 40
0.8373471715682978
 41
2.631681270453745
 42
2.632141020586656
  0
ELLIPSE
  5
2B2
330
77
100
AcDbEntity
  8
MaVisibleEdge
100
AcDbEllipse
 10
4932.113457209223
 20
3274.702614355175
 30
0.0
 11
-5095.968866744406
 21
-36.40126456676286
 31
0.0
210
0.0
220
0.0
230
1.0
 40
0.8373472541676429
 41
0.5094511903559012
 42
0.5099109976468164
  0
ARC
  5
2B3
330
77
100
AcDbEntity
  8
MaVisibleEdge
100
AcDbCircle
 10
519.9807026771237
 20
1174.197549316829
 30
0.0
 40
25.0
100
AcDbArc
 50
214.147165715001
 51
325.8528342850147
  0
LINE
  5
2B4
330
77
100
AcDbEntity
  8
MaVisibleEdge
100
AcDbLine
 10
292.2760459246886
 20
1446.28414476374
 30
0.0
 11
495.3694721657308
 21
1165.815999009444
 31
0.0
  0
SPLINE
  5
2B5
330
77
100
AcDbEntity
  8
MaVisibleEdge
100
AcDbSpline
210
0.0
220
0.0
230
1.0
 70
     8
 71
     3
 72
    10
 73
     6
 74
     0
 42
0.0000000001
 43
0.0000000001
 40
0.0
 40
0.0
 40
0.0
 40
0.0
 40
10.00000079827267
 40
10.00000079827267
 40
14.45751524346762
 40
14.45751524346762
 40
14.45751524346762
 40
14.45751524346762
 10
498.1352784757989
 20
1161.869037973672
 30
0.0
 10
497.5165866340911
 20
1162.782203205947
 30
0.0
 10
496.8847565205567
 20
1163.693188787786
 30
0.0
 10
495.9522936546632
 20
1165.007095720336
 30
0.0
 10
495.662188058148
 20
1165.411763948273
 30
0.0
 10
495.3694721657308
 20
1165.815999009444
 30
0.0
  0
LINE
  5
2B6
330
77
100
AcDbEntity
  8
MaVisibleEdge
100
AcDbLine
 10
747.6853594295703
 20
1446.28414476374
 30
0.0
 11
544.5919331885279
 21
1165.815999009444
 31
0.0
  0
SPLINE
  5
2B7
330
77
100
AcDbEntity
  8
MaVisibleEdge
100
AcDbSpline
210
0.0
220
0.0
230
1.0
 70
     8
 71
     3
 72
    10
 73
     6
 74
     0
 42
0.0000000001
 43
0.0000000001
 40
0.0
 40
0.0
 40
0.0
 40
0.0
 40
10.00000079822967
 40
10.00000079822967
 40
14.45751524347419
 40
14.45751524347419
 40
14.45751524347419
 40
14.45751524347419
 10
544.5919331885279
 20
1165.815999009444
 30
0.0
 10
543.9352535088955
 20
1164.909136904097
 30
0.0
 10
543.2917110483608
 20
1164.00009469188
 30
0.0
 10
542.3803028926051
 20
1162.682694259363
 30
0.0
 10
542.1019096386016
 20
1162.276082662555
 30
0.0
 10
541.8261268784599
 20
1161.869037973672
 30
0.0
  0
LINE
  5
2B8
330
77
100
AcDbEntity
  8
MaVisibleEdge
100
AcDbLine
 10
1097.894522460156
 20
1699.453969983727
 30
0.0
 11
1097.894522460082
 21
1449.453969983727
 31
0.0
  0
LINE
  5
2B9
330
77
100
AcDbEntity
  8
MaVisibleEdge
100
AcDbLine
 10
1152.894522460113
 20
1549.45396998371
 30
0.0
 11
1452.894522460121
 21
1549.453969983621
 31
0.0
  0
LINE
  5
2BA
330
77
100
AcDbEntity
  8
MaVisibleEdge
100
AcDbLine
 10
1477.894522460115
 20
1524.453969983614
 30
0.0
 11
1477.8945224601
 21
1474.453969983614
 31
0.0
  0
ARC
  5
2BB
330
77
100
AcDbEntity
  8
MaVisibleEdge
100
AcDbCircle
 10
1452.894522460099
 20
1474.453969983621
 30
0.0
 40
25.00000000000068
100
AcDbArc
 50
269.999999999983
 51
0.0
  0
ARC
  5
2BC
330
77
100
AcDbEntity
  8
MaVisibleEdge
100
AcDbCircle
 10
1452.894522460114
 20
1524.453969983621
 30
0.0
 40
25.00000000000068
100
AcDbArc
 50
0.0
 51
89.99999999998307
  0
ARC
  5
2BD
330
77
100
AcDbEntity
  8
MaVisibleEdge
100
AcDbCircle
 10
1125.894522460156
 20
1697.453969983718
 30
0.0
 40
2.000000000000054
100
AcDbArc
 50
0.0
 51
89.99999999998369
  0
ARC
  5
2BE
330
77
100
AcDbEntity
  8
MaVisibleEdge
100
AcDbCircle
 10
1152.894522460121
 20
1574.45396998371
 30
0.0
 40
25.00000000000068
100
AcDbArc
 50
180.0
 51
269.999999999983
  0
LINE
  5
2BF
330
77
100
AcDbEntity
  8
MaVisibleEdge
100
AcDbLine
 10
1127.89452246012
 20
1574.453969983718
 30
0.0
 11
1127.894522460156
 21
1697.453969983717
 31
0.0
  0
LINE
  5
2C0
330
77
100
AcDbEntity
  8
MaVisibleEdge
100
AcDbLine
 10
1125.894522460157
 20
1699.453969983718
 30
0.0
 11
1097.894522460156
 21
1699.453969983727
 31
0.0
  0
LINE
  5
2C1
330
77
100
AcDbEntity
  8
MaVisibleEdge
100
AcDbLine
 10
1097.894522460082
 20
1449.453969983727
 30
0.0
 11
1452.894522460091
 21
1449.453969983621
 31
0.0
  0
SPLINE
  5
2C2
330
77
100
AcDbEntity
  8
MaVisibleEdge
100
AcDbSpline
210
0.0
220
0.0
230
1.0
 70
    24
 71
     3
 72
    18
 73
    14
 74
     0
 42
0.0000000001
 43
0.0000000001
 40
0.0
 40
0.0
 40
0.0
 40
0.0
 40
0.0787573023476433
 40
0.0787573023476433
 40
0.1573431792861804
 40
0.1573431792861804
 40
0.2355912772595371
 40
0.2355912772595371
 40
0.3135315947975279
 40
0.3135315947975279
 40
0.3773124232334331
 40
0.3773124232334331
 40
0.4411364979266788
 40
0.4411364979266788
 40
0.4411364979266788
 40
0.4411364979266788
 10
1097.894522460083
 20
1449.453969983727
 30
0.0
 10
1097.894522460083
 20
1449.453969983727
 30
0.0
 10
1097.894522460083
 20
1449.402705938043
 30
0.0
 10
1097.894522460083
 20
1449.203514806297
 30
0.0
 10
1097.894522460083
 20
1449.057671450702
 30
0.0
 10
1097.894522460082
 20
1448.690216520249
 30
0.0
 10
1097.894522460082
 20
1448.472447783445
 30
0.0
 10
1097.894522460082
 20
1447.993241230237
 30
0.0
 10
1097.894522460082
 20
1447.736637677317
 30
0.0
 10
1097.894522460082
 20
1447.264346878358
 30
0.0
 10
1097.894522460082
 20
1447.052800444519
 30
0.0
 10
1097.894522460082
 20
1446.647513021708
 30
0.0
 10
1097.894522460082
 20
1446.456435719055
 30
0.0
 10
1097.894522460082
 20
1446.284144763739
 30
0.0
  0
ARC
  5
2C3
330
77
100
AcDbEntity
  8
MaVisibleEdge
100
AcDbCircle
 10
1449.178191931977
 20
1447.453969983622
 30
0.0
 40
2.000000000000015
100
AcDbArc
 50
326.5751888173844
 51
89.99999999998369
  0
SPLINE
  5
2C4
330
77
100
AcDbEntity
  8
MaVisibleEdge
100
AcDbSpline
210
0.0
220
0.0
230
1.0
 70
    24
 71
     3
 72
    17
 73
    13
 74
     0
 42
0.0000000001
 43
0.0000000001
 40
0.0
 40
0.0
 40
0.0
 40
0.0000000000005621
 40
9.716812367279587
 40
9.716812367279587
 40
19.43362473455917
 40
19.43362473455917
 40
19.43362473455917
 40
25.59398854911021
 40
25.59398854911021
 40
35.45057065239186
 40
35.45057065239186
 40
38.54810711535253
 40
38.54810711535253
 40
38.54810711535253
 40
38.54810711535253
 10
1262.136388382483
 20
1160.426494108555
 30
0.0
 10
1277.662767139348
 20
1183.951310406826
 30
0.0
 10
1293.274623262554
 20
1207.605637866222
 30
0.0
 10
1324.664590154088
 20
1255.166193762468
 30
0.0
 10
1340.441880994335
 20
1279.071179884046
 30
0.0
 10
1356.302436732922
 20
1303.102324942503
 30
0.0
 10
1366.357873635221
 20
1318.337835400526
 30
0.0
 10
1376.446707926936
 20
1333.623947963724
 30
0.0
 10
1402.762533631616
 20
1373.496411152619
 30
0.0
 10
1419.039814886239
 20
1398.158958508098
 30
0.0
 10
1440.540738587448
 20
1430.73611563113
 30
0.0
 10
1445.690071773968
 20
1438.538135610702
 30
0.0
 10
1450.84741074887
 20
1446.352285572671
 30
0.0
  0
ARC
  5
2C5
330
77
100
AcDbEntity
  8
MaVisibleEdge
100
AcDbCircle
 10
1241.271153218443
 20
1174.197549316828
 30
0.0
 40
25.0
100
AcDbArc
 50
269.9531568419432
 51
326.5751888173791
  0
LINE
  5
2C6
330
77
100
AcDbEntity
  8
MaVisibleEdge
100
AcDbLine
 10
1097.894522460082
 20
1446.284144763739
 30
0.0
 11
1097.894522460058
 21
1159.791388328796
 31
0.0
  0
SPLINE
  5
2C7
330
77
100
AcDbEntity
  8
MaVisibleEdge
100
AcDbSpline
210
0.0
220
0.0
230
1.0
 70
    24
 71
     3
 72
    12
 73
     8
 74
     0
 42
0.0000000001
 43
0.0000000001
 40
0.0
 40
0.0
 40
0.0
 40
0.0
 40
0.9766198406911694
 40
0.9766198406911694
 40
1.95323356499035
 40
1.95323356499035
 40
2.367474832573889
 40
2.367474832573889
 40
2.367474832573889
 40
2.367474832573889
 10
1097.894522460058
 20
1159.791388328796
 30
0.0
 10
1097.894522460058
 20
1157.15468443528
 30
0.0
 10
1097.894522460058
 20
1154.916119542315
 30
0.0
 10
1097.894522460059
 20
1151.487289588263
 30
0.0
 10
1097.894522460059
 20
1150.329800067307
 30
0.0
 10
1097.89452246006
 20
1149.567281454357
 30
0.0
 10
1097.894522460061
 20
1149.453939605894
 30
0.0
 10
1097.894522460061
 20
1149.453942232395
 30
0.0
  0
SPLINE
  5
2C8
330
77
100
AcDbEntity
  8
MaVisibleEdge
100
AcDbSpline
210
0.0
220
0.0
230
1.0
 70
     8
 71
     3
 72
    16
 73
    12
 74
     0
 42
0.0000000001
 43
0.0000000001
 40
0.0027920216415676
 40
0.0027920216415676
 40
0.0027920216415676
 40
0.0027920216415676
 40
2.868978514954927
 40
2.868978514954927
 40
5.735165008268287
 40
5.735165008268287
 40
8.601351501581646
 40
8.601351501581646
 40
11.467537994895
 40
11.467537994895
 40
14.33372448820836
 40
14.33372448820836
 40
14.33372448820836
 40
14.33372448820836
 10
1097.894522460061
 20
1149.453932261115
 30
0.0
 10
1107.451304072955
 20
1149.428115923524
 30
0.0
 10
1117.008141921238
 20
1149.403940021001
 30
0.0
 10
1136.121933364629
 20
1149.358989786614
 30
0.0
 10
1145.678886959377
 20
1149.338215443682
 30
0.0
 10
1164.792913475202
 20
1149.300194748491
 30
0.0
 10
1174.349985954111
 20
1149.282948384893
 30
0.0
 10
1193.464258712585
 20
1149.252116145712
 30
0.0
 10
1203.021458439399
 20
1149.238530258678
 30
0.0
 10
1222.135987854915
 20
1149.215157937173
 30
0.0
 10
1231.693317543133
 20
1149.205371489012
 30
0.0
 10
1241.250714037217
 20
1149.197557672041
 30
0.0
  0
DIMENSION
  5
2C9
330
77
100
AcDbEntity
  8
Bemaßungen(DIN)
  6
Continuous
 62
     7
370
    30
100
AcDbDimension
  2
*D11
 10
1007.80203171782
 20
1699.453969983723
 30
0.0
 11
1007.80203171782
 21
1424.453951122419
 31
0.0
 70
   160
  1
<>
 71
     4
 42
550.0000377226101
  3
MarketingDrawing
100
AcDbAlignedDimension
 13
1097.894522460061
 23
1149.453932261113
 33
0.0
 14
1097.894522460156
 24
1699.453969983723
 34
0.0
 50
90.0
100
AcDbRotatedDimension
1001
ACAD
1000
DSTYLE
1002
{
1070
   289
1070
     1
1070
   271
1070
     0
1070
   272
1070
     4
1070
    48
1040
0.0
1070
    47
1040
0.0
1002
}
  0
DIMENSION
  5
3BA
330
77
100
AcDbEntity
  8
Bemaßungen(DIN)
  6
Continuous
 62
     7
370
    30
100
AcDbDimension
  2
*D12
 10
210.5618390539854
 20
1549.453969983623
 30
0.0
 11
210.5618390539851
 21
1624.45396998367
 31
0.0
 70
   160
  1
<>
 71
     4
 42
150.0000000000968
  3
MarketingDrawing
100
AcDbAlignedDimension
 13
292.5596500455504
 23
1699.45396998372
 33
0.0
 14
322.6780710981821
 24
1549.453969983623
 34
0.0
 50
90.0
100
AcDbRotatedDimension
1001
ACAD
1000
DSTYLE
1002
{
1070
   289
1070
     1
1070
   271
1070
     0
1070
   272
1070
     4
1070
    48
1040
0.0
1070
    47
1040
0.0
1002
}
  0
DIMENSION
  5
4AA
330
77
100
AcDbEntity
  8
Bemaßungen(DIN)
  6
Continuous
 62
     7
370
    30
100
AcDbDimension
  2
*D13
 10
209.6407864224063
 20
1449.453969983728
 30
0.0
 11
209.6407864224061
 21
1499.453969983675
 31
0.0
 70
   160
  1
<>
 71
     4
 42
99.99999999989473
  3
MarketingDrawing
100
AcDbAlignedDimension
 13
264.9807026928561
 23
1549.453969983623
 33
0.0
 14
289.9807026771294
 24
1449.453969983728
 34
0.0
 50
90.0
100
AcDbRotatedDimension
1001
ACAD
1000
DSTYLE
1002
{
1070
   289
1070
     1
1070
   271
1070
     0
1070
   272
1070
     4
1070
    48
1040
0.0
1070
    47
1040
0.0
1002
}
  0
DIMENSION
  5
59B
330
77
100
AcDbEntity
  8
Bemaßungen(DIN)
  6
Continuous
 62
     7
370
    30
100
AcDbDimension
  2
*D14
 10
208.825586725973
 20
989.2085881206879
 30
0.0
 11
208.8255867259728
 21
916.7085881206878
 31
0.0
 70
   160
  1
<>
 71
     4
 42
145.0
  3
MarketingDrawing
100
AcDbAlignedDimension
 13
519.9807026769068
 23
844.2085881206878
 33
0.0
 14
289.9807026769068
 24
989.2085881206879
 34
0.0
 50
270.0
100
AcDbRotatedDimension
1001
ACAD
1000
DSTYLE
1002
{
1070
   289
1070
     1
1070
   271
1070
     0
1070
   272
1070
     4
1070
    48
1040
0.0
1070
    47
1040
0.0
1002
}
  0
LINE
  5
68B
330
77
100
AcDbEntity
  8
MaCenterline
  6
Continuous
100
AcDbLine
 10
575.1668243945996
 20
844.2085881206878
 30
0.0
 11
464.794580959214
 21
844.2085881206878
 31
0.0
  0
LINE
  5
68C
330
77
100
AcDbEntity
  8
MaCenterline
  6
Continuous
100
AcDbLine
 10
519.9807026769068
 20
899.3947098383806
 30
0.0
 11
519.9807026769068
 21
789.022466402995
 31
0.0
  0
DIMENSION
  5
68D
330
77
100
AcDbEntity
  8
Bemaßungen(DIN)
  6
Continuous
 62
     7
370
    30
100
AcDbDimension
  2
*D15
 10
1097.894522460156
 20
1745.611346173016
 30
0.0
 11
1220.463144016229
 21
1745.611346173016
 31
0.0
 70
   160
  1
<>
 71
     4
 42
30.00000000000046
  3
MarketingDrawing
100
AcDbAlignedDimension
 13
1127.894522460156
 23
1697.453969983718
 33
0.0
 14
1097.894522460156
 24
1699.453969983727
 34
0.0
 50
180.0
100
AcDbRotatedDimension
1001
ACAD
1000
DSTYLE
1002
{
1070
   289
1070
     1
1070
    73
1070
     0
1070
    74
1070
     0
1070
   271
1070
     0
1070
   272
1070
     4
1070
    48
1040
0.0
1070
    47
1040
0.0
1002
}
  0
DIMENSION
  5
777
330
77
100
AcDbEntity
  8
Bemaßungen(DIN)
  6
Continuous
 62
     7
370
    30
100
AcDbDimension
  2
*D16
 10
881.8268194038576
 20
609.2085881206877
 30
0.0
 11
881.8268194038575
 21
799.2085881206878
 31
0.0
 70
   160
  1
<>
 71
     4
 42
380.0
  3
MarketingDrawing
100
AcDbAlignedDimension
 13
749.9807026769067
 23
989.2085881206879
 33
0.0
 14
714.9807026769067
 24
609.2085881206878
 34
0.0
 50
90.0
100
AcDbRotatedDimension
1001
ACAD
1000
DSTYLE
1002
{
1070
   289
1070
     1
1070
   271
1070
     0
1070
   272
1070
     4
1070
    48
1040
0.0
1070
    47
1040
0.0
1002
}
  0
LINE
  5
867
330
77
100
AcDbEntity
  8
MaCenterline
  6
Continuous
100
AcDbLine
 10
524.9807026771294
 20
1187.453969983728
 30
0.0
 11
474.9807026771294
 21
1187.453969983728
 31
0.0
  0
LINE
  5
868
330
77
100
AcDbEntity
  8
MaCenterline
  6
Continuous
100
AcDbLine
 10
499.9807026771294
 20
1212.453969983728
 30
0.0
 11
499.9807026771294
 21
1162.453969983728
 31
0.0
  0
LINE
  5
869
330
77
100
AcDbEntity
  8
MaCenterline
  6
Continuous
100
AcDbLine
 10
564.9807026771294
 20
1187.453969983728
 30
0.0
 11
514.9807026771294
 21
1187.453969983728
 31
0.0
  0
LINE
  5
86A
330
77
100
AcDbEntity
  8
MaCenterline
  6
Continuous
100
AcDbLine
 10
539.9807026771294
 20
1212.453969983728
 30
0.0
 11
539.9807026771294
 21
1162.453969983728
 31
0.0
  0
LINE
  5
86B
330
77
100
AcDbEntity
  8
MaCenterline
  6
Continuous
100
AcDbLine
 10
394.9807026771294
 20
1667.453969983728
 30
0.0
 11
344.9807026771294
 21
1667.453969983728
 31
0.0
  0
LINE
  5
86C
330
77
100
AcDbEntity
  8
MaCenterline
  6
Continuous
100
AcDbLine
 10
369.9807026771294
 20
1692.453969983728
 30
0.0
 11
369.9807026771294
 21
1642.453969983728
 31
0.0
  0
LINE
  5
86D
330
77
100
AcDbEntity
  8
MaCenterline
  6
Continuous
100
AcDbLine
 10
494.9807026771294
 20
1667.453969983728
 30
0.0
 11
444.9807026771294
 21
1667.453969983728
 31
0.0
  0
LINE
  5
86E
330
77
100
AcDbEntity
  8
MaCenterline
  6
Continuous
100
AcDbLine
 10
469.9807026771294
 20
1692.453969983728
 30
0.0
 11
469.9807026771294
 21
1642.453969983728
 31
0.0
  0
LINE
  5
86F
330
77
100
AcDbEntity
  8
MaCenterline
  6
Continuous
100
AcDbLine
 10
694.9807026771294
 20
1667.453969983728
 30
0.0
 11
644.9807026771294
 21
1667.453969983728
 31
0.0
  0
LINE
  5
870
330
77
100
AcDbEntity
  8
MaCenterline
  6
Continuous
100
AcDbLine
 10
669.9807026771294
 20
1692.453969983728
 30
0.0
 11
669.9807026771294
 21
1642.453969983728
 31
0.0
  0
DIMENSION
  5
871
330
77
100
AcDbEntity
  8
Bemaßungen(DIN)
  6
Continuous
 62
     7
370
    30
100
AcDbDimension
  2
*D17
 10
539.9807026771294
 20
1107.453969983728
 30
0.0
 11
656.776120600282
 21
1107.453969983728
 31
0.0
 70
   160
  1
<>
 71
     4
 42
40.00000000000006
  3
MarketingDrawing
100
AcDbAlignedDimension
 13
499.9807026771294
 23
1162.453969983728
 33
0.0
 14
539.9807026771294
 24
1162.453969983728
 34
0.0
 50
180.0
100
AcDbRotatedDimension
1001
ACAD
1000
DSTYLE
1002
{
1070
   289
1070
     1
1070
    73
1070
     0
1070
    74
1070
     0
1070
   271
1070
     0
1070
   272
1070
     4
1070
    48
1040
0.0
1070
    47
1040
0.0
1002
}
  0
DIMENSION
  5
95B
330
77
100
AcDbEntity
  8
Bemaßungen(DIN)
  6
Continuous
 62
     7
370
    30
100
AcDbDimension
  2
*D18
 10
824.8498988565026
 20
1667.453969983728
 30
0.0
 11
824.8498988565023
 21
1388.642692019907
 31
0.0
 70
   160
  1
<>
 71
     4
 42
480.0000000000002
  3
MarketingDrawing
100
AcDbAlignedDimension
 13
564.9807026771294
 23
1187.453969983728
 33
0.0
 14
694.9807026771294
 24
1667.453969983728
 34
0.0
 50
90.0
100
AcDbRotatedDimension
1001
ACAD
1000
DSTYLE
1002
{
1070
   289
1070
     1
1070
   271
1070
     0
1070
   272
1070
     4
1070
    48
1040
0.0
1070
    47
1040
0.0
1002
}
  0
DIMENSION
  5
A4B
330
77
100
AcDbEntity
  8
Bemaßungen(DIN)
  6
Continuous
 62
     7
370
    30
100
AcDbDimension
  2
*D19
 10
749.9807026769067
 20
1032.587785638045
 30
0.0
 11
519.9807026769067
 21
1032.587785638045
 31
0.0
 70
   160
  1
<>
 71
     4
 42
459.9999999999998
  3
MarketingDrawing
100
AcDbAlignedDimension
 13
289.9807026769068
 23
989.2085881206879
 33
0.0
 14
749.9807026769067
 24
989.2085881206879
 34
0.0
 50
180.0
100
AcDbRotatedDimension
1001
ACAD
1000
DSTYLE
1002
{
1070
   289
1070
     1
1070
    73
1070
     0
1070
    74
1070
     0
1070
   271
1070
     0
1070
   272
1070
     4
1070
    48
1040
0.0
1070
    47
1040
0.0
1002
}
  0
LINE
  5
B35
330
77
100
AcDbEntity
  8
MaCenterline
  6
Continuous
100
AcDbLine
 10
519.9807026771294
 20
1721.240273980118
 30
0.0
 11
519.9807026771294
 21
1139.791388328798
 31
0.0
  0
LINE
  5
B36
330
77
100
AcDbEntity
  8
Sketch Geometry(DIN)
370
    18
100
AcDbLine
 10
1241.250714037217
 20
1149.197557672032
 30
0.0
 11
1254.718023447424
 21
1149.186547237246
 31
0.0
  0
DIMENSION
  5
B37
330
77
100
AcDbEntity
  8
Bemaßungen(DIN)
  6
Continuous
 62
     7
370
    30
100
AcDbDimension
  2
*D20
 10
1097.894522460058
 20
1107.453969983726
 30
0.0
 11
1176.306272953741
 21
1107.453969983726
 31
0.0
 70
   160
  1
<>
 71
     4
 42
156.823500987366
  3
MarketingDrawing
100
AcDbAlignedDimension
 13
1254.718023447424
 23
1149.186547237246
 33
0.0
 14
1097.894522460058
 24
1159.791388328796
 34
0.0
 50
180.0
100
AcDbRotatedDimension
1001
ACAD
1000
DSTYLE
1002
{
1070
   147
1040
1.797693134862314E+99
1070
    73
1070
     0
1070
    74
1070
     0
1070
   271
1070
     0
1070
   272
1070
     4
1070
    48
1040
0.0
1070
    47
1040
0.0
1002
}
  0
DIMENSION
  5
C21
330
77
100
AcDbEntity
  8
Bemaßungen(DIN)
  6
Continuous
 62
     7
370
    30
100
AcDbDimension
  2
*D21
 10
209.6407864224063
 20
1149.19754931683
 30
0.0
 11
209.6407864224061
 21
1299.325759650226
 31
0.0
 70
   160
  1
<>
 71
     4
 42
300.256420666793
  3
MarketingDrawing
100
AcDbAlignedDimension
 13
322.6780710981821
 23
1449.453969983623
 33
0.0
 14
519.9807026771269
 24
1149.19754931683
 34
0.0
 50
270.0
100
AcDbRotatedDimension
1001
ACAD
1000
DSTYLE
1002
{
1070
   289
1070
     1
1070
   271
1070
     0
1070
   272
1070
     4
1070
    48
1040
0.0
1070
    47
1040
0.0
1002
}
  0
DIMENSION
  5
D11
330
77
100
AcDbEntity
  8
Bemaßungen(DIN)
  6
Continuous
 62
     7
370
    30
100
AcDbDimension
  2
*D22
 10
763.4584511328244
 20
1667.453969983728
 30
0.0
 11
823.9288462249231
 21
1769.860075533019
 31
0.0
 70
   160
  1
<>
 71
     4
 42
31.99999999999182
  3
MarketingDrawing
100
AcDbAlignedDimension
 13
747.4017553087082
 23
1699.45396998372
 33
0.0
 14
694.9807026771294
 24
1667.453969983728
 34
0.0
 50
90.0
100
AcDbRotatedDimension
1001
ACAD
1000
DSTYLE
1002
{
1070
   289
1070
     1
1070
   271
1070
     0
1070
   272
1070
     4
1070
    48
1040
0.0
1070
    47
1040
0.0
1002
}
  0
DIMENSION
  5
E0F
330
77
100
AcDbEntity
  8
Bemaßungen(DIN)
  6
Continuous
 62
     7
370
    30
100
AcDbDimension
  2
*D23
 10
885.4971015837538
 20
1187.453969983728
 30
0.0
 11
824.8498988565023
 21
1068.703646600044
 31
0.0
 70
   160
  1
<>
 71
     4
 42
38.25642066689807
  3
MarketingDrawing
100
AcDbAlignedDimension
 13
519.9807026771269
 23
1149.19754931683
 33
0.0
 14
564.9807026771294
 24
1187.453969983728
 34
0.0
 50
90.0
100
AcDbRotatedDimension
1001
ACAD
1000
DSTYLE
1002
{
1070
   289
1070
     1
1070
   271
1070
     0
1070
   272
1070
     4
1070
    48
1040
0.0
1070
    47
1040
0.0
1002
}
  0
LINE
  5
F0D
330
77
100
AcDbEntity
  8
MaCenterline
  6
Continuous
100
AcDbLine
 10
594.9807026771294
 20
1667.453969983728
 30
0.0
 11
544.9807026771294
 21
1667.453969983728
 31
0.0
  0
LINE
  5
F0E
330
77
100
AcDbEntity
  8
MaCenterline
  6
Continuous
100
AcDbLine
 10
569.9807026771294
 20
1692.453969983728
 30
0.0
 11
569.9807026771294
 21
1642.453969983728
 31
0.0
  0
DIMENSION
  5
F0F
330
77
100
AcDbEntity
  8
Bemaßungen(DIN)
  6
Continuous
 62
     7
370
    30
100
AcDbDimension
  2
*D24
 10
469.9807026771294
 20
1747.453969983728
 30
0.0
 11
295.6575334457146
 21
1747.453969983728
 31
0.0
 70
   160
  1
<>
 71
     4
 42
100.0
  3
MarketingDrawing
100
AcDbAlignedDimension
 13
369.9807026771294
 23
1692.453969983728
 33
0.0
 14
469.9807026771294
 24
1692.453969983728
 34
0.0
 50
180.0
100
AcDbRotatedDimension
1001
ACAD
1000
DSTYLE
1002
{
1070
   289
1070
     2
1070
    73
1070
     0
1070
    74
1070
     0
1070
   271
1070
     0
1070
   272
1070
     4
1070
    48
1040
0.0
1070
    47
1040
0.0
1002
}
  0
DIMENSION
  5
FF9
330
77
100
AcDbEntity
  8
Bemaßungen(DIN)
  6
Continuous
 62
     7
370
    30
100
AcDbDimension
  2
*D25
 10
569.9807026771294
 20
1792.206037794011
 30
0.0
 11
395.6575334457146
 21
1792.206037794011
 31
0.0
 70
   160
  1
<>
 71
     4
 42
100.0
  3
MarketingDrawing
100
AcDbAlignedDimension
 13
469.9807026771294
 23
1692.453969983728
 33
0.0
 14
569.9807026771294
 24
1692.453969983728
 34
0.0
 50
180.0
100
AcDbRotatedDimension
1001
ACAD
1000
DSTYLE
1002
{
1070
   289
1070
     2
1070
    73
1070
     0
1070
    74
1070
     0
1070
   271
1070
     0
1070
   272
1070
     4
1070
    48
1040
0.0
1070
    47
1040
0.0
1002
}
  0
DIMENSION
  5
10E3
330
77
100
AcDbEntity
  8
Bemaßungen(DIN)
  6
Continuous
 62
     7
370
    30
100
AcDbDimension
  2
*D26
 10
669.9807026771294
 20
1747.453969983728
 30
0.0
 11
740.391615923357
 21
1747.453969983728
 31
0.0
 70
   160
  1
<>
 71
     4
 42
100.0
  3
MarketingDrawing
100
AcDbAlignedDimension
 13
569.9807026771294
 23
1692.453969983728
 33
0.0
 14
669.9807026771294
 24
1692.453969983728
 34
0.0
 50
180.0
100
AcDbRotatedDimension
1001
ACAD
1000
DSTYLE
1002
{
1070
   289
1070
     2
1070
    73
1070
     0
1070
    74
1070
     0
1070
   271
1070
     0
1070
   272
1070
     4
1070
    48
1040
0.0
1070
    47
1040
0.0
1002
}
  0
DIMENSION
  5
11CD
330
77
100
AcDbEntity
  8
Bemaßungen(DIN)
  6
Continuous
 62
     7
370
    30
100
AcDbDimension
  2
*D27
 10
714.9807026769067
 20
579.9368601246595
 30
0.0
 11
519.9807026769069
 21
579.9368601246595
 31
0.0
 70
   160
  1
<>
 71
     4
 42
389.9999999999999
  3
MarketingDrawing
100
AcDbAlignedDimension
 13
324.9807026769068
 23
609.2085881206878
 33
0.0
 14
714.9807026769067
 24
609.2085881206878
 34
0.0
 50
180.0
100
AcDbRotatedDimension
1001
ACAD
1000
DSTYLE
1002
{
1070
   289
1070
     1
1070
    73
1070
     0
1070
    74
1070
     0
1070
   271
1070
     0
1070
   272
1070
     4
1070
    48
1040
0.0
1070
    47
1040
0.0
1002
}
  0
ENDSEC
  0
SECTION
  2
OBJECTS
  0
DICTIONARY
  5
C
330
0
100
AcDbDictionary
281
     1
  3
ACAD_COLOR
350
6E
  3
ACAD_GROUP
350
D
  3
ACAD_LAYOUT
350
6D
  3
ACAD_MATERIAL
350
10
  3
ACAD_MLEADERSTYLE
350
71
  3
ACAD_MLINESTYLE
350
6A
  3
ACAD_PLOTSETTINGS
350
6C
  3
ACAD_PLOTSTYLENAME
350
E
  3
ACAD_SCALELIST
350
3D
  3
ACAD_TABLESTYLE
350
6F
  3
ACAD_VISUALSTYLE
350
29
  3
ACDB_RECOMPOSE_DATA
350
1338
  3
AcDbVariableDictionary
350
12B7
  0
DICTIONARY
  5
12C2
330
106
100
AcDbDictionary
280
     1
281
     1
  3
ACAD_MLATT
360
12C4
  3
ACAD_XREC_ROUNDTRIP
360
12C3
  0
DICTIONARY
  5
12C6
330
245
100
AcDbDictionary
280
     1
281
     1
  3
ACAD_MLATT
360
12C8
  3
ACAD_XREC_ROUNDTRIP
360
12C7
  0
DICTIONARY
  5
12C9
330
247
100
AcDbDictionary
280
     1
281
     1
  3
ACAD_MLATT
360
12CB
  3
ACAD_XREC_ROUNDTRIP
360
12CA
  0
DICTIONARY
  5
12CC
330
248
100
AcDbDictionary
280
     1
281
     1
  3
ACAD_MLATT
360
12CE
  3
ACAD_XREC_ROUNDTRIP
360
12CD
  0
DICTIONARY
  5
12CF
330
24A
100
AcDbDictionary
280
     1
281
     1
  3
ACAD_MLATT
360
12D1
  3
ACAD_XREC_ROUNDTRIP
360
12D0
  0
DICTIONARY
  5
12D2
330
24B
100
AcDbDictionary
280
     1
281
     1
  3
ACAD_MLATT
360
12D4
  3
ACAD_XREC_ROUNDTRIP
360
12D3
  0
DICTIONARY
  5
12D5
330
24D
100
AcDbDictionary
280
     1
281
     1
  3
ACAD_MLATT
360
12D7
  3
ACAD_XREC_ROUNDTRIP
360
12D6
  0
DICTIONARY
  5
12D8
330
24E
100
AcDbDictionary
280
     1
281
     1
  3
ACAD_MLATT
360
12DA
  3
ACAD_XREC_ROUNDTRIP
360
12D9
  0
DICTIONARY
  5
12DB
330
24F
100
AcDbDictionary
280
     1
281
     1
  3
ACAD_MLATT
360
12DD
  3
ACAD_XREC_ROUNDTRIP
360
12DC
  0
DICTIONARY
  5
12DE
330
250
100
AcDbDictionary
280
     1
281
     1
  3
ACAD_MLATT
360
12E0
  3
ACAD_XREC_ROUNDTRIP
360
12DF
  0
DICTIONARY
  5
12E1
330
251
100
AcDbDictionary
280
     1
281
     1
  3
ACAD_MLATT
360
12E3
  3
ACAD_XREC_ROUNDTRIP
360
12E2
  0
DICTIONARY
  5
12E4
330
252
100
AcDbDictionary
280
     1
281
     1
  3
ACAD_MLATT
360
12E6
  3
ACAD_XREC_ROUNDTRIP
360
12E5
  0
DICTIONARY
  5
12E7
330
253
100
AcDbDictionary
280
     1
281
     1
  3
ACAD_MLATT
360
12E9
  3
ACAD_XREC_ROUNDTRIP
360
12E8
  0
DICTIONARY
  5
12EA
330
254
100
AcDbDictionary
280
     1
281
     1
  3
ACAD_MLATT
360
12EC
  3
ACAD_XREC_ROUNDTRIP
360
12EB
  0
DICTIONARY
  5
12ED
330
255
100
AcDbDictionary
280
     1
281
     1
  3
ACAD_MLATT
360
12EF
  3
ACAD_XREC_ROUNDTRIP
360
12EE
  0
DICTIONARY
  5
12F0
330
256
100
AcDbDictionary
280
     1
281
     1
  3
ACAD_MLATT
360
12F2
  3
ACAD_XREC_ROUNDTRIP
360
12F1
  0
DICTIONARY
  5
12F3
330
257
100
AcDbDictionary
280
     1
281
     1
  3
ACAD_MLATT
360
12F5
  3
ACAD_XREC_ROUNDTRIP
360
12F4
  0
DICTIONARY
  5
12F6
330
258
100
AcDbDictionary
280
     1
281
     1
  3
ACAD_MLATT
360
12F8
  3
ACAD_XREC_ROUNDTRIP
360
12F7
  0
DICTIONARY
  5
12F9
330
259
100
AcDbDictionary
280
     1
281
     1
  3
ACAD_MLATT
360
12FB
  3
ACAD_XREC_ROUNDTRIP
360
12FA
  0
DICTIONARY
  5
12FC
330
25A
100
AcDbDictionary
280
     1
281
     1
  3
ACAD_MLATT
360
12FE
  3
ACAD_XREC_ROUNDTRIP
360
12FD
  0
DICTIONARY
  5
12FF
330
25D
100
AcDbDictionary
280
     1
281
     1
  3
ACAD_MLATT
360
1301
  3
ACAD_XREC_ROUNDTRIP
360
1300
  0
DICTIONARY
  5
1302
330
25E
100
AcDbDictionary
280
     1
281
     1
  3
ACAD_MLATT
360
1304
  3
ACAD_XREC_ROUNDTRIP
360
1303
  0
DICTIONARY
  5
1305
330
25F
100
AcDbDictionary
280
     1
281
     1
  3
ACAD_MLATT
360
1307
  3
ACAD_XREC_ROUNDTRIP
360
1306
  0
DICTIONARY
  5
1308
330
260
100
AcDbDictionary
280
     1
281
     1
  3
ACAD_MLATT
360
130A
  3
ACAD_XREC_ROUNDTRIP
360
1309
  0
DICTIONARY
  5
130B
330
261
100
AcDbDictionary
280
     1
281
     1
  3
ACAD_MLATT
360
130D
  3
ACAD_XREC_ROUNDTRIP
360
130C
  0
DICTIONARY
  5
130E
330
262
100
AcDbDictionary
280
     1
281
     1
  3
ACAD_MLATT
360
1310
  3
ACAD_XREC_ROUNDTRIP
360
130F
  0
DICTIONARY
  5
1311
330
263
100
AcDbDictionary
280
     1
281
     1
  3
ACAD_MLATT
360
1313
  3
ACAD_XREC_ROUNDTRIP
360
1312
  0
DICTIONARY
  5
1314
330
264
100
AcDbDictionary
280
     1
281
     1
  3
ACAD_MLATT
360
1316
  3
ACAD_XREC_ROUNDTRIP
360
1315
  0
DICTIONARY
  5
1317
330
265
100
AcDbDictionary
280
     1
281
     1
  3
ACAD_MLATT
360
1319
  3
ACAD_XREC_ROUNDTRIP
360
1318
  0
DICTIONARY
  5
131A
330
266
100
AcDbDictionary
280
     1
281
     1
  3
ACAD_MLATT
360
131C
  3
ACAD_XREC_ROUNDTRIP
360
131B
  0
DICTIONARY
  5
131D
330
267
100
AcDbDictionary
280
     1
281
     1
  3
ACAD_MLATT
360
131F
  3
ACAD_XREC_ROUNDTRIP
360
131E
  0
DICTIONARY
  5
1320
330
268
100
AcDbDictionary
280
     1
281
     1
  3
ACAD_MLATT
360
1322
  3
ACAD_XREC_ROUNDTRIP
360
1321
  0
DICTIONARY
  5
1323
330
269
100
AcDbDictionary
280
     1
281
     1
  3
ACAD_MLATT
360
1325
  3
ACAD_XREC_ROUNDTRIP
360
1324
  0
DICTIONARY
  5
1326
330
26A
100
AcDbDictionary
280
     1
281
     1
  3
ACAD_MLATT
360
1328
  3
ACAD_XREC_ROUNDTRIP
360
1327
  0
DICTIONARY
  5
1329
330
26B
100
AcDbDictionary
280
     1
281
     1
  3
ACAD_MLATT
360
132B
  3
ACAD_XREC_ROUNDTRIP
360
132A
  0
DICTIONARY
  5
132C
330
26C
100
AcDbDictionary
280
     1
281
     1
  3
ACAD_MLATT
360
132E
  3
ACAD_XREC_ROUNDTRIP
360
132D
  0
DICTIONARY
  5
132F
330
26D
100
AcDbDictionary
280
     1
281
     1
  3
ACAD_MLATT
360
1331
  3
ACAD_XREC_ROUNDTRIP
360
1330
  0
DICTIONARY
  5
1332
330
26E
100
AcDbDictionary
280
     1
281
     1
  3
ACAD_MLATT
360
1334
  3
ACAD_XREC_ROUNDTRIP
360
1333
  0
DICTIONARY
  5
1335
330
26F
100
AcDbDictionary
280
     1
281
     1
  3
ACAD_MLATT
360
1337
  3
ACAD_XREC_ROUNDTRIP
360
1336
  0
DICTIONARY
  5
6E
102
{ACAD_REACTORS
330
C
102
}
330
C
100
AcDbDictionary
281
     1
  0
DICTIONARY
  5
D
102
{ACAD_REACTORS
330
C
102
}
330
C
100
AcDbDictionary
281
     1
  0
DICTIONARY
  5
6D
102
{ACAD_REACTORS
330
C
102
}
330
C
100
AcDbDictionary
281
     1
  3
Layout1
350
76
  3
Layout2
350
7E
  3
Model
350
7A
  0
DICTIONARY
  5
10
102
{ACAD_REACTORS
330
C
102
}
330
C
100
AcDbDictionary
281
     1
  3
ByBlock
350
19
  3
ByLayer
350
11
  3
Global
350
21
  0
DICTIONARY
  5
71
102
{ACAD_REACTORS
330
C
102
}
330
C
100
AcDbDictionary
281
     1
  3
Standard
350
72
  0
DICTIONARY
  5
6A
102
{ACAD_REACTORS
330
C
102
}
330
C
100
AcDbDictionary
281
     1
  3
Standard
350
6B
  0
DICTIONARY
  5
6C
102
{ACAD_REACTORS
330
C
102
}
330
C
100
AcDbDictionary
281
     1
  0
ACDBDICTIONARYWDFLT
  5
E
102
{ACAD_REACTORS
330
C
102
}
330
C
100
AcDbDictionary
281
     1
  3
Normal
350
F
100
AcDbDictionaryWithDefault
340
F
  0
DICTIONARY
  5
3D
102
{ACAD_REACTORS
330
C
102
}
330
C
100
AcDbDictionary
281
     1
  3
A0
350
3E
  3
A1
350
3F
  3
A2
350
40
  3
A3
350
41
  3
A4
350
42
  3
A5
350
43
  3
A6
350
44
  3
A7
350
45
  3
A8
350
46
  3
A9
350
47
  3
B0
350
48
  3
B1
350
49
  3
B2
350
4A
  3
B3
350
4B
  3
B4
350
4C
  3
B5
350
4D
  3
B6
350
4E
  3
B7
350
4F
  3
B8
350
50
  3
B9
350
51
  3
C0
350
52
  3
C1
350
53
  3
C2
350
54
  3
C3
350
55
  3
C4
350
56
  3
C5
350
57
  3
C6
350
58
  3
C7
350
59
  3
C8
350
5A
  3
C9
350
5B
  3
D0
350
5C
  3
D1
350
5D
  3
D2
350
5E
  0
DICTIONARY
  5
6F
102
{ACAD_REACTORS
330
C
102
}
330
C
100
AcDbDictionary
281
     1
  3
Standard
350
70
  0
DICTIONARY
  5
29
102
{ACAD_REACTORS
330
C
102
}
330
C
100
AcDbDictionary
281
     1
  3
2dWireframe
350
2F
  3
3D Hidden
350
31
  3
3dWireframe
350
30
  3
Basic
350
2E
  3
Brighten
350
35
  3
ColorChange
350
39
  3
Conceptual
350
32
  3
Dim
350
34
  3
EdgeColorOff
350
3C
  3
Facepattern
350
38
  3
Flat
350
2A
  3
FlatWithEdges
350
2B
  3
Gouraud
350
2C
  3
GouraudWithEdges
350
2D
  3
JitterOff
350
3A
  3
Linepattern
350
37
  3
OverhangOff
350
3B
  3
Realistic
350
33
  3
Thicken
350
36
  0
XRECORD
  5
1338
102
{ACAD_REACTORS
330
C
102
}
330
C
100
AcDbXrecord
280
     1
 90
        1
330
70
330
106
330
245
330
247
330
248
330
24A
330
24B
330
24D
330
24E
330
24F
330
250
330
251
330
252
330
253
330
254
330
255
330
256
330
257
330
258
330
259
330
25A
330
25D
330
25E
330
25F
330
260
330
261
330
262
330
263
330
264
330
265
330
266
330
267
330
268
330
269
330
26A
330
26B
330
26C
330
26D
330
26E
330
26F
330
F0F
330
FF9
330
10E3
  0
DICTIONARY
  5
12B7
102
{ACAD_REACTORS
330
C
102
}
330
C
100
AcDbDictionary
281
     1
  3
CANNOSCALE
350
12BB
  3
CMLEADERSTYLE
350
12B9
  3
CTABLESTYLE
350
12B8
  3
LAYEREVAL
350
12BD
  3
LAYERNOTIFY
350
12BE
  3
LIGHTINGUNITS
350
12BC
  3
MSLTSCALE
350
12BA
  3
XCLIPFRAME
350
12BF
  0
XRECORD
  5
12C4
102
{ACAD_REACTORS
330
12C2
102
}
330
12C2
100
AcDbXrecord
280
     1
 70
     4
 70
     0
 70
     0
 40
1.0
  2
<Enter_Prompt_for_Field>
  1
Embedded Object
 10
0.0
 20
0.0
 30
0.0
 40
2.5
 41
0.0
 46
0.0
 71
     5
 72
     5
  1
\W0.9000;
  7
Text Style49
 73
     1
 44
1.0
  0
XRECORD
  5
12C3
102
{ACAD_REACTORS
330
12C2
102
}
330
12C2
100
AcDbXrecord
280
     1
102
ACAD_MATT_HEIGHT
140
2.5
  0
XRECORD
  5
12C8
102
{ACAD_REACTORS
330
12C6
102
}
330
12C6
100
AcDbXrecord
280
     1
 70
     4
 70
     0
 70
     0
 40
1.0
  2
Title
  1
Embedded Object
 10
206.6
 20
126.0241925130958
 30
0.0
 40
5.0
 41
89.14362202638884
 46
0.0
 71
     4
 72
     5
  1
G20480N
  7
Text Style20
 73
     1
 44
1.0
  0
XRECORD
  5
12C7
102
{ACAD_REACTORS
330
12C6
102
}
330
12C6
100
AcDbXrecord
280
     1
102
ACAD_MATT_HEIGHT
140
5.0
  0
XRECORD
  5
12CB
102
{ACAD_REACTORS
330
12C9
102
}
330
12C9
100
AcDbXrecord
280
     1
 70
     4
 70
     0
 70
     0
 40
1.0
  2
Auxiliary_Remark1
  1
Embedded Object
 10
206.6000000000001
 20
119.5241925130958
 30
0.0
 40
3.499999940395355
 41
88.8588638187849
 46
0.0
 71
     4
 72
     5
  1

  7
Text Style9
 73
     1
 44
1.0
  0
XRECORD
  5
12CA
102
{ACAD_REACTORS
330
12C9
102
}
330
12C9
100
AcDbXrecord
280
     1
102
ACAD_MATT_HEIGHT
140
3.499999940395355
  0
XRECORD
  5
12CE
102
{ACAD_REACTORS
330
12CC
102
}
330
12CC
100
AcDbXrecord
280
     1
 70
     4
 70
     0
 70
     0
 40
1.0
  2
Auxiliary_Remark2
  1
Embedded Object
 10
206.6
 20
113.0241925130958
 30
0.0
 40
3.499999940395355
 41
88.50560020660971
 46
0.0
 71
     4
 72
     5
  1

  7
Text Style9
 73
     1
 44
1.0
  0
XRECORD
  5
12CD
102
{ACAD_REACTORS
330
12CC
102
}
330
12CC
100
AcDbXrecord
280
     1
102
ACAD_MATT_HEIGHT
140
3.499999940395355
  0
XRECORD
  5
12D1
102
{ACAD_REACTORS
330
12CF
102
}
330
12CF
100
AcDbXrecord
280
     1
 70
     4
 70
     0
 70
     0
 40
1.0
  2
Part_number
  1
Embedded Object
 10
248.1
 20
141.0241925130958
 30
0.0
 40
2.5
 41
35.7212232739224
 46
0.0
 71
     4
 72
     5
  1

  7
Text Style38
 73
     1
 44
1.0
  0
XRECORD
  5
12D0
102
{ACAD_REACTORS
330
12CF
102
}
330
12CF
100
AcDbXrecord
280
     1
102
ACAD_MATT_HEIGHT
140
2.5
  0
XRECORD
  5
12D4
102
{ACAD_REACTORS
330
12D2
102
}
330
12D2
100
AcDbXrecord
280
     1
 70
     4
 70
     0
 70
     0
 40
1.0
  2
Document_Number
  1
Embedded Object
 10
218.1
 20
104.2741925130957
 30
0.0
 40
5.0
 41
45.26060067066413
 46
0.0
 71
     4
 72
     5
  1
0093-129729
  7
Text Style20
 73
     1
 44
1.0
  0
XRECORD
  5
12D3
102
{ACAD_REACTORS
330
12D2
102
}
330
12D2
100
AcDbXrecord
280
     1
102
ACAD_MATT_HEIGHT
140
5.0
  0
XRECORD
  5
12D7
102
{ACAD_REACTORS
330
12D5
102
}
330
12D5
100
AcDbXrecord
280
     1
 70
     4
 70
     0
 70
     0
 40
1.0
  2
Revision_Memo_1
  1
Embedded Object
 10
155.6
 20
138.0241925130958
 30
0.0
 40
2.000000029802322
 41
46.75017271010267
 46
0.0
 71
     1
 72
     5
  1

  7
Text Style40
 73
     1
 44
1.0
  0
XRECORD
  5
12D6
102
{ACAD_REACTORS
330
12D5
102
}
330
12D5
100
AcDbXrecord
280
     1
102
ACAD_MATT_HEIGHT
140
2.000000029802322
  0
XRECORD
  5
12DA
102
{ACAD_REACTORS
330
12D8
102
}
330
12D8
100
AcDbXrecord
280
     1
 70
     4
 70
     0
 70
     0
 40
1.0
  2
Revision_Index_1
  1
Embedded Object
 10
264.6
 20
104.2741925130957
 30
0.0
 40
5.0
 41
11.14714749717635
 46
0.0
 71
     4
 72
     5
  1

  7
Text Style20
 73
     1
 44
1.0
  0
XRECORD
  5
12D9
102
{ACAD_REACTORS
330
12D8
102
}
330
12D8
100
AcDbXrecord
280
     1
102
ACAD_MATT_HEIGHT
140
5.0
  0
XRECORD
  5
12DD
102
{ACAD_REACTORS
330
12DB
102
}
330
12DB
100
AcDbXrecord
280
     1
 70
     4
 70
     0
 70
     0
 40
1.0
  2
Sheet_Size
  1
Embedded Object
 10
205.6
 20
104.2741925130957
 30
0.0
 40
5.0
 41
44.17438307011515
 46
0.0
 71
     4
 72
     5
  1
A4
  7
Text Style20
 73
     1
 44
1.0
  0
XRECORD
  5
12DC
102
{ACAD_REACTORS
330
12DB
102
}
330
12DB
100
AcDbXrecord
280
     1
102
ACAD_MATT_HEIGHT
140
5.0
  0
XRECORD
  5
12E0
102
{ACAD_REACTORS
330
12DE
102
}
330
12DE
100
AcDbXrecord
280
     1
 70
     4
 70
     0
 70
     0
 40
1.0
  2
Drawn_By
  1
Embedded Object
 10
90.6
 20
141.0241925130958
 30
0.0
 40
2.000000029802322
 41
14.31996733840145
 46
0.0
 71
     4
 72
     5
  1
SS136
  7
Text Style40
 73
     1
 44
1.0
  0
XRECORD
  5
12DF
102
{ACAD_REACTORS
330
12DE
102
}
330
12DE
100
AcDbXrecord
280
     1
102
ACAD_MATT_HEIGHT
140
2.000000029802322
  0
XRECORD
  5
12E3
102
{ACAD_REACTORS
330
12E1
102
}
330
12E1
100
AcDbXrecord
280
     1
 70
     4
 70
     0
 70
     0
 40
1.0
  2
Modified_By
  1
Embedded Object
 10
90.6
 20
133.5241925130958
 30
0.0
 40
2.000000029802322
 41
13.91658797675633
 46
0.0
 71
     4
 72
     5
  1

  7
Text Style40
 73
     1
 44
1.0
  0
XRECORD
  5
12E2
102
{ACAD_REACTORS
330
12E1
102
}
330
12E1
100
AcDbXrecord
280
     1
102
ACAD_MATT_HEIGHT
140
2.000000029802322
  0
XRECORD
  5
12E6
102
{ACAD_REACTORS
330
12E4
102
}
330
12E4
100
AcDbXrecord
280
     1
 70
     4
 70
     0
 70
     0
 40
1.0
  2
Drawn_Date
  1
Embedded Object
 10
135.6
 20
141.0241925130958
 30
0.0
 40
2.000000029802322
 41
20.97572680554579
 46
0.0
 71
     4
 72
     5
  1
21/10/2010
  7
Text Style40
 73
     1
 44
1.0
  0
XRECORD
  5
12E5
102
{ACAD_REACTORS
330
12E4
102
}
330
12E4
100
AcDbXrecord
280
     1
102
ACAD_MATT_HEIGHT
140
2.000000029802322
  0
XRECORD
  5
12E9
102
{ACAD_REACTORS
330
12E7
102
}
330
12E7
100
AcDbXrecord
280
     1
 70
     4
 70
     0
 70
     0
 40
1.0
  2
Modified_Date
  1
Embedded Object
 10
135.6
 20
133.5241925130958
 30
0.0
 40
2.000000029802322
 41
20.16896808225555
 46
0.0
 71
     4
 72
     5
  1

  7
Text Style40
 73
     1
 44
1.0
  0
XRECORD
  5
12E8
102
{ACAD_REACTORS
330
12E7
102
}
330
12E7
100
AcDbXrecord
280
     1
102
ACAD_MATT_HEIGHT
140
2.000000029802322
  0
XRECORD
  5
12EC
102
{ACAD_REACTORS
330
12EA
102
}
330
12EA
100
AcDbXrecord
280
     1
 70
     4
 70
     0
 70
     0
 40
1.0
  2
Revision_Titel_1
  1
Embedded Object
 10
155.6
 20
141.0241925130958
 30
0.0
 40
2.000000029802322
 41
52.85729261131551
 46
0.0
 71
     4
 72
     5
  1

  7
Text Style40
 73
     1
 44
1.0
  0
XRECORD
  5
12EB
102
{ACAD_REACTORS
330
12EA
102
}
330
12EA
100
AcDbXrecord
280
     1
102
ACAD_MATT_HEIGHT
140
2.000000029802322
  0
XRECORD
  5
12EF
102
{ACAD_REACTORS
330
12ED
102
}
330
12ED
100
AcDbXrecord
280
     1
 70
     4
 70
     0
 70
     0
 40
1.0
  2
Sheet_number
  1
Embedded Object
 10
278.35
 20
104.2741925130957
 30
0.0
 40
5.0
 41
0.0
 46
0.0
 71
     5
 72
     5
  1
\W0.9000;1 
  7
Text__5.0mm
 73
     1
 44
1.0
  0
XRECORD
  5
12EE
102
{ACAD_REACTORS
330
12ED
102
}
330
12ED
100
AcDbXrecord
280
     1
102
ACAD_MATT_HEIGHT
140
5.0
  0
XRECORD
  5
12F2
102
{ACAD_REACTORS
330
12F0
102
}
330
12F0
100
AcDbXrecord
280
     1
 70
     4
 70
     0
 70
     0
 40
1.0
  2
Number_of_sheets
  1
Embedded Object
 10
285.85
 20
104.2741925130957
 30
0.0
 40
5.0
 41
0.0
 46
0.0
 71
     5
 72
     5
  1
\W0.9000;4 
  7
Text__5.0mm
 73
     1
 44
1.0
  0
XRECORD
  5
12F1
102
{ACAD_REACTORS
330
12F0
102
}
330
12F0
100
AcDbXrecord
280
     1
102
ACAD_MATT_HEIGHT
140
5.0
  0
XRECORD
  5
12F5
102
{ACAD_REACTORS
330
12F3
102
}
330
12F3
100
AcDbXrecord
280
     1
 70
     4
 70
     0
 70
     0
 40
1.0
  2
FUN
  1
Embedded Object
 10
205.6
 20
133.5241925130958
 30
0.0
 40
2.5
 41
35.7212232739224
 46
0.0
 71
     4
 72
     5
  1

  7
Text Style38
 73
     1
 44
1.0
  0
XRECORD
  5
12F4
102
{ACAD_REACTORS
330
12F3
102
}
330
12F3
100
AcDbXrecord
280
     1
102
ACAD_MATT_HEIGHT
140
2.5
  0
XRECORD
  5
12F8
102
{ACAD_REACTORS
330
12F6
102
}
330
12F6
100
AcDbXrecord
280
     1
 70
     4
 70
     0
 70
     0
 40
1.0
  2
EAN
  1
Embedded Object
 10
248.1
 20
133.5241925130958
 30
0.0
 40
2.5
 41
35.7212232739224
 46
0.0
 71
     4
 72
     5
  1
7612979003390
  7
Text Style38
 73
     1
 44
1.0
  0
XRECORD
  5
12F7
102
{ACAD_REACTORS
330
12F6
102
}
330
12F6
100
AcDbXrecord
280
     1
102
ACAD_MATT_HEIGHT
140
2.5
  0
XRECORD
  5
12FB
102
{ACAD_REACTORS
330
12F9
102
}
330
12F9
100
AcDbXrecord
280
     1
 70
     4
 70
     0
 70
     0
 40
1.0
  2
Departement
  1
Embedded Object
 10
110.6
 20
133.5241925130958
 30
0.0
 40
2.000000029802322
 41
17.55611008168829
 46
0.0
 71
     4
 72
     5
  1
FSI-Marketing
  7
Text Style40
 73
     1
 44
1.0
  0
XRECORD
  5
12FA
102
{ACAD_REACTORS
330
12F9
102
}
330
12F9
100
AcDbXrecord
280
     1
102
ACAD_MATT_HEIGHT
140
2.000000029802322
  0
XRECORD
  5
12FE
102
{ACAD_REACTORS
330
12FC
102
}
330
12FC
100
AcDbXrecord
280
     1
 70
     4
 70
     0
 70
     0
 40
1.0
  2
Departement
  1
Embedded Object
 10
110.6
 20
141.0241925130958
 30
0.0
 40
2.000000029802322
 41
18.45803981954006
 46
0.0
 71
     4
 72
     5
  1
FSI-Marketing
  7
Text Style40
 73
     1
 44
1.0
  0
XRECORD
  5
12FD
102
{ACAD_REACTORS
330
12FC
102
}
330
12FC
100
AcDbXrecord
280
     1
102
ACAD_MATT_HEIGHT
140
2.000000029802322
  0
XRECORD
  5
1301
102
{ACAD_REACTORS
330
12FF
102
}
330
12FF
100
AcDbXrecord
280
     1
 70
     2
 70
     0
 70
     0
 40
1.0
  2
Title
  1
Embedded Object
 10
976.0
 20
246.0000000000005
 30
0.0
 40
40.0
 41
713.1489762111107
 46
0.0
 71
     4
 72
     5
  1
G20480N
  7
Text Style20
 73
     1
 44
1.0
  0
XRECORD
  5
1300
102
{ACAD_REACTORS
330
12FF
102
}
330
12FF
100
AcDbXrecord
280
     1
102
ACAD_MATT_HEIGHT
140
40.0
  0
XRECORD
  5
1304
102
{ACAD_REACTORS
330
1302
102
}
330
1302
100
AcDbXrecord
280
     1
 70
     2
 70
     0
 70
     0
 40
1.0
  2
Auxiliary_Remark1
  1
Embedded Object
 10
976.0000000000005
 20
194.0000000000005
 30
0.0
 40
27.99999952316284
 41
710.8709105502791
 46
0.0
 71
     4
 72
     5
  1

  7
Text Style9
 73
     1
 44
1.0
  0
XRECORD
  5
1303
102
{ACAD_REACTORS
330
1302
102
}
330
1302
100
AcDbXrecord
280
     1
102
ACAD_MATT_HEIGHT
140
27.99999952316284
  0
XRECORD
  5
1307
102
{ACAD_REACTORS
330
1305
102
}
330
1305
100
AcDbXrecord
280
     1
 70
     2
 70
     0
 70
     0
 40
1.0
  2
Auxiliary_Remark2
  1
Embedded Object
 10
976.0
 20
142.0000000000006
 30
0.0
 40
27.99999952316284
 41
708.0448016528777
 46
0.0
 71
     4
 72
     5
  1

  7
Text Style9
 73
     1
 44
1.0
  0
XRECORD
  5
1306
102
{ACAD_REACTORS
330
1305
102
}
330
1305
100
AcDbXrecord
280
     1
102
ACAD_MATT_HEIGHT
140
27.99999952316284
  0
XRECORD
  5
130A
102
{ACAD_REACTORS
330
1308
102
}
330
1308
100
AcDbXrecord
280
     1
 70
     2
 70
     0
 70
     0
 40
1.0
  2
Part_number
  1
Embedded Object
 10
1308.0
 20
366.0000000000005
 30
0.0
 40
20.0
 41
285.7697861913792
 46
0.0
 71
     4
 72
     5
  1

  7
Text Style38
 73
     1
 44
1.0
  0
XRECORD
  5
1309
102
{ACAD_REACTORS
330
1308
102
}
330
1308
100
AcDbXrecord
280
     1
102
ACAD_MATT_HEIGHT
140
20.0
  0
XRECORD
  5
130D
102
{ACAD_REACTORS
330
130B
102
}
330
130B
100
AcDbXrecord
280
     1
 70
     2
 70
     0
 70
     0
 40
1.0
  2
Document_Number
  1
Embedded Object
 10
1068.0
 20
72.00000000000002
 30
0.0
 40
40.0
 41
362.0848053653131
 46
0.0
 71
     4
 72
     5
  1
0093-129729
  7
Text Style20
 73
     1
 44
1.0
  0
XRECORD
  5
130C
102
{ACAD_REACTORS
330
130B
102
}
330
130B
100
AcDbXrecord
280
     1
102
ACAD_MATT_HEIGHT
140
40.0
  0
XRECORD
  5
1310
102
{ACAD_REACTORS
330
130E
102
}
330
130E
100
AcDbXrecord
280
     1
 70
     2
 70
     0
 70
     0
 40
1.0
  2
Revision_Memo_1
  1
Embedded Object
 10
568.0
 20
342.0000000000003
 30
0.0
 40
16.00000023841858
 41
374.0013816808214
 46
0.0
 71
     1
 72
     5
  1

  7
Text Style40
 73
     1
 44
1.0
  0
XRECORD
  5
130F
102
{ACAD_REACTORS
330
130E
102
}
330
130E
100
AcDbXrecord
280
     1
102
ACAD_MATT_HEIGHT
140
16.00000023841858
  0
XRECORD
  5
1313
102
{ACAD_REACTORS
330
1311
102
}
330
1311
100
AcDbXrecord
280
     1
 70
     2
 70
     0
 70
     0
 40
1.0
  2
Revision_Index_1
  1
Embedded Object
 10
1440.0
 20
71.9999999999996
 30
0.0
 40
40.0
 41
89.17717997741078
 46
0.0
 71
     4
 72
     5
  1

  7
Text Style20
 73
     1
 44
1.0
  0
XRECORD
  5
1312
102
{ACAD_REACTORS
330
1311
102
}
330
1311
100
AcDbXrecord
280
     1
102
ACAD_MATT_HEIGHT
140
40.0
  0
XRECORD
  5
1316
102
{ACAD_REACTORS
330
1314
102
}
330
1314
100
AcDbXrecord
280
     1
 70
     2
 70
     0
 70
     0
 40
1.0
  2
Sheet_Size
  1
Embedded Object
 10
968.0000000000001
 20
72.00000000000002
 30
0.0
 40
40.0
 41
353.3950645609213
 46
0.0
 71
     4
 72
     5
  1
A4
  7
Text Style20
 73
     1
 44
1.0
  0
XRECORD
  5
1315
102
{ACAD_REACTORS
330
1314
102
}
330
1314
100
AcDbXrecord
280
     1
102
ACAD_MATT_HEIGHT
140
40.0
  0
XRECORD
  5
1319
102
{ACAD_REACTORS
330
1317
102
}
330
1317
100
AcDbXrecord
280
     1
 70
     2
 70
     0
 70
     0
 40
1.0
  2
Drawn_By
  1
Embedded Object
 10
47.99999999999982
 20
366.0000000000005
 30
0.0
 40
16.00000023841858
 41
114.5597387072117
 46
0.0
 71
     4
 72
     5
  1
SS136
  7
Text Style40
 73
     1
 44
1.0
  0
XRECORD
  5
1318
102
{ACAD_REACTORS
330
1317
102
}
330
1317
100
AcDbXrecord
280
     1
102
ACAD_MATT_HEIGHT
140
16.00000023841858
  0
XRECORD
  5
131C
102
{ACAD_REACTORS
330
131A
102
}
330
131A
100
AcDbXrecord
280
     1
 70
     2
 70
     0
 70
     0
 40
1.0
  2
Modified_By
  1
Embedded Object
 10
47.99999999999982
 20
306.0000000000007
 30
0.0
 40
16.00000023841858
 41
111.3327038140507
 46
0.0
 71
     4
 72
     5
  1

  7
Text Style40
 73
     1
 44
1.0
  0
XRECORD
  5
131B
102
{ACAD_REACTORS
330
131A
102
}
330
131A
100
AcDbXrecord
280
     1
102
ACAD_MATT_HEIGHT
140
16.00000023841858
  0
XRECORD
  5
131F
102
{ACAD_REACTORS
330
131D
102
}
330
131D
100
AcDbXrecord
280
     1
 70
     2
 70
     0
 70
     0
 40
1.0
  2
Drawn_Date
  1
Embedded Object
 10
408.0
 20
366.0000000000005
 30
0.0
 40
16.00000023841858
 41
167.8058144443663
 46
0.0
 71
     4
 72
     5
  1
21/10/2010
  7
Text Style40
 73
     1
 44
1.0
  0
XRECORD
  5
131E
102
{ACAD_REACTORS
330
131D
102
}
330
131D
100
AcDbXrecord
280
     1
102
ACAD_MATT_HEIGHT
140
16.00000023841858
  0
XRECORD
  5
1322
102
{ACAD_REACTORS
330
1320
102
}
330
1320
100
AcDbXrecord
280
     1
 70
     2
 70
     0
 70
     0
 40
1.0
  2
Modified_Date
  1
Embedded Object
 10
408.0
 20
306.0000000000007
 30
0.0
 40
16.00000023841858
 41
161.3517446580444
 46
0.0
 71
     4
 72
     5
  1

  7
Text Style40
 73
     1
 44
1.0
  0
XRECORD
  5
1321
102
{ACAD_REACTORS
330
1320
102
}
330
1320
100
AcDbXrecord
280
     1
102
ACAD_MATT_HEIGHT
140
16.00000023841858
  0
XRECORD
  5
1325
102
{ACAD_REACTORS
330
1323
102
}
330
1323
100
AcDbXrecord
280
     1
 70
     2
 70
     0
 70
     0
 40
1.0
  2
Revision_Titel_1
  1
Embedded Object
 10
568.0
 20
366.0000000000002
 30
0.0
 40
16.00000023841858
 41
422.8583408905241
 46
0.0
 71
     4
 72
     5
  1

  7
Text Style40
 73
     1
 44
1.0
  0
XRECORD
  5
1324
102
{ACAD_REACTORS
330
1323
102
}
330
1323
100
AcDbXrecord
280
     1
102
ACAD_MATT_HEIGHT
140
16.00000023841858
  0
XRECORD
  5
1328
102
{ACAD_REACTORS
330
1326
102
}
330
1326
100
AcDbXrecord
280
     1
 70
     2
 70
     0
 70
     0
 40
1.0
  2
Sheet_number
  1
Embedded Object
 10
1550.0
 20
71.9999999999996
 30
0.0
 40
40.0
 41
0.0
 46
0.0
 71
     5
 72
     5
  1
\W0.9000;1 
  7
Text__5.0mm
 73
     1
 44
1.0
  0
XRECORD
  5
1327
102
{ACAD_REACTORS
330
1326
102
}
330
1326
100
AcDbXrecord
280
     1
102
ACAD_MATT_HEIGHT
140
40.0
  0
XRECORD
  5
132B
102
{ACAD_REACTORS
330
1329
102
}
330
1329
100
AcDbXrecord
280
     1
 70
     2
 70
     0
 70
     0
 40
1.0
  2
Number_of_sheets
  1
Embedded Object
 10
1610.0
 20
71.9999999999996
 30
0.0
 40
40.0
 41
0.0
 46
0.0
 71
     5
 72
     5
  1
\W0.9000;4 
  7
Text__5.0mm
 73
     1
 44
1.0
  0
XRECORD
  5
132A
102
{ACAD_REACTORS
330
1329
102
}
330
1329
100
AcDbXrecord
280
     1
102
ACAD_MATT_HEIGHT
140
40.0
  0
XRECORD
  5
132E
102
{ACAD_REACTORS
330
132C
102
}
330
132C
100
AcDbXrecord
280
     1
 70
     2
 70
     0
 70
     0
 40
1.0
  2
FUN
  1
Embedded Object
 10
968.0000000000001
 20
306.0000000000005
 30
0.0
 40
20.0
 41
285.7697861913792
 46
0.0
 71
     4
 72
     5
  1

  7
Text Style38
 73
     1
 44
1.0
  0
XRECORD
  5
132D
102
{ACAD_REACTORS
330
132C
102
}
330
132C
100
AcDbXrecord
280
     1
102
ACAD_MATT_HEIGHT
140
20.0
  0
XRECORD
  5
1331
102
{ACAD_REACTORS
330
132F
102
}
330
132F
100
AcDbXrecord
280
     1
 70
     2
 70
     0
 70
     0
 40
1.0
  2
EAN
  1
Embedded Object
 10
1308.0
 20
306.0000000000005
 30
0.0
 40
20.0
 41
285.7697861913792
 46
0.0
 71
     4
 72
     5
  1
7612979003390
  7
Text Style38
 73
     1
 44
1.0
  0
XRECORD
  5
1330
102
{ACAD_REACTORS
330
132F
102
}
330
132F
100
AcDbXrecord
280
     1
102
ACAD_MATT_HEIGHT
140
20.0
  0
XRECORD
  5
1334
102
{ACAD_REACTORS
330
1332
102
}
330
1332
100
AcDbXrecord
280
     1
 70
     2
 70
     0
 70
     0
 40
1.0
  2
Departement
  1
Embedded Object
 10
207.9999999999998
 20
306.0000000000007
 30
0.0
 40
16.00000023841858
 41
140.4488806535063
 46
0.0
 71
     4
 72
     5
  1
FSI-Marketing
  7
Text Style40
 73
     1
 44
1.0
  0
XRECORD
  5
1333
102
{ACAD_REACTORS
330
1332
102
}
330
1332
100
AcDbXrecord
280
     1
102
ACAD_MATT_HEIGHT
140
16.00000023841858
  0
XRECORD
  5
1337
102
{ACAD_REACTORS
330
1335
102
}
330
1335
100
AcDbXrecord
280
     1
 70
     2
 70
     0
 70
     0
 40
1.0
  2
Departement
  1
Embedded Object
 10
207.9999999999998
 20
366.0000000000005
 30
0.0
 40
16.00000023841858
 41
147.6643185563205
 46
0.0
 71
     4
 72
     5
  1
FSI-Marketing
  7
Text Style40
 73
     1
 44
1.0
  0
XRECORD
  5
1336
102
{ACAD_REACTORS
330
1335
102
}
330
1335
100
AcDbXrecord
280
     1
102
ACAD_MATT_HEIGHT
140
16.00000023841858
  0
LAYOUT
  5
76
102
{ACAD_REACTORS
330
6D
102
}
330
6D
100
AcDbPlotSettings
  1

  2

  4

  6

 40
0.0
 41
0.0
 42
0.0
 43
0.0
 44
0.0
 45
0.0
 46
0.0
 47
0.0
 48
0.0
 49
0.0
140
0.0
141
0.0
142
1.0
143
1.0
 70
   688
 72
     0
 73
     0
 74
     5
  7

 75
    16
147
1.0
 76
     0
 77
     2
 78
   300
148
0.0
149
0.0
100
AcDbLayout
  1
Layout1
 70
     1
 71
     1
 10
0.0
 20
0.0
 11
12.0
 21
9.0
 12
0.0
 22
0.0
 32
0.0
 14
0.0
 24
0.0
 34
0.0
 15
0.0
 25
0.0
 35
0.0
146
0.0
 13
0.0
 23
0.0
 33
0.0
 16
1.0
 26
0.0
 36
0.0
 17
0.0
 27
1.0
 37
0.0
 76
     0
330
73
  0
LAYOUT
  5
7E
102
{ACAD_REACTORS
330
6D
102
}
330
6D
100
AcDbPlotSettings
  1

  2

  4

  6

 40
0.0
 41
0.0
 42
0.0
 43
0.0
 44
0.0
 45
0.0
 46
0.0
 47
0.0
 48
0.0
 49
0.0
140
0.0
141
0.0
142
1.0
143
1.0
 70
   688
 72
     0
 73
     0
 74
     5
  7

 75
    16
147
1.0
 76
     0
 77
     2
 78
   300
148
0.0
149
0.0
100
AcDbLayout
  1
Layout2
 70
     1
 71
     2
 10
0.0
 20
0.0
 11
12.0
 21
9.0
 12
0.0
 22
0.0
 32
0.0
 14
0.0
 24
0.0
 34
0.0
 15
0.0
 25
0.0
 35
0.0
146
0.0
 13
0.0
 23
0.0
 33
0.0
 16
1.0
 26
0.0
 36
0.0
 17
0.0
 27
1.0
 37
0.0
 76
     0
330
7B
  0
LAYOUT
  5
7A
102
{ACAD_REACTORS
330
6D
102
}
330
6D
100
AcDbPlotSettings
  1

  2

  4

  6

 40
0.0
 41
0.0
 42
0.0
 43
0.0
 44
0.0
 45
0.0
 46
0.0
 47
0.0
 48
0.0
 49
0.0
140
0.0
141
0.0
142
1.0
143
1.0
 70
  1712
 72
     0
 73
     0
 74
     0
  7

 75
     0
147
1.0
 76
     0
 77
     2
 78
   300
148
0.0
149
0.0
100
AcDbLayout
  1
Model
 70
     1
 71
     0
 10
0.0
 20
0.0
 11
12.0
 21
9.0
 12
0.0
 22
0.0
 32
0.0
 14
0.0
 24
0.0
 34
0.0
 15
0.0
 25
0.0
 35
0.0
146
0.0
 13
0.0
 23
0.0
 33
0.0
 16
1.0
 26
0.0
 36
0.0
 17
0.0
 27
1.0
 37
0.0
 76
     0
330
77
  0
MATERIAL
  5
19
102
{ACAD_XDICTIONARY
360
1A
102
}
102
{ACAD_REACTORS
330
10
102
}
330
10
100
AcDbMaterial
  1
ByBlock
 72
     0
 43
0.0208333333333333
 43
0.0
 43
0.0
 43
0.0
 43
0.0
 43
0.0208333333333333
 43
0.0
 43
0.0
 43
0.0
 43
0.0
 43
1.0
 43
0.0
 43
0.0
 43
0.0
 43
0.0
 43
1.0
 77
     0
 47
0.0208333333333333
 47
0.0
 47
0.0
 47
0.0
 47
0.0
 47
0.0208333333333333
 47
0.0
 47
0.0
 47
0.0
 47
0.0
 47
1.0
 47
0.0
 47
0.0
 47
0.0
 47
0.0
 47
1.0
171
     0
 49
0.0208333333333333
 49
0.0
 49
0.0
 49
0.0
 49
0.0
 49
0.0208333333333333
 49
0.0
 49
0.0
 49
0.0
 49
0.0
 49
1.0
 49
0.0
 49
0.0
 49
0.0
 49
0.0
 49
1.0
175
     0
142
0.0208333333333333
142
0.0
142
0.0
142
0.0
142
0.0
142
0.0208333333333333
142
0.0
142
0.0
142
0.0
142
0.0
142
1.0
142
0.0
142
0.0
142
0.0
142
0.0
142
1.0
179
     0
144
0.0208333333333333
144
0.0
144
0.0
144
0.0
144
0.0
144
0.0208333333333333
144
0.0
144
0.0
144
0.0
144
0.0
144
1.0
144
0.0
144
0.0
144
0.0
144
0.0
144
1.0
147
0.0208333333333333
147
0.0
147
0.0
147
0.0
147
0.0
147
0.0208333333333333
147
0.0
147
0.0
147
0.0
147
0.0
147
1.0
147
0.0
147
0.0
147
0.0
147
0.0
147
1.0
  0
MATERIAL
  5
11
102
{ACAD_XDICTIONARY
360
12
102
}
102
{ACAD_REACTORS
330
10
102
}
330
10
100
AcDbMaterial
  1
ByLayer
 72
     0
 43
0.0208333333333333
 43
0.0
 43
0.0
 43
0.0
 43
0.0
 43
0.0208333333333333
 43
0.0
 43
0.0
 43
0.0
 43
0.0
 43
1.0
 43
0.0
 43
0.0
 43
0.0
 43
0.0
 43
1.0
 77
     0
 47
0.0208333333333333
 47
0.0
 47
0.0
 47
0.0
 47
0.0
 47
0.0208333333333333
 47
0.0
 47
0.0
 47
0.0
 47
0.0
 47
1.0
 47
0.0
 47
0.0
 47
0.0
 47
0.0
 47
1.0
171
     0
 49
0.0208333333333333
 49
0.0
 49
0.0
 49
0.0
 49
0.0
 49
0.0208333333333333
 49
0.0
 49
0.0
 49
0.0
 49
0.0
 49
1.0
 49
0.0
 49
0.0
 49
0.0
 49
0.0
 49
1.0
175
     0
142
0.0208333333333333
142
0.0
142
0.0
142
0.0
142
0.0
142
0.0208333333333333
142
0.0
142
0.0
142
0.0
142
0.0
142
1.0
142
0.0
142
0.0
142
0.0
142
0.0
142
1.0
179
     0
144
0.0208333333333333
144
0.0
144
0.0
144
0.0
144
0.0
144
0.0208333333333333
144
0.0
144
0.0
144
0.0
144
0.0
144
1.0
144
0.0
144
0.0
144
0.0
144
0.0
144
1.0
147
0.0208333333333333
147
0.0
147
0.0
147
0.0
147
0.0
147
0.0208333333333333
147
0.0
147
0.0
147
0.0
147
0.0
147
1.0
147
0.0
147
0.0
147
0.0
147
0.0
147
1.0
  0
MATERIAL
  5
21
102
{ACAD_XDICTIONARY
360
22
102
}
102
{ACAD_REACTORS
330
10
102
}
330
10
100
AcDbMaterial
  1
Global
 72
     0
 43
0.0208333333333333
 43
0.0
 43
0.0
 43
0.0
 43
0.0
 43
0.0208333333333333
 43
0.0
 43
0.0
 43
0.0
 43
0.0
 43
1.0
 43
0.0
 43
0.0
 43
0.0
 43
0.0
 43
1.0
 77
     0
 47
0.0208333333333333
 47
0.0
 47
0.0
 47
0.0
 47
0.0
 47
0.0208333333333333
 47
0.0
 47
0.0
 47
0.0
 47
0.0
 47
1.0
 47
0.0
 47
0.0
 47
0.0
 47
0.0
 47
1.0
171
     0
 49
0.0208333333333333
 49
0.0
 49
0.0
 49
0.0
 49
0.0
 49
0.0208333333333333
 49
0.0
 49
0.0
 49
0.0
 49
0.0
 49
1.0
 49
0.0
 49
0.0
 49
0.0
 49
0.0
 49
1.0
175
     0
142
0.0208333333333333
142
0.0
142
0.0
142
0.0
142
0.0
142
0.0208333333333333
142
0.0
142
0.0
142
0.0
142
0.0
142
1.0
142
0.0
142
0.0
142
0.0
142
0.0
142
1.0
179
     0
144
0.0208333333333333
144
0.0
144
0.0
144
0.0
144
0.0
144
0.0208333333333333
144
0.0
144
0.0
144
0.0
144
0.0
144
1.0
144
0.0
144
0.0
144
0.0
144
0.0
144
1.0
147
0.0208333333333333
147
0.0
147
0.0
147
0.0
147
0.0
147
0.0208333333333333
147
0.0
147
0.0
147
0.0
147
0.0
147
1.0
147
0.0
147
0.0
147
0.0
147
0.0
147
1.0
  0
MLEADERSTYLE
  5
72
102
{ACAD_REACTORS
330
71
102
}
330
71
100
AcDbMLeaderStyle
170
     2
171
     1
172
     0
 90
        2
 40
0.0
 41
0.0
173
     1
 91
-1056964608
340
66
 92
       -2
290
     1
 42
0.09
291
     1
 43
0.36
  3
Standard
 44
0.18
300

342
60
174
     1
178
     6
175
     1
176
     0
 93
-1056964608
 45
0.18
292
     0
297
     0
 46
0.18
 94
-1056964608
 47
1.0
 49
1.0
140
1.0
293
     1
141
0.0
294
     1
177
     0
142
1.0
295
     0
296
     0
143
0.125
1001
ACAD_MLEADERVER
1070
     2
  0
MLINESTYLE
  5
6B
102
{ACAD_REACTORS
330
6A
102
}
330
6A
100
AcDbMlineStyle
  2
STANDARD
 70
     0
  3

 62
   256
 51
90.0
 52
90.0
 71
     2
 49
0.5
 62
   256
  6
BYLAYER
 49
-0.5
 62
   256
  6
BYLAYER
  0
ACDBPLACEHOLDER
  5
F
102
{ACAD_REACTORS
330
E
102
}
330
E
  0
SCALE
  5
3E
102
{ACAD_REACTORS
330
3D
102
}
330
3D
100
AcDbScale
 70
     0
300
1:1
140
1.0
141
1.0
290
     1
  0
SCALE
  5
3F
102
{ACAD_REACTORS
330
3D
102
}
330
3D
100
AcDbScale
 70
     0
300
1:2
140
1.0
141
2.0
290
     0
  0
SCALE
  5
40
102
{ACAD_REACTORS
330
3D
102
}
330
3D
100
AcDbScale
 70
     0
300
1:4
140
1.0
141
4.0
290
     0
  0
SCALE
  5
41
102
{ACAD_REACTORS
330
3D
102
}
330
3D
100
AcDbScale
 70
     0
300
1:5
140
1.0
141
5.0
290
     0
  0
SCALE
  5
42
102
{ACAD_REACTORS
330
3D
102
}
330
3D
100
AcDbScale
 70
     0
300
1:8
140
1.0
141
8.0
290
     0
  0
SCALE
  5
43
102
{ACAD_REACTORS
330
3D
102
}
330
3D
100
AcDbScale
 70
     0
300
1:10
140
1.0
141
10.0
290
     0
  0
SCALE
  5
44
102
{ACAD_REACTORS
330
3D
102
}
330
3D
100
AcDbScale
 70
     0
300
1:16
140
1.0
141
16.0
290
     0
  0
SCALE
  5
45
102
{ACAD_REACTORS
330
3D
102
}
330
3D
100
AcDbScale
 70
     0
300
1:20
140
1.0
141
20.0
290
     0
  0
SCALE
  5
46
102
{ACAD_REACTORS
330
3D
102
}
330
3D
100
AcDbScale
 70
     0
300
1:30
140
1.0
141
30.0
290
     0
  0
SCALE
  5
47
102
{ACAD_REACTORS
330
3D
102
}
330
3D
100
AcDbScale
 70
     0
300
1:40
140
1.0
141
40.0
290
     0
  0
SCALE
  5
48
102
{ACAD_REACTORS
330
3D
102
}
330
3D
100
AcDbScale
 70
     0
300
1:50
140
1.0
141
50.0
290
     0
  0
SCALE
  5
49
102
{ACAD_REACTORS
330
3D
102
}
330
3D
100
AcDbScale
 70
     0
300
1:100
140
1.0
141
100.0
290
     0
  0
SCALE
  5
4A
102
{ACAD_REACTORS
330
3D
102
}
330
3D
100
AcDbScale
 70
     0
300
2:1
140
2.0
141
1.0
290
     0
  0
SCALE
  5
4B
102
{ACAD_REACTORS
330
3D
102
}
330
3D
100
AcDbScale
 70
     0
300
4:1
140
4.0
141
1.0
290
     0
  0
SCALE
  5
4C
102
{ACAD_REACTORS
330
3D
102
}
330
3D
100
AcDbScale
 70
     0
300
8:1
140
8.0
141
1.0
290
     0
  0
SCALE
  5
4D
102
{ACAD_REACTORS
330
3D
102
}
330
3D
100
AcDbScale
 70
     0
300
10:1
140
10.0
141
1.0
290
     0
  0
SCALE
  5
4E
102
{ACAD_REACTORS
330
3D
102
}
330
3D
100
AcDbScale
 70
     0
300
100:1
140
100.0
141
1.0
290
     0
  0
SCALE
  5
4F
102
{ACAD_REACTORS
330
3D
102
}
330
3D
100
AcDbScale
 70
     0
300
1/128" = 1'-0"
140
0.0078125
141
12.0
290
     0
  0
SCALE
  5
50
102
{ACAD_REACTORS
330
3D
102
}
330
3D
100
AcDbScale
 70
     0
300
1/64" = 1'-0"
140
0.015625
141
12.0
290
     0
  0
SCALE
  5
51
102
{ACAD_REACTORS
330
3D
102
}
330
3D
100
AcDbScale
 70
     0
300
1/32" = 1'-0"
140
0.03125
141
12.0
290
     0
  0
SCALE
  5
52
102
{ACAD_REACTORS
330
3D
102
}
330
3D
100
AcDbScale
 70
     0
300
1/16" = 1'-0"
140
0.0625
141
12.0
290
     0
  0
SCALE
  5
53
102
{ACAD_REACTORS
330
3D
102
}
330
3D
100
AcDbScale
 70
     0
300
3/32" = 1'-0"
140
0.09375
141
12.0
290
     0
  0
SCALE
  5
54
102
{ACAD_REACTORS
330
3D
102
}
330
3D
100
AcDbScale
 70
     0
300
1/8" = 1'-0"
140
0.125
141
12.0
290
     0
  0
SCALE
  5
55
102
{ACAD_REACTORS
330
3D
102
}
330
3D
100
AcDbScale
 70
     0
300
3/16" = 1'-0"
140
0.1875
141
12.0
290
     0
  0
SCALE
  5
56
102
{ACAD_REACTORS
330
3D
102
}
330
3D
100
AcDbScale
 70
     0
300
1/4" = 1'-0"
140
0.25
141
12.0
290
     0
  0
SCALE
  5
57
102
{ACAD_REACTORS
330
3D
102
}
330
3D
100
AcDbScale
 70
     0
300
3/8" = 1'-0"
140
0.375
141
12.0
290
     0
  0
SCALE
  5
58
102
{ACAD_REACTORS
330
3D
102
}
330
3D
100
AcDbScale
 70
     0
300
1/2" = 1'-0"
140
0.5
141
12.0
290
     0
  0
SCALE
  5
59
102
{ACAD_REACTORS
330
3D
102
}
330
3D
100
AcDbScale
 70
     0
300
3/4" = 1'-0"
140
0.75
141
12.0
290
     0
  0
SCALE
  5
5A
102
{ACAD_REACTORS
330
3D
102
}
330
3D
100
AcDbScale
 70
     0
300
1" = 1'-0"
140
1.0
141
12.0
290
     0
  0
SCALE
  5
5B
102
{ACAD_REACTORS
330
3D
102
}
330
3D
100
AcDbScale
 70
     0
300
1-1/2" = 1'-0"
140
1.5
141
12.0
290
     0
  0
SCALE
  5
5C
102
{ACAD_REACTORS
330
3D
102
}
330
3D
100
AcDbScale
 70
     0
300
3" = 1'-0"
140
3.0
141
12.0
290
     0
  0
SCALE
  5
5D
102
{ACAD_REACTORS
330
3D
102
}
330
3D
100
AcDbScale
 70
     0
300
6" = 1'-0"
140
6.0
141
12.0
290
     0
  0
SCALE
  5
5E
102
{ACAD_REACTORS
330
3D
102
}
330
3D
100
AcDbScale
 70
     0
300
1'-0" = 1'-0"
140
12.0
141
12.0
290
     0
  0
TABLESTYLE
  5
70
102
{ACAD_XDICTIONARY
360
12C0
102
}
102
{ACAD_REACTORS
330
6F
102
}
330
6F
100
AcDbTableStyle
  3
Standard
 70
     0
 71
     0
 40
0.06
 41
0.06
280
     0
281
     0
  7
Standard
140
0.18
170
     2
 62
     0
 63
     7
283
     0
274
    -2
284
     1
 64
     0
275
    -2
285
     1
 65
     0
276
    -2
286
     1
 66
     0
277
    -2
287
     1
 67
     0
278
    -2
288
     1
 68
     0
279
    -2
289
     1
 69
     0
  7
Standard
140
0.25
170
     5
 62
     0
 63
     7
283
     0
274
    -2
284
     1
 64
     0
275
    -2
285
     1
 65
     0
276
    -2
286
     1
 66
     0
277
    -2
287
     1
 67
     0
278
    -2
288
     1
 68
     0
279
    -2
289
     1
 69
     0
  7
Standard
140
0.18
170
     5
 62
     0
 63
     7
283
     0
274
    -2
284
     1
 64
     0
275
    -2
285
     1
 65
     0
276
    -2
286
     1
 66
     0
277
    -2
287
     1
 67
     0
278
    -2
288
     1
 68
     0
279
    -2
289
     1
 69
     0
  0
VISUALSTYLE
  5
2F
102
{ACAD_XDICTIONARY
360
1346
102
}
102
{ACAD_REACTORS
330
29
102
}
330
29
100
AcDbVisualStyle
  2
2dWireframe
 70
     4
 71
     0
 72
     2
 73
     0
 90
        0
 40
-0.6
 41
-30.0
 62
     5
 63
     7
421
 16777215
 74
     1
 91
        4
 64
     7
 65
   257
 75
     1
175
     1
 42
1.0
 92
        0
 66
   257
 43
1.0
 76
     1
 77
     6
 78
     2
 67
     7
 79
     5
170
     0
171
     0
290
     0
174
     0
 93
        1
 44
0.0
173
     0
291
     0
 45
0.0
1001
ACAD
1000
AcDbSavedByObjectVersion
1070
     0
  0
VISUALSTYLE
  5
31
102
{ACAD_XDICTIONARY
360
134A
102
}
102
{ACAD_REACTORS
330
29
102
}
330
29
100
AcDbVisualStyle
  2
3D Hidden
 70
     6
 71
     1
 72
     2
 73
     2
 90
        0
 40
-0.6
 41
-30.0
 62
     5
 63
     7
421
 16777215
 74
     2
 91
        2
 64
     7
 65
   257
 75
     2
175
     1
 42
179.0
 92
        0
 66
   257
 43
1.0
 76
     1
 77
     6
 78
     2
 67
     7
 79
     3
170
     0
171
     0
290
     0
174
     0
 93
        1
 44
0.0
173
     0
291
     0
 45
0.0
1001
ACAD
1000
AcDbSavedByObjectVersion
1070
     0
  0
VISUALSTYLE
  5
30
102
{ACAD_XDICTIONARY
360
1348
102
}
102
{ACAD_REACTORS
330
29
102
}
330
29
100
AcDbVisualStyle
  2
3dWireframe
 70
     5
 71
     0
 72
     2
 73
     0
 90
        0
 40
-0.6
 41
-30.0
 62
     5
 63
     7
421
 16777215
 74
     1
 91
        4
 64
     7
 65
   257
 75
     1
175
     1
 42
1.0
 92
        0
 66
   257
 43
1.0
 76
     1
 77
     6
 78
     2
 67
     7
 79
     5
170
     0
171
     0
290
     0
174
     0
 93
        1
 44
0.0
173
     0
291
     0
 45
0.0
1001
ACAD
1000
AcDbSavedByObjectVersion
1070
     0
  0
VISUALSTYLE
  5
2E
102
{ACAD_XDICTIONARY
360
1344
102
}
102
{ACAD_REACTORS
330
29
102
}
330
29
100
AcDbVisualStyle
  2
Basic
 70
     7
 71
     1
 72
     0
 73
     1
 90
        0
 40
-0.6
 41
-30.0
 62
     5
 63
     7
421
 16777215
 74
     0
 91
        4
 64
     7
 65
   257
 75
     1
175
     1
 42
1.0
 92
        8
 66
     7
 43
1.0
 76
     1
 77
     6
 78
     2
 67
     7
 79
     5
170
     0
171
     0
290
     0
174
     0
 93
        1
 44
0.0
173
     0
291
     1
 45
0.0
1001
ACAD
1000
AcDbSavedByObjectVersion
1070
     0
  0
VISUALSTYLE
  5
35
102
{ACAD_XDICTIONARY
360
1352
102
}
102
{ACAD_REACTORS
330
29
102
}
330
29
100
AcDbVisualStyle
  2
Brighten
 70
    12
 71
     2
 72
     2
 73
     0
 90
        0
 40
-0.6
 41
-30.0
 62
     5
 63
     7
421
 16777215
 74
     1
 91
        4
 64
     7
 65
   257
 75
     1
175
     1
 42
1.0
 92
        8
 66
     7
 43
1.0
 76
     1
 77
     6
 78
     2
 67
     7
 79
     5
170
     0
171
     0
290
     0
174
     0
 93
        1
 44
50.0
173
     0
291
     1
 45
0.0
1001
ACAD
1000
AcDbSavedByObjectVersion
1070
     0
  0
VISUALSTYLE
  5
39
102
{ACAD_XDICTIONARY
360
135A
102
}
102
{ACAD_REACTORS
330
29
102
}
330
29
100
AcDbVisualStyle
  2
ColorChange
 70
    16
 71
     2
 72
     2
 73
     3
 90
        0
 40
-0.6
 41
-30.0
 62
     5
 63
     8
421
  8421504
 74
     1
 91
        4
 64
     7
 65
   257
 75
     1
175
     1
 42
1.0
 92
        8
 66
     8
424
  8421504
 43
1.0
 76
     1
 77
     6
 78
     2
 67
     7
 79
     5
170
     0
171
     0
290
     0
174
     0
 93
        1
 44
0.0
173
     0
291
     1
 45
0.0
1001
ACAD
1000
AcDbSavedByObjectVersion
1070
     0
  0
VISUALSTYLE
  5
32
102
{ACAD_XDICTIONARY
360
134C
102
}
102
{ACAD_REACTORS
330
29
102
}
330
29
100
AcDbVisualStyle
  2
Conceptual
 70
     9
 71
     3
 72
     2
 73
     0
 90
        0
 40
-0.6
 41
-30.0
 62
     5
 63
     7
421
 16777215
 74
     2
 91
        2
 64
     7
 65
   257
 75
     1
175
     1
 42
179.0
 92
        8
 66
     7
 43
1.0
 76
     1
 77
     6
 78
     2
 67
     7
 79
     3
170
     0
171
     0
290
     0
174
     0
 93
        1
 44
0.0
173
     0
291
     0
 45
0.0
1001
ACAD
1000
AcDbSavedByObjectVersion
1070
     0
  0
VISUALSTYLE
  5
34
102
{ACAD_XDICTIONARY
360
1350
102
}
102
{ACAD_REACTORS
330
29
102
}
330
29
100
AcDbVisualStyle
  2
Dim
 70
    11
 71
     2
 72
     2
 73
     0
 90
        0
 40
-0.6
 41
-30.0
 62
     5
 63
     7
421
 16777215
 74
     1
 91
        4
 64
     7
 65
   257
 75
     1
175
     1
 42
1.0
 92
        8
 66
     7
 43
1.0
 76
     1
 77
     6
 78
     2
 67
     7
 79
     5
170
     0
171
     0
290
     0
174
     0
 93
        1
 44
-50.0
173
     0
291
     1
 45
0.0
1001
ACAD
1000
AcDbSavedByObjectVersion
1070
     0
  0
VISUALSTYLE
  5
3C
102
{ACAD_XDICTIONARY
360
1360
102
}
102
{ACAD_REACTORS
330
29
102
}
330
29
100
AcDbVisualStyle
  2
EdgeColorOff
 70
    22
 71
     2
 72
     2
 73
     0
 90
        0
 40
-0.6
 41
-30.0
 62
     5
 63
     7
421
 16777215
 74
     1
 91
        4
 64
     7
 65
   257
 75
     1
175
     1
 42
1.0
 92
        8
 66
     7
 43
1.0
 76
     1
 77
     6
 78
     2
 67
     7
 79
     5
170
     0
171
     0
290
     0
174
     0
 93
        1
 44
0.0
173
     0
291
     1
 45
0.0
1001
ACAD
1000
AcDbSavedByObjectVersion
1070
     0
  0
VISUALSTYLE
  5
38
102
{ACAD_XDICTIONARY
360
1358
102
}
102
{ACAD_REACTORS
330
29
102
}
330
29
100
AcDbVisualStyle
  2
Facepattern
 70
    15
 71
     2
 72
     2
 73
     0
 90
        0
 40
-0.6
 41
-30.0
 62
     5
 63
     7
421
 16777215
 74
     1
 91
        4
 64
     7
 65
   257
 75
     1
175
     1
 42
1.0
 92
        8
 66
     7
 43
1.0
 76
     1
 77
     6
 78
     2
 67
     7
 79
     5
170
     0
171
     0
290
     0
174
     0
 93
        1
 44
0.0
173
     0
291
     1
 45
0.0
1001
ACAD
1000
AcDbSavedByObjectVersion
1070
     0
  0
VISUALSTYLE
  5
2A
102
{ACAD_XDICTIONARY
360
133C
102
}
102
{ACAD_REACTORS
330
29
102
}
330
29
100
AcDbVisualStyle
  2
Flat
 70
     0
 71
     2
 72
     1
 73
     1
 90
        2
 40
-0.6
 41
30.0
 62
     5
 63
     7
421
 16777215
 74
     0
 91
        4
 64
     7
 65
   257
 75
     1
175
     1
 42
1.0
 92
        8
 66
     7
 43
1.0
 76
     1
 77
     6
 78
     2
 67
     7
 79
     5
170
     0
171
     0
290
     0
174
     0
 93
       13
 44
0.0
173
     0
291
     1
 45
0.0
1001
ACAD
1000
AcDbSavedByObjectVersion
1070
     0
  0
VISUALSTYLE
  5
2B
102
{ACAD_XDICTIONARY
360
133E
102
}
102
{ACAD_REACTORS
330
29
102
}
330
29
100
AcDbVisualStyle
  2
FlatWithEdges
 70
     1
 71
     2
 72
     1
 73
     1
 90
        2
 40
-0.6
 41
30.0
 62
     5
 63
     7
421
 16777215
 74
     1
 91
        4
 64
     7
 65
   257
 75
     1
175
     1
 42
1.0
 92
        0
 66
   257
 43
1.0
 76
     1
 77
     6
 78
     2
 67
     7
 79
     5
170
     0
171
     0
290
     0
174
     0
 93
       13
 44
0.0
173
     0
291
     1
 45
0.0
1001
ACAD
1000
AcDbSavedByObjectVersion
1070
     0
  0
VISUALSTYLE
  5
2C
102
{ACAD_XDICTIONARY
360
1340
102
}
102
{ACAD_REACTORS
330
29
102
}
330
29
100
AcDbVisualStyle
  2
Gouraud
 70
     2
 71
     2
 72
     2
 73
     1
 90
        2
 40
-0.6
 41
30.0
 62
     5
 63
     7
421
 16777215
 74
     0
 91
        4
 64
     7
 65
   257
 75
     1
175
     1
 42
1.0
 92
        0
 66
     7
 43
1.0
 76
     1
 77
     6
 78
     2
 67
     7
 79
     5
170
     0
171
     0
290
     0
174
     0
 93
       13
 44
0.0
173
     0
291
     1
 45
0.0
1001
ACAD
1000
AcDbSavedByObjectVersion
1070
     0
  0
VISUALSTYLE
  5
2D
102
{ACAD_XDICTIONARY
360
1342
102
}
102
{ACAD_REACTORS
330
29
102
}
330
29
100
AcDbVisualStyle
  2
GouraudWithEdges
 70
     3
 71
     2
 72
     2
 73
     1
 90
        2
 40
-0.6
 41
30.0
 62
     5
 63
     7
421
 16777215
 74
     1
 91
        4
 64
     7
 65
   257
 75
     1
175
     1
 42
1.0
 92
        0
 66
   257
 43
1.0
 76
     1
 77
     6
 78
     2
 67
     7
 79
     5
170
     0
171
     0
290
     0
174
     0
 93
       13
 44
0.0
173
     0
291
     1
 45
0.0
1001
ACAD
1000
AcDbSavedByObjectVersion
1070
     0
  0
VISUALSTYLE
  5
3A
102
{ACAD_XDICTIONARY
360
135C
102
}
102
{ACAD_REACTORS
330
29
102
}
330
29
100
AcDbVisualStyle
  2
JitterOff
 70
    20
 71
     2
 72
     2
 73
     0
 90
        0
 40
-0.6
 41
-30.0
 62
     5
 63
     7
421
 16777215
 74
     1
 91
        4
 64
     7
 65
   257
 75
     1
175
     1
 42
1.0
 92
       10
 66
     7
 43
1.0
 76
     1
 77
     6
 78
     2
 67
     7
 79
     5
170
     0
171
     0
290
     0
174
     0
 93
        1
 44
0.0
173
     0
291
     1
 45
0.0
1001
ACAD
1000
AcDbSavedByObjectVersion
1070
     0
  0
VISUALSTYLE
  5
37
102
{ACAD_XDICTIONARY
360
1356
102
}
102
{ACAD_REACTORS
330
29
102
}
330
29
100
AcDbVisualStyle
  2
Linepattern
 70
    14
 71
     2
 72
     2
 73
     0
 90
        0
 40
-0.6
 41
-30.0
 62
     5
 63
     7
421
 16777215
 74
     1
 91
        4
 64
     7
 65
   257
 75
     7
175
     7
 42
1.0
 92
        8
 66
     7
 43
1.0
 76
     1
 77
     6
 78
     2
 67
     7
 79
     5
170
     0
171
     0
290
     0
174
     0
 93
        1
 44
0.0
173
     0
291
     1
 45
0.0
1001
ACAD
1000
AcDbSavedByObjectVersion
1070
     0
  0
VISUALSTYLE
  5
3B
102
{ACAD_XDICTIONARY
360
135E
102
}
102
{ACAD_REACTORS
330
29
102
}
330
29
100
AcDbVisualStyle
  2
OverhangOff
 70
    21
 71
     2
 72
     2
 73
     0
 90
        0
 40
-0.6
 41
-30.0
 62
     5
 63
     7
421
 16777215
 74
     1
 91
        4
 64
     7
 65
   257
 75
     1
175
     1
 42
1.0
 92
        9
 66
     7
 43
1.0
 76
     1
 77
     6
 78
     2
 67
     7
 79
     5
170
     0
171
     0
290
     0
174
     0
 93
        1
 44
0.0
173
     0
291
     1
 45
0.0
1001
ACAD
1000
AcDbSavedByObjectVersion
1070
     0
  0
VISUALSTYLE
  5
33
102
{ACAD_XDICTIONARY
360
134E
102
}
102
{ACAD_REACTORS
330
29
102
}
330
29
100
AcDbVisualStyle
  2
Realistic
 70
     8
 71
     2
 72
     2
 73
     0
 90
        0
 40
-0.6
 41
-30.0
 62
     5
 63
     7
421
 16777215
 74
     1
 91
        0
 64
     7
 65
   257
 75
     1
175
     1
 42
1.0
 92
        8
 66
     8
424
  7895160
 43
1.0
 76
     1
 77
     6
 78
     2
 67
     7
 79
     5
170
     0
171
     0
290
     0
174
     0
 93
       13
 44
0.0
173
     0
291
     0
 45
0.0
1001
ACAD
1000
AcDbSavedByObjectVersion
1070
     0
  0
VISUALSTYLE
  5
36
102
{ACAD_XDICTIONARY
360
1354
102
}
102
{ACAD_REACTORS
330
29
102
}
330
29
100
AcDbVisualStyle
  2
Thicken
 70
    13
 71
     2
 72
     2
 73
     0
 90
        0
 40
-0.6
 41
-30.0
 62
     5
 63
     7
421
 16777215
 74
     1
 91
        4
 64
     7
 65
   257
 75
     1
175
     1
 42
1.0
 92
       12
 66
     7
 43
1.0
 76
     1
 77
     6
 78
     2
 67
     7
 79
     5
170
     0
171
     0
290
     0
174
     0
 93
        1
 44
0.0
173
     0
291
     1
 45
0.0
1001
ACAD
1000
AcDbSavedByObjectVersion
1070
     0
  0
DICTIONARYVAR
  5
12BB
102
{ACAD_REACTORS
330
12B7
102
}
330
12B7
100
DictionaryVariables
280
     0
  1
1:1
  0
DICTIONARYVAR
  5
12B9
102
{ACAD_REACTORS
330
12B7
102
}
330
12B7
100
DictionaryVariables
280
     0
  1
STANDARD
  0
DICTIONARYVAR
  5
12B8
102
{ACAD_REACTORS
330
12B7
102
}
330
12B7
100
DictionaryVariables
280
     0
  1
STANDARD
  0
DICTIONARYVAR
  5
12BD
102
{ACAD_REACTORS
330
12B7
102
}
330
12B7
100
DictionaryVariables
280
     0
  1
0
  0
DICTIONARYVAR
  5
12BE
102
{ACAD_REACTORS
330
12B7
102
}
330
12B7
100
DictionaryVariables
280
     0
  1
0
  0
DICTIONARYVAR
  5
12BC
102
{ACAD_REACTORS
330
12B7
102
}
330
12B7
100
DictionaryVariables
280
     0
  1
2
  0
DICTIONARYVAR
  5
12BA
102
{ACAD_REACTORS
330
12B7
102
}
330
12B7
100
DictionaryVariables
280
     0
  1
1
  0
DICTIONARYVAR
  5
12BF
102
{ACAD_REACTORS
330
12B7
102
}
330
12B7
100
DictionaryVariables
280
     0
  1
2
  0
DICTIONARY
  5
1A
330
19
100
AcDbDictionary
280
     1
281
     1
  3
ACAD_XREC_ROUNDTRIP
360
133A
  3
BUMPTILE
360
1C
  3
DIFFUSETILE
360
1B
  3
OPACITYTILE
360
1F
  3
REFLECTIONTILE
360
1E
  3
REFRACTIONTILE
360
20
  3
SPECULARTILE
360
1D
  0
DICTIONARY
  5
12
330
11
100
AcDbDictionary
280
     1
281
     1
  3
ACAD_XREC_ROUNDTRIP
360
1339
  3
BUMPTILE
360
14
  3
DIFFUSETILE
360
13
  3
OPACITYTILE
360
17
  3
REFLECTIONTILE
360
16
  3
REFRACTIONTILE
360
18
  3
SPECULARTILE
360
15
  0
DICTIONARY
  5
22
330
21
100
AcDbDictionary
280
     1
281
     1
  3
ACAD_XREC_ROUNDTRIP
360
133B
  3
BUMPTILE
360
24
  3
DIFFUSETILE
360
23
  3
OPACITYTILE
360
27
  3
REFLECTIONTILE
360
26
  3
REFRACTIONTILE
360
28
  3
SPECULARTILE
360
25
  0
DICTIONARY
  5
12C0
330
70
100
AcDbDictionary
280
     1
281
     1
  3
ACAD_ROUNDTRIP_2008_TABLESTYLE_CELLSTYLEMAP
360
12C1
  3
ACAD_XREC_ROUNDTRIP
360
1362
  0
DICTIONARY
  5
1346
330
2F
100
AcDbDictionary
280
     1
281
     1
  3
ACAD_XREC_ROUNDTRIP
360
1347
  0
DICTIONARY
  5
134A
330
31
100
AcDbDictionary
280
     1
281
     1
  3
ACAD_XREC_ROUNDTRIP
360
134B
  0
DICTIONARY
  5
1348
330
30
100
AcDbDictionary
280
     1
281
     1
  3
ACAD_XREC_ROUNDTRIP
360
1349
  0
DICTIONARY
  5
1344
330
2E
100
AcDbDictionary
280
     1
281
     1
  3
ACAD_XREC_ROUNDTRIP
360
1345
  0
DICTIONARY
  5
1352
330
35
100
AcDbDictionary
280
     1
281
     1
  3
ACAD_XREC_ROUNDTRIP
360
1353
  0
DICTIONARY
  5
135A
330
39
100
AcDbDictionary
280
     1
281
     1
  3
ACAD_XREC_ROUNDTRIP
360
135B
  0
DICTIONARY
  5
134C
330
32
100
AcDbDictionary
280
     1
281
     1
  3
ACAD_XREC_ROUNDTRIP
360
134D
  0
DICTIONARY
  5
1350
330
34
100
AcDbDictionary
280
     1
281
     1
  3
ACAD_XREC_ROUNDTRIP
360
1351
  0
DICTIONARY
  5
1360
330
3C
100
AcDbDictionary
280
     1
281
     1
  3
ACAD_XREC_ROUNDTRIP
360
1361
  0
DICTIONARY
  5
1358
330
38
100
AcDbDictionary
280
     1
281
     1
  3
ACAD_XREC_ROUNDTRIP
360
1359
  0
DICTIONARY
  5
133C
330
2A
100
AcDbDictionary
280
     1
281
     1
  3
ACAD_XREC_ROUNDTRIP
360
133D
  0
DICTIONARY
  5
133E
330
2B
100
AcDbDictionary
280
     1
281
     1
  3
ACAD_XREC_ROUNDTRIP
360
133F
  0
DICTIONARY
  5
1340
330
2C
100
AcDbDictionary
280
     1
281
     1
  3
ACAD_XREC_ROUNDTRIP
360
1341
  0
DICTIONARY
  5
1342
330
2D
100
AcDbDictionary
280
     1
281
     1
  3
ACAD_XREC_ROUNDTRIP
360
1343
  0
DICTIONARY
  5
135C
330
3A
100
AcDbDictionary
280
     1
281
     1
  3
ACAD_XREC_ROUNDTRIP
360
135D
  0
DICTIONARY
  5
1356
330
37
100
AcDbDictionary
280
     1
281
     1
  3
ACAD_XREC_ROUNDTRIP
360
1357
  0
DICTIONARY
  5
135E
330
3B
100
AcDbDictionary
280
     1
281
     1
  3
ACAD_XREC_ROUNDTRIP
360
135F
  0
DICTIONARY
  5
134E
330
33
100
AcDbDictionary
280
     1
281
     1
  3
ACAD_XREC_ROUNDTRIP
360
134F
  0
DICTIONARY
  5
1354
330
36
100
AcDbDictionary
280
     1
281
     1
  3
ACAD_XREC_ROUNDTRIP
360
1355
  0
XRECORD
  5
133A
102
{ACAD_REACTORS
330
1A
102
}
330
1A
100
AcDbXrecord
280
     1
102
MATERIAL
148
0.0
149
0.0
149
0.0
 93
        0
 94
      127
282
     0
 72
     0
 77
     0
171
     0
175
     0
179
     0
273
     0
  0
XRECORD
  5
1C
102
{ACAD_REACTORS
330
1A
102
}
330
1A
100
AcDbXrecord
280
     1
270
     1
271
     1
  0
XRECORD
  5
1B
102
{ACAD_REACTORS
330
1A
102
}
330
1A
100
AcDbXrecord
280
     1
270
     1
271
     1
  0
XRECORD
  5
1F
102
{ACAD_REACTORS
330
1A
102
}
330
1A
100
AcDbXrecord
280
     1
270
     1
271
     1
  0
XRECORD
  5
1E
102
{ACAD_REACTORS
330
1A
102
}
330
1A
100
AcDbXrecord
280
     1
270
     1
271
     1
  0
XRECORD
  5
20
102
{ACAD_REACTORS
330
1A
102
}
330
1A
100
AcDbXrecord
280
     1
270
     1
271
     1
  0
XRECORD
  5
1D
102
{ACAD_REACTORS
330
1A
102
}
330
1A
100
AcDbXrecord
280
     1
270
     1
271
     1
  0
XRECORD
  5
1339
102
{ACAD_REACTORS
330
12
102
}
330
12
100
AcDbXrecord
280
     1
102
MATERIAL
148
0.0
149
0.0
149
0.0
 93
        0
 94
      127
282
     0
 72
     0
 77
     0
171
     0
175
     0
179
     0
273
     0
  0
XRECORD
  5
14
102
{ACAD_REACTORS
330
12
102
}
330
12
100
AcDbXrecord
280
     1
270
     1
271
     1
  0
XRECORD
  5
13
102
{ACAD_REACTORS
330
12
102
}
330
12
100
AcDbXrecord
280
     1
270
     1
271
     1
  0
XRECORD
  5
17
102
{ACAD_REACTORS
330
12
102
}
330
12
100
AcDbXrecord
280
     1
270
     1
271
     1
  0
XRECORD
  5
16
102
{ACAD_REACTORS
330
12
102
}
330
12
100
AcDbXrecord
280
     1
270
     1
271
     1
  0
XRECORD
  5
18
102
{ACAD_REACTORS
330
12
102
}
330
12
100
AcDbXrecord
280
     1
270
     1
271
     1
  0
XRECORD
  5
15
102
{ACAD_REACTORS
330
12
102
}
330
12
100
AcDbXrecord
280
     1
270
     1
271
     1
  0
XRECORD
  5
133B
102
{ACAD_REACTORS
330
22
102
}
330
22
100
AcDbXrecord
280
     1
102
MATERIAL
148
0.0
149
0.0
149
0.0
 93
        0
 94
      127
282
     0
 72
     0
 77
     0
171
     0
175
     0
179
     0
273
     0
  0
XRECORD
  5
24
102
{ACAD_REACTORS
330
22
102
}
330
22
100
AcDbXrecord
280
     1
270
     1
271
     1
  0
XRECORD
  5
23
102
{ACAD_REACTORS
330
22
102
}
330
22
100
AcDbXrecord
280
     1
270
     1
271
     1
  0
XRECORD
  5
27
102
{ACAD_REACTORS
330
22
102
}
330
22
100
AcDbXrecord
280
     1
270
     1
271
     1
  0
XRECORD
  5
26
102
{ACAD_REACTORS
330
22
102
}
330
22
100
AcDbXrecord
280
     1
270
     1
271
     1
  0
XRECORD
  5
28
102
{ACAD_REACTORS
330
22
102
}
330
22
100
AcDbXrecord
280
     1
270
     1
271
     1
  0
XRECORD
  5
25
102
{ACAD_REACTORS
330
22
102
}
330
22
100
AcDbXrecord
280
     1
270
     1
271
     1
  0
CELLSTYLEMAP
  5
12C1
102
{ACAD_REACTORS
330
12C0
102
}
330
12C0
100
AcDbCellStyleMap
 90
        3
300
CELLSTYLE
  1
TABLEFORMAT_BEGIN
 90
        5
170
     1
 91
        0
 92
    32768
 62
   257
 93
        1
300
CONTENTFORMAT
  1
CONTENTFORMAT_BEGIN
 90
        0
 91
        0
 92
      512
 93
        0
300

 40
0.0
140
1.0
 94
        5
 62
     0
340
60
144
0.25
309
CONTENTFORMAT_END
171
     0
 94
        0
309
TABLEFORMAT_END
  1
CELLSTYLE_BEGIN
 90
        1
 91
        1
300
_TITLE
309
CELLSTYLE_END
300
CELLSTYLE
  1
TABLEFORMAT_BEGIN
 90
        5
170
     1
 91
        0
 92
        0
 62
   257
 93
        1
300
CONTENTFORMAT
  1
CONTENTFORMAT_BEGIN
 90
        0
 91
        0
 92
      512
 93
        0
300

 40
0.0
140
1.0
 94
        5
 62
     0
340
60
144
0.18
309
CONTENTFORMAT_END
171
     0
 94
        0
309
TABLEFORMAT_END
  1
CELLSTYLE_BEGIN
 90
        2
 91
        1
300
_HEADER
309
CELLSTYLE_END
300
CELLSTYLE
  1
TABLEFORMAT_BEGIN
 90
        5
170
     1
 91
        0
 92
        0
 62
   257
 93
        1
300
CONTENTFORMAT
  1
CONTENTFORMAT_BEGIN
 90
        0
 91
        0
 92
      512
 93
        0
300

 40
0.0
140
1.0
 94
        2
 62
     0
340
60
144
0.18
309
CONTENTFORMAT_END
171
     0
 94
        0
309
TABLEFORMAT_END
  1
CELLSTYLE_BEGIN
 90
        3
 91
        2
300
_DATA
309
CELLSTYLE_END
  0
XRECORD
  5
1362
102
{ACAD_REACTORS
330
12C0
102
}
330
12C0
100
AcDbXrecord
280
     1
102
ACAD_ROUNDTRIP_PRE2007_TABLESTYLE
 90
      512
 91
        0
  1

 92
      512
 93
        0
  2

 94
      512
 95
        0
  3

  0
XRECORD
  5
1347
102
{ACAD_REACTORS
330
1346
102
}
330
1346
100
AcDbXrecord
280
     1
102
RTVSPropertyOp0
 70
     1
102
RTVSPropertyOp1
 70
     1
102
RTVSPropertyOp2
 70
     1
102
RTVSPropertyOp3
 70
     1
102
RTVSPropertyOp4
 70
     1
102
RTVSPropertyOp5
 70
     1
102
RTVSPropertyOp6
 70
     1
102
RTVSPropertyOp7
 70
     1
102
RTVSPropertyOp8
 70
     1
102
RTVSPropertyOp9
 70
     1
102
RTVSPropertyOp10
 70
     1
102
RTVSPropertyOp11
 70
     1
102
RTVSPropertyOp12
 70
     1
102
RTVSPropertyOp13
 70
     1
102
RTVSPropertyOp14
 70
     1
102
RTVSPropertyOp15
 70
     1
102
RTVSPropertyOp16
 70
     1
102
RTVSPropertyOp17
 70
     1
102
RTVSPropertyOp18
 70
     1
102
RTVSPropertyOp19
 70
     1
102
RTVSPropertyOp20
 70
     1
102
RTVSPropertyOp21
 70
     1
102
RTVSPropertyOp22
 70
     1
102
RTVSPropertyOp23
 70
     1
102
RTVSPropertyOp24
 70
     1
102
RTVSPropertyOp25
 70
     1
102
RTVSPropertyOp26
 70
     1
102
RTVSPropertyOp27
 70
     1
  0
XRECORD
  5
134B
102
{ACAD_REACTORS
330
134A
102
}
330
134A
100
AcDbXrecord
280
     1
102
RTVSPropertyOp0
 70
     1
102
RTVSPropertyOp1
 70
     1
102
RTVSPropertyOp2
 70
     1
102
RTVSPropertyOp3
 70
     1
102
RTVSPropertyOp4
 70
     1
102
RTVSPropertyOp5
 70
     1
102
RTVSPropertyOp6
 70
     1
102
RTVSPropertyOp7
 70
     1
102
RTVSPropertyOp8
 70
     1
102
RTVSPropertyOp9
 70
     1
102
RTVSPropertyOp10
 70
     1
102
RTVSPropertyOp11
 70
     1
102
RTVSPropertyOp12
 70
     1
102
RTVSPropertyOp13
 70
     1
102
RTVSPropertyOp14
 70
     1
102
RTVSPropertyOp15
 70
     1
102
RTVSPropertyOp16
 70
     1
102
RTVSPropertyOp17
 70
     1
102
RTVSPropertyOp18
 70
     1
102
RTVSPropertyOp19
 70
     1
102
RTVSPropertyOp20
 70
     1
102
RTVSPropertyOp21
 70
     1
102
RTVSPropertyOp22
 70
     1
102
RTVSPropertyOp23
 70
     1
102
RTVSPropertyOp24
 70
     1
102
RTVSPropertyOp25
 70
     1
102
RTVSPropertyOp26
 70
     1
102
RTVSPropertyOp27
 70
     1
  0
XRECORD
  5
1349
102
{ACAD_REACTORS
330
1348
102
}
330
1348
100
AcDbXrecord
280
     1
102
RTVSPropertyOp0
 70
     1
102
RTVSPropertyOp1
 70
     1
102
RTVSPropertyOp2
 70
     1
102
RTVSPropertyOp3
 70
     1
102
RTVSPropertyOp4
 70
     1
102
RTVSPropertyOp5
 70
     1
102
RTVSPropertyOp6
 70
     1
102
RTVSPropertyOp7
 70
     1
102
RTVSPropertyOp8
 70
     1
102
RTVSPropertyOp9
 70
     1
102
RTVSPropertyOp10
 70
     1
102
RTVSPropertyOp11
 70
     1
102
RTVSPropertyOp12
 70
     1
102
RTVSPropertyOp13
 70
     1
102
RTVSPropertyOp14
 70
     1
102
RTVSPropertyOp15
 70
     1
102
RTVSPropertyOp16
 70
     1
102
RTVSPropertyOp17
 70
     1
102
RTVSPropertyOp18
 70
     1
102
RTVSPropertyOp19
 70
     1
102
RTVSPropertyOp20
 70
     1
102
RTVSPropertyOp21
 70
     1
102
RTVSPropertyOp22
 70
     1
102
RTVSPropertyOp23
 70
     1
102
RTVSPropertyOp24
 70
     1
102
RTVSPropertyOp25
 70
     1
102
RTVSPropertyOp26
 70
     1
102
RTVSPropertyOp27
 70
     1
  0
XRECORD
  5
1345
102
{ACAD_REACTORS
330
1344
102
}
330
1344
100
AcDbXrecord
280
     1
102
RTVSPropertyOp0
 70
     1
102
RTVSPropertyOp1
 70
     1
102
RTVSPropertyOp2
 70
     1
102
RTVSPropertyOp3
 70
     1
102
RTVSPropertyOp4
 70
     1
102
RTVSPropertyOp5
 70
     1
102
RTVSPropertyOp6
 70
     1
102
RTVSPropertyOp7
 70
     1
102
RTVSPropertyOp8
 70
     1
102
RTVSPropertyOp9
 70
     1
102
RTVSPropertyOp10
 70
     1
102
RTVSPropertyOp11
 70
     1
102
RTVSPropertyOp12
 70
     1
102
RTVSPropertyOp13
 70
     1
102
RTVSPropertyOp14
 70
     1
102
RTVSPropertyOp15
 70
     1
102
RTVSPropertyOp16
 70
     1
102
RTVSPropertyOp17
 70
     1
102
RTVSPropertyOp18
 70
     1
102
RTVSPropertyOp19
 70
     1
102
RTVSPropertyOp20
 70
     1
102
RTVSPropertyOp21
 70
     1
102
RTVSPropertyOp22
 70
     1
102
RTVSPropertyOp23
 70
     1
102
RTVSPropertyOp24
 70
     1
102
RTVSPropertyOp25
 70
     1
102
RTVSPropertyOp26
 70
     1
102
RTVSPropertyOp27
 70
     1
  0
XRECORD
  5
1353
102
{ACAD_REACTORS
330
1352
102
}
330
1352
100
AcDbXrecord
280
     1
102
RTVSPropertyOp0
 70
     1
102
RTVSPropertyOp1
 70
     1
102
RTVSPropertyOp2
 70
     1
102
RTVSPropertyOp3
 70
     1
102
RTVSPropertyOp4
 70
     1
102
RTVSPropertyOp5
 70
     1
102
RTVSPropertyOp6
 70
     1
102
RTVSPropertyOp7
 70
     1
102
RTVSPropertyOp8
 70
     1
102
RTVSPropertyOp9
 70
     1
102
RTVSPropertyOp10
 70
     1
102
RTVSPropertyOp11
 70
     1
102
RTVSPropertyOp12
 70
     1
102
RTVSPropertyOp13
 70
     1
102
RTVSPropertyOp14
 70
     1
102
RTVSPropertyOp15
 70
     1
102
RTVSPropertyOp16
 70
     1
102
RTVSPropertyOp17
 70
     1
102
RTVSPropertyOp18
 70
     1
102
RTVSPropertyOp19
 70
     1
102
RTVSPropertyOp20
 70
     1
102
RTVSPropertyOp21
 70
     1
102
RTVSPropertyOp22
 70
     1
102
RTVSPropertyOp23
 70
     1
102
RTVSPropertyOp24
 70
     1
102
RTVSPropertyOp25
 70
     1
102
RTVSPropertyOp26
 70
     1
102
RTVSPropertyOp27
 70
     1
  0
XRECORD
  5
135B
102
{ACAD_REACTORS
330
135A
102
}
330
135A
100
AcDbXrecord
280
     1
102
RTVSPropertyOp0
 70
     1
102
RTVSPropertyOp1
 70
     1
102
RTVSPropertyOp2
 70
     1
102
RTVSPropertyOp3
 70
     1
102
RTVSPropertyOp4
 70
     1
102
RTVSPropertyOp5
 70
     1
102
RTVSPropertyOp6
 70
     1
102
RTVSPropertyOp7
 70
     1
102
RTVSPropertyOp8
 70
     1
102
RTVSPropertyOp9
 70
     1
102
RTVSPropertyOp10
 70
     1
102
RTVSPropertyOp11
 70
     1
102
RTVSPropertyOp12
 70
     1
102
RTVSPropertyOp13
 70
     1
102
RTVSPropertyOp14
 70
     1
102
RTVSPropertyOp15
 70
     1
102
RTVSPropertyOp16
 70
     1
102
RTVSPropertyOp17
 70
     1
102
RTVSPropertyOp18
 70
     1
102
RTVSPropertyOp19
 70
     1
102
RTVSPropertyOp20
 70
     1
102
RTVSPropertyOp21
 70
     1
102
RTVSPropertyOp22
 70
     1
102
RTVSPropertyOp23
 70
     1
102
RTVSPropertyOp24
 70
     1
102
RTVSPropertyOp25
 70
     1
102
RTVSPropertyOp26
 70
     1
102
RTVSPropertyOp27
 70
     1
  0
XRECORD
  5
134D
102
{ACAD_REACTORS
330
134C
102
}
330
134C
100
AcDbXrecord
280
     1
102
RTVSPropertyOp0
 70
     1
102
RTVSPropertyOp1
 70
     1
102
RTVSPropertyOp2
 70
     1
102
RTVSPropertyOp3
 70
     1
102
RTVSPropertyOp4
 70
     1
102
RTVSPropertyOp5
 70
     1
102
RTVSPropertyOp6
 70
     1
102
RTVSPropertyOp7
 70
     1
102
RTVSPropertyOp8
 70
     1
102
RTVSPropertyOp9
 70
     1
102
RTVSPropertyOp10
 70
     1
102
RTVSPropertyOp11
 70
     1
102
RTVSPropertyOp12
 70
     1
102
RTVSPropertyOp13
 70
     1
102
RTVSPropertyOp14
 70
     1
102
RTVSPropertyOp15
 70
     1
102
RTVSPropertyOp16
 70
     1
102
RTVSPropertyOp17
 70
     1
102
RTVSPropertyOp18
 70
     1
102
RTVSPropertyOp19
 70
     1
102
RTVSPropertyOp20
 70
     1
102
RTVSPropertyOp21
 70
     1
102
RTVSPropertyOp22
 70
     1
102
RTVSPropertyOp23
 70
     1
102
RTVSPropertyOp24
 70
     1
102
RTVSPropertyOp25
 70
     1
102
RTVSPropertyOp26
 70
     1
102
RTVSPropertyOp27
 70
     1
  0
XRECORD
  5
1351
102
{ACAD_REACTORS
330
1350
102
}
330
1350
100
AcDbXrecord
280
     1
102
RTVSPropertyOp0
 70
     1
102
RTVSPropertyOp1
 70
     1
102
RTVSPropertyOp2
 70
     1
102
RTVSPropertyOp3
 70
     1
102
RTVSPropertyOp4
 70
     1
102
RTVSPropertyOp5
 70
     1
102
RTVSPropertyOp6
 70
     1
102
RTVSPropertyOp7
 70
     1
102
RTVSPropertyOp8
 70
     1
102
RTVSPropertyOp9
 70
     1
102
RTVSPropertyOp10
 70
     1
102
RTVSPropertyOp11
 70
     1
102
RTVSPropertyOp12
 70
     1
102
RTVSPropertyOp13
 70
     1
102
RTVSPropertyOp14
 70
     1
102
RTVSPropertyOp15
 70
     1
102
RTVSPropertyOp16
 70
     1
102
RTVSPropertyOp17
 70
     1
102
RTVSPropertyOp18
 70
     1
102
RTVSPropertyOp19
 70
     1
102
RTVSPropertyOp20
 70
     1
102
RTVSPropertyOp21
 70
     1
102
RTVSPropertyOp22
 70
     1
102
RTVSPropertyOp23
 70
     1
102
RTVSPropertyOp24
 70
     1
102
RTVSPropertyOp25
 70
     1
102
RTVSPropertyOp26
 70
     1
102
RTVSPropertyOp27
 70
     1
  0
XRECORD
  5
1361
102
{ACAD_REACTORS
330
1360
102
}
330
1360
100
AcDbXrecord
280
     1
102
RTVSPropertyOp0
 70
     0
102
RTVSPropertyOp1
 70
     0
102
RTVSPropertyOp2
 70
     0
102
RTVSPropertyOp3
 70
     0
102
RTVSPropertyOp4
 70
     0
102
RTVSPropertyOp5
 70
     0
102
RTVSPropertyOp6
 70
     0
102
RTVSPropertyOp7
 70
     0
102
RTVSPropertyOp8
 70
     0
102
RTVSPropertyOp9
 70
     0
102
RTVSPropertyOp10
 70
     0
102
RTVSPropertyOp11
 70
     0
102
RTVSPropertyOp12
 70
     0
102
RTVSPropertyOp13
 70
     0
102
RTVSPropertyOp14
 70
     2
102
RTVSPropertyOp15
 70
     0
102
RTVSPropertyOp16
 70
     0
102
RTVSPropertyOp17
 70
     0
102
RTVSPropertyOp18
 70
     0
102
RTVSPropertyOp19
 70
     0
102
RTVSPropertyOp20
 70
     0
102
RTVSPropertyOp21
 70
     0
102
RTVSPropertyOp22
 70
     0
102
RTVSPropertyOp23
 70
     0
102
RTVSPropertyOp24
 70
     0
102
RTVSPropertyOp25
 70
     0
102
RTVSPropertyOp26
 70
     0
102
RTVSPropertyOp27
 70
     0
  0
XRECORD
  5
1359
102
{ACAD_REACTORS
330
1358
102
}
330
1358
100
AcDbXrecord
280
     1
102
RTVSPropertyOp0
 70
     1
102
RTVSPropertyOp1
 70
     1
102
RTVSPropertyOp2
 70
     1
102
RTVSPropertyOp3
 70
     1
102
RTVSPropertyOp4
 70
     1
102
RTVSPropertyOp5
 70
     1
102
RTVSPropertyOp6
 70
     1
102
RTVSPropertyOp7
 70
     1
102
RTVSPropertyOp8
 70
     1
102
RTVSPropertyOp9
 70
     1
102
RTVSPropertyOp10
 70
     1
102
RTVSPropertyOp11
 70
     1
102
RTVSPropertyOp12
 70
     1
102
RTVSPropertyOp13
 70
     1
102
RTVSPropertyOp14
 70
     1
102
RTVSPropertyOp15
 70
     1
102
RTVSPropertyOp16
 70
     1
102
RTVSPropertyOp17
 70
     1
102
RTVSPropertyOp18
 70
     1
102
RTVSPropertyOp19
 70
     1
102
RTVSPropertyOp20
 70
     1
102
RTVSPropertyOp21
 70
     1
102
RTVSPropertyOp22
 70
     1
102
RTVSPropertyOp23
 70
     1
102
RTVSPropertyOp24
 70
     1
102
RTVSPropertyOp25
 70
     1
102
RTVSPropertyOp26
 70
     1
102
RTVSPropertyOp27
 70
     1
  0
XRECORD
  5
133D
102
{ACAD_REACTORS
330
133C
102
}
330
133C
100
AcDbXrecord
280
     1
102
RTVSPropertyOp0
 70
     1
102
RTVSPropertyOp1
 70
     1
102
RTVSPropertyOp2
 70
     1
102
RTVSPropertyOp3
 70
     1
102
RTVSPropertyOp4
 70
     1
102
RTVSPropertyOp5
 70
     1
102
RTVSPropertyOp6
 70
     1
102
RTVSPropertyOp7
 70
     1
102
RTVSPropertyOp8
 70
     1
102
RTVSPropertyOp9
 70
     1
102
RTVSPropertyOp10
 70
     1
102
RTVSPropertyOp11
 70
     1
102
RTVSPropertyOp12
 70
     1
102
RTVSPropertyOp13
 70
     1
102
RTVSPropertyOp14
 70
     1
102
RTVSPropertyOp15
 70
     1
102
RTVSPropertyOp16
 70
     1
102
RTVSPropertyOp17
 70
     1
102
RTVSPropertyOp18
 70
     1
102
RTVSPropertyOp19
 70
     1
102
RTVSPropertyOp20
 70
     1
102
RTVSPropertyOp21
 70
     1
102
RTVSPropertyOp22
 70
     1
102
RTVSPropertyOp23
 70
     1
102
RTVSPropertyOp24
 70
     1
102
RTVSPropertyOp25
 70
     1
102
RTVSPropertyOp26
 70
     1
102
RTVSPropertyOp27
 70
     1
  0
XRECORD
  5
133F
102
{ACAD_REACTORS
330
133E
102
}
330
133E
100
AcDbXrecord
280
     1
102
RTVSPropertyOp0
 70
     1
102
RTVSPropertyOp1
 70
     1
102
RTVSPropertyOp2
 70
     1
102
RTVSPropertyOp3
 70
     1
102
RTVSPropertyOp4
 70
     1
102
RTVSPropertyOp5
 70
     1
102
RTVSPropertyOp6
 70
     1
102
RTVSPropertyOp7
 70
     1
102
RTVSPropertyOp8
 70
     1
102
RTVSPropertyOp9
 70
     1
102
RTVSPropertyOp10
 70
     1
102
RTVSPropertyOp11
 70
     1
102
RTVSPropertyOp12
 70
     1
102
RTVSPropertyOp13
 70
     1
102
RTVSPropertyOp14
 70
     1
102
RTVSPropertyOp15
 70
     1
102
RTVSPropertyOp16
 70
     1
102
RTVSPropertyOp17
 70
     1
102
RTVSPropertyOp18
 70
     1
102
RTVSPropertyOp19
 70
     1
102
RTVSPropertyOp20
 70
     1
102
RTVSPropertyOp21
 70
     1
102
RTVSPropertyOp22
 70
     1
102
RTVSPropertyOp23
 70
     1
102
RTVSPropertyOp24
 70
     1
102
RTVSPropertyOp25
 70
     1
102
RTVSPropertyOp26
 70
     1
102
RTVSPropertyOp27
 70
     1
  0
XRECORD
  5
1341
102
{ACAD_REACTORS
330
1340
102
}
330
1340
100
AcDbXrecord
280
     1
102
RTVSPropertyOp0
 70
     1
102
RTVSPropertyOp1
 70
     1
102
RTVSPropertyOp2
 70
     1
102
RTVSPropertyOp3
 70
     1
102
RTVSPropertyOp4
 70
     1
102
RTVSPropertyOp5
 70
     1
102
RTVSPropertyOp6
 70
     1
102
RTVSPropertyOp7
 70
     1
102
RTVSPropertyOp8
 70
     1
102
RTVSPropertyOp9
 70
     1
102
RTVSPropertyOp10
 70
     1
102
RTVSPropertyOp11
 70
     1
102
RTVSPropertyOp12
 70
     1
102
RTVSPropertyOp13
 70
     1
102
RTVSPropertyOp14
 70
     1
102
RTVSPropertyOp15
 70
     1
102
RTVSPropertyOp16
 70
     1
102
RTVSPropertyOp17
 70
     1
102
RTVSPropertyOp18
 70
     1
102
RTVSPropertyOp19
 70
     1
102
RTVSPropertyOp20
 70
     1
102
RTVSPropertyOp21
 70
     1
102
RTVSPropertyOp22
 70
     1
102
RTVSPropertyOp23
 70
     1
102
RTVSPropertyOp24
 70
     1
102
RTVSPropertyOp25
 70
     1
102
RTVSPropertyOp26
 70
     1
102
RTVSPropertyOp27
 70
     1
  0
XRECORD
  5
1343
102
{ACAD_REACTORS
330
1342
102
}
330
1342
100
AcDbXrecord
280
     1
102
RTVSPropertyOp0
 70
     1
102
RTVSPropertyOp1
 70
     1
102
RTVSPropertyOp2
 70
     1
102
RTVSPropertyOp3
 70
     1
102
RTVSPropertyOp4
 70
     1
102
RTVSPropertyOp5
 70
     1
102
RTVSPropertyOp6
 70
     1
102
RTVSPropertyOp7
 70
     1
102
RTVSPropertyOp8
 70
     1
102
RTVSPropertyOp9
 70
     1
102
RTVSPropertyOp10
 70
     1
102
RTVSPropertyOp11
 70
     1
102
RTVSPropertyOp12
 70
     1
102
RTVSPropertyOp13
 70
     1
102
RTVSPropertyOp14
 70
     1
102
RTVSPropertyOp15
 70
     1
102
RTVSPropertyOp16
 70
     1
102
RTVSPropertyOp17
 70
     1
102
RTVSPropertyOp18
 70
     1
102
RTVSPropertyOp19
 70
     1
102
RTVSPropertyOp20
 70
     1
102
RTVSPropertyOp21
 70
     1
102
RTVSPropertyOp22
 70
     1
102
RTVSPropertyOp23
 70
     1
102
RTVSPropertyOp24
 70
     1
102
RTVSPropertyOp25
 70
     1
102
RTVSPropertyOp26
 70
     1
102
RTVSPropertyOp27
 70
     1
  0
XRECORD
  5
135D
102
{ACAD_REACTORS
330
135C
102
}
330
135C
100
AcDbXrecord
280
     1
102
RTVSPropertyOp0
 70
     0
102
RTVSPropertyOp1
 70
     0
102
RTVSPropertyOp2
 70
     0
102
RTVSPropertyOp3
 70
     0
102
RTVSPropertyOp4
 70
     0
102
RTVSPropertyOp5
 70
     0
102
RTVSPropertyOp6
 70
     0
102
RTVSPropertyOp7
 70
     0
102
RTVSPropertyOp8
 70
     0
102
RTVSPropertyOp9
 70
     0
102
RTVSPropertyOp10
 70
     0
102
RTVSPropertyOp11
 70
     0
102
RTVSPropertyOp12
 70
     0
102
RTVSPropertyOp13
 70
     0
102
RTVSPropertyOp14
 70
     2
102
RTVSPropertyOp15
 70
     0
102
RTVSPropertyOp16
 70
     0
102
RTVSPropertyOp17
 70
     0
102
RTVSPropertyOp18
 70
     0
102
RTVSPropertyOp19
 70
     0
102
RTVSPropertyOp20
 70
     0
102
RTVSPropertyOp21
 70
     0
102
RTVSPropertyOp22
 70
     0
102
RTVSPropertyOp23
 70
     0
102
RTVSPropertyOp24
 70
     0
102
RTVSPropertyOp25
 70
     0
102
RTVSPropertyOp26
 70
     0
102
RTVSPropertyOp27
 70
     0
  0
XRECORD
  5
1357
102
{ACAD_REACTORS
330
1356
102
}
330
1356
100
AcDbXrecord
280
     1
102
RTVSPropertyOp0
 70
     1
102
RTVSPropertyOp1
 70
     1
102
RTVSPropertyOp2
 70
     1
102
RTVSPropertyOp3
 70
     1
102
RTVSPropertyOp4
 70
     1
102
RTVSPropertyOp5
 70
     1
102
RTVSPropertyOp6
 70
     1
102
RTVSPropertyOp7
 70
     1
102
RTVSPropertyOp8
 70
     1
102
RTVSPropertyOp9
 70
     1
102
RTVSPropertyOp10
 70
     1
102
RTVSPropertyOp11
 70
     1
102
RTVSPropertyOp12
 70
     1
102
RTVSPropertyOp13
 70
     1
102
RTVSPropertyOp14
 70
     1
102
RTVSPropertyOp15
 70
     1
102
RTVSPropertyOp16
 70
     1
102
RTVSPropertyOp17
 70
     1
102
RTVSPropertyOp18
 70
     1
102
RTVSPropertyOp19
 70
     1
102
RTVSPropertyOp20
 70
     1
102
RTVSPropertyOp21
 70
     1
102
RTVSPropertyOp22
 70
     1
102
RTVSPropertyOp23
 70
     1
102
RTVSPropertyOp24
 70
     1
102
RTVSPropertyOp25
 70
     1
102
RTVSPropertyOp26
 70
     1
102
RTVSPropertyOp27
 70
     1
  0
XRECORD
  5
135F
102
{ACAD_REACTORS
330
135E
102
}
330
135E
100
AcDbXrecord
280
     1
102
RTVSPropertyOp0
 70
     0
102
RTVSPropertyOp1
 70
     0
102
RTVSPropertyOp2
 70
     0
102
RTVSPropertyOp3
 70
     0
102
RTVSPropertyOp4
 70
     0
102
RTVSPropertyOp5
 70
     0
102
RTVSPropertyOp6
 70
     0
102
RTVSPropertyOp7
 70
     0
102
RTVSPropertyOp8
 70
     0
102
RTVSPropertyOp9
 70
     0
102
RTVSPropertyOp10
 70
     0
102
RTVSPropertyOp11
 70
     0
102
RTVSPropertyOp12
 70
     0
102
RTVSPropertyOp13
 70
     0
102
RTVSPropertyOp14
 70
     2
102
RTVSPropertyOp15
 70
     0
102
RTVSPropertyOp16
 70
     0
102
RTVSPropertyOp17
 70
     0
102
RTVSPropertyOp18
 70
     0
102
RTVSPropertyOp19
 70
     0
102
RTVSPropertyOp20
 70
     0
102
RTVSPropertyOp21
 70
     0
102
RTVSPropertyOp22
 70
     0
102
RTVSPropertyOp23
 70
     0
102
RTVSPropertyOp24
 70
     0
102
RTVSPropertyOp25
 70
     0
102
RTVSPropertyOp26
 70
     0
102
RTVSPropertyOp27
 70
     0
  0
XRECORD
  5
134F
102
{ACAD_REACTORS
330
134E
102
}
330
134E
100
AcDbXrecord
280
     1
102
RTVSPropertyOp0
 70
     1
102
RTVSPropertyOp1
 70
     1
102
RTVSPropertyOp2
 70
     1
102
RTVSPropertyOp3
 70
     1
102
RTVSPropertyOp4
 70
     1
102
RTVSPropertyOp5
 70
     1
102
RTVSPropertyOp6
 70
     1
102
RTVSPropertyOp7
 70
     1
102
RTVSPropertyOp8
 70
     1
102
RTVSPropertyOp9
 70
     1
102
RTVSPropertyOp10
 70
     1
102
RTVSPropertyOp11
 70
     1
102
RTVSPropertyOp12
 70
     1
102
RTVSPropertyOp13
 70
     1
102
RTVSPropertyOp14
 70
     1
102
RTVSPropertyOp15
 70
     1
102
RTVSPropertyOp16
 70
     1
102
RTVSPropertyOp17
 70
     1
102
RTVSPropertyOp18
 70
     1
102
RTVSPropertyOp19
 70
     1
102
RTVSPropertyOp20
 70
     1
102
RTVSPropertyOp21
 70
     1
102
RTVSPropertyOp22
 70
     1
102
RTVSPropertyOp23
 70
     1
102
RTVSPropertyOp24
 70
     1
102
RTVSPropertyOp25
 70
     1
102
RTVSPropertyOp26
 70
     1
102
RTVSPropertyOp27
 70
     1
  0
XRECORD
  5
1355
102
{ACAD_REACTORS
330
1354
102
}
330
1354
100
AcDbXrecord
280
     1
102
RTVSPropertyOp0
 70
     1
102
RTVSPropertyOp1
 70
     1
102
RTVSPropertyOp2
 70
     1
102
RTVSPropertyOp3
 70
     1
102
RTVSPropertyOp4
 70
     1
102
RTVSPropertyOp5
 70
     1
102
RTVSPropertyOp6
 70
     1
102
RTVSPropertyOp7
 70
     1
102
RTVSPropertyOp8
 70
     1
102
RTVSPropertyOp9
 70
     1
102
RTVSPropertyOp10
 70
     1
102
RTVSPropertyOp11
 70
     1
102
RTVSPropertyOp12
 70
     1
102
RTVSPropertyOp13
 70
     1
102
RTVSPropertyOp14
 70
     1
102
RTVSPropertyOp15
 70
     1
102
RTVSPropertyOp16
 70
     1
102
RTVSPropertyOp17
 70
     1
102
RTVSPropertyOp18
 70
     1
102
RTVSPropertyOp19
 70
     1
102
RTVSPropertyOp20
 70
     1
102
RTVSPropertyOp21
 70
     1
102
RTVSPropertyOp22
 70
     1
102
RTVSPropertyOp23
 70
     1
102
RTVSPropertyOp24
 70
     1
102
RTVSPropertyOp25
 70
     1
102
RTVSPropertyOp26
 70
     1
102
RTVSPropertyOp27
 70
     1
  0
ENDSEC
  0
EOF
