  0
SECTION
  2
HEADER
  9
$ACADVER
  1
AC1018
  9
$ACADMAINTVER
 70
   104
  9
$DWGCODEPAGE
  3
ANSI_1252
  9
$LASTSAVEDBY
  1
CJ036
  9
$CUSTOMPROPERTYTAG
  1
Manager
  9
$CUSTOMPROPERTY
  1

  9
$CUSTOMPROPERTYTAG
  1
Company
  9
$CUSTOMPROPERTY
  1

  9
$CUSTOMPROPERTYTAG
  1
Category
  9
$CUSTOMPROPERTY
  1

  9
$CUSTOMPROPERTYTAG
  1
Part Number
  9
$CUSTOMPROPERTY
  1
0093-123073
  9
$CUSTOMPROPERTYTAG
  1
Description
  9
$CUSTOMPROPERTY
  1
Guardian WHB
  9
$CUSTOMPROPERTYTAG
  1
Project
  9
$CUSTOMPROPERTY
  1

  9
$CUSTOMPROPERTYTAG
  1
Designer
  9
$CUSTOMPROPERTY
  1

  9
$CUSTOMPROPERTYTAG
  1
Engineer
  9
$CUSTOMPROPERTY
  1

  9
$CUSTOMPROPERTYTAG
  1
Authority
  9
$CUSTOMPROPERTY
  1

  9
$CUSTOMPROPERTYTAG
  1
Cost Center
  9
$CUSTOMPROPERTY
  1

  9
$CUSTOMPROPERTYTAG
  1
Vendor
  9
$CUSTOMPROPERTY
  1

  9
$CUSTOMPROPERTYTAG
  1
User Status
  9
$CUSTOMPROPERTY
  1

  9
$CUSTOMPROPERTYTAG
  1
Design Status
  9
$CUSTOMPROPERTY
  1
WorkInProgress
  9
$CUSTOMPROPERTYTAG
  1
Checked by
  9
$CUSTOMPROPERTY
  1

  9
$CUSTOMPROPERTYTAG
  1
Engr Approved by
  9
$CUSTOMPROPERTY
  1

  9
$CUSTOMPROPERTYTAG
  1
Mfg Approved by
  9
$CUSTOMPROPERTY
  1

  9
$CUSTOMPROPERTYTAG
  1
Departement
  9
$CUSTOMPROPERTY
  1
FSI-Marketing
  9
$CUSTOMPROPERTYTAG
  1
Collection
  9
$CUSTOMPROPERTY
  1
HDTX450
  9
$CUSTOMPROPERTYTAG
  1
Document_Number
  9
$CUSTOMPROPERTY
  1
0093-123073
  9
$CUSTOMPROPERTYTAG
  1
Unit
  9
$CUSTOMPROPERTY
  1
mm
  9
$CUSTOMPROPERTYTAG
  1
Scale
  9
$CUSTOMPROPERTY
  1
NTS
  9
$CUSTOMPROPERTYTAG
  1
Tolerance
  9
$CUSTOMPROPERTY
  1
ISO 2768 m
  9
$CUSTOMPROPERTYTAG
  1
Drawn_By
  9
$CUSTOMPROPERTY
  1
CJ036
  9
$CUSTOMPROPERTYTAG
  1
Drawn_Date
  9
$CUSTOMPROPERTY
  1
02/16/2010
  9
$CUSTOMPROPERTYTAG
  1
Modified_By
  9
$CUSTOMPROPERTY
  1
CJ036
  9
$CUSTOMPROPERTYTAG
  1
Modified_Date
  9
$CUSTOMPROPERTY
  1
05/27/2011
  9
$CUSTOMPROPERTYTAG
  1
Revision_Index_1
  9
$CUSTOMPROPERTY
  1
C
  9
$CUSTOMPROPERTYTAG
  1
Revision_By_1
  9
$CUSTOMPROPERTY
  1
CJ036
  9
$CUSTOMPROPERTYTAG
  1
Revision_Memo_1
  9
$CUSTOMPROPERTY
  1

  9
$CUSTOMPROPERTYTAG
  1
Revision_Titel_1
  9
$CUSTOMPROPERTY
  1

  9
$CUSTOMPROPERTYTAG
  1
EAN
  9
$CUSTOMPROPERTY
  1
7612210016790
  9
$CUSTOMPROPERTYTAG
  1
FUN
  9
$CUSTOMPROPERTY
  1

  9
$CUSTOMPROPERTYTAG
  1
Part_number
  9
$CUSTOMPROPERTY
  1
HDTX450
  9
$CUSTOMPROPERTYTAG
  1
Title
  9
$CUSTOMPROPERTY
  1
Guardian WHB
  9
$CUSTOMPROPERTYTAG
  1
Auxiliary_Remark1
  9
$CUSTOMPROPERTY
  1
No Tapholes
  9
$CUSTOMPROPERTYTAG
  1
Revision_Date_1
  9
$CUSTOMPROPERTY
  1
05/27/2011
  9
$CUSTOMPROPERTYTAG
  1
CAXDisplayName
  9
$CUSTOMPROPERTY
  1
0093-123073 - Guardian WHB - HDTX450
  9
$INSBASE
 10
0.0
 20
0.0
 30
0.0
  9
$EXTMIN
 10
35.71428571428544
 20
35.71428571428571
 30
0.0
  9
$EXTMAX
 10
1464.285714285714
 20
2085.714285714286
 30
0.0
  9
$LIMMIN
 10
0.0
 20
0.0
  9
$LIMMAX
 10
1500.0
 20
2121.428571428571
  9
$ORTHOMODE
 70
     0
  9
$REGENMODE
 70
     1
  9
$FILLMODE
 70
     1
  9
$QTEXTMODE
 70
     0
  9
$MIRRTEXT
 70
     0
  9
$LTSCALE
 40
7.142857142857142
  9
$ATTMODE
 70
     1
  9
$TEXTSIZE
 40
0.2
  9
$TRACEWID
 40
0.05
  9
$TEXTSTYLE
  7
Standard
  9
$CLAYER
  8
0
  9
$CELTYPE
  6
ByLayer
  9
$CECOLOR
 62
   256
  9
$CELTSCALE
 40
1.0
  9
$DISPSILH
 70
     0
  9
$DIMSCALE
 40
1.0
  9
$DIMASZ
 40
1.799999999999999
  9
$DIMEXO
 40
0.0625
  9
$DIMDLI
 40
0.38
  9
$DIMRND
 40
0.0
  9
$DIMDLE
 40
0.0
  9
$DIMEXE
 40
0.18
  9
$DIMTP
 40
0.0
  9
$DIMTM
 40
0.0
  9
$DIMTXT
 40
0.3048000037670135
  9
$DIMCEN
 40
0.09
  9
$DIMTSZ
 40
0.0
  9
$DIMTOL
 70
     0
  9
$DIMLIM
 70
     0
  9
$DIMTIH
 70
     1
  9
$DIMTOH
 70
     1
  9
$DIMSE1
 70
     0
  9
$DIMSE2
 70
     0
  9
$DIMTAD
 70
     0
  9
$DIMZIN
 70
     0
  9
$DIMBLK
  1

  9
$DIMASO
 70
     1
  9
$DIMSHO
 70
     1
  9
$DIMPOST
  1

  9
$DIMAPOST
  1

  9
$DIMALT
 70
     0
  9
$DIMALTD
 70
     2
  9
$DIMALTF
 40
25.4
  9
$DIMLFAC
 40
1.0
  9
$DIMTOFL
 70
     0
  9
$DIMTVP
 40
0.0
  9
$DIMTIX
 70
     0
  9
$DIMSOXD
 70
     0
  9
$DIMSAH
 70
     0
  9
$DIMBLK1
  1

  9
$DIMBLK2
  1

  9
$DIMSTYLE
  2
Standard
  9
$DIMCLRD
 70
     0
  9
$DIMCLRE
 70
     0
  9
$DIMCLRT
 70
     0
  9
$DIMTFAC
 40
1.0
  9
$DIMGAP
 40
0.09
  9
$DIMJUST
 70
     0
  9
$DIMSD1
 70
     0
  9
$DIMSD2
 70
     0
  9
$DIMTOLJ
 70
     1
  9
$DIMTZIN
 70
     0
  9
$DIMALTZ
 70
     0
  9
$DIMALTTZ
 70
     0
  9
$DIMUPT
 70
     0
  9
$DIMDEC
 70
     4
  9
$DIMTDEC
 70
     4
  9
$DIMALTU
 70
     2
  9
$DIMALTTD
 70
     2
  9
$DIMTXSTY
  7
Standard
  9
$DIMAUNIT
 70
     0
  9
$DIMADEC
 70
     0
  9
$DIMALTRND
 40
0.0
  9
$DIMAZIN
 70
     0
  9
$DIMDSEP
 70
    46
  9
$DIMATFIT
 70
     3
  9
$DIMFRAC
 70
     0
  9
$DIMLDRBLK
  1

  9
$DIMLUNIT
 70
     2
  9
$DIMLWD
 70
    -2
  9
$DIMLWE
 70
    -2
  9
$DIMTMOVE
 70
     0
  9
$LUNITS
 70
     2
  9
$LUPREC
 70
     2
  9
$SKETCHINC
 40
0.1
  9
$FILLETRAD
 40
0.0
  9
$AUNITS
 70
     0
  9
$AUPREC
 70
     0
  9
$MENU
  1
.
  9
$ELEVATION
 40
0.0
  9
$PELEVATION
 40
0.0
  9
$THICKNESS
 40
0.0
  9
$LIMCHECK
 70
     0
  9
$CHAMFERA
 40
0.0
  9
$CHAMFERB
 40
0.0
  9
$CHAMFERC
 40
0.0
  9
$CHAMFERD
 40
0.0
  9
$SKPOLY
 70
     0
  9
$TDCREATE
 40
2455709.381000046
  9
$TDUCREATE
 40
2455709.339333380
  9
$TDUPDATE
 40
2455709.386715394
  9
$TDUUPDATE
 40
2455709.345048727
  9
$TDINDWG
 40
0.0002835532
  9
$TDUSRTIMER
 40
0.0002835532
  9
$USRTIMER
 70
     1
  9
$ANGBASE
 50
0.0
  9
$ANGDIR
 70
     0
  9
$PDMODE
 70
     0
  9
$PDSIZE
 40
0.0
  9
$PLINEWID
 40
0.0
  9
$SPLFRAME
 70
     0
  9
$SPLINETYPE
 70
     6
  9
$SPLINESEGS
 70
     8
  9
$HANDSEED
  5
E68
  9
$SURFTAB1
 70
     6
  9
$SURFTAB2
 70
     6
  9
$SURFTYPE
 70
     6
  9
$SURFU
 70
     6
  9
$SURFV
 70
     6
  9
$UCSBASE
  2

  9
$UCSNAME
  2

  9
$UCSORG
 10
0.0
 20
0.0
 30
0.0
  9
$UCSXDIR
 10
1.0
 20
0.0
 30
0.0
  9
$UCSYDIR
 10
0.0
 20
1.0
 30
0.0
  9
$UCSORTHOREF
  2

  9
$UCSORTHOVIEW
 70
     0
  9
$UCSORGTOP
 10
0.0
 20
0.0
 30
0.0
  9
$UCSORGBOTTOM
 10
0.0
 20
0.0
 30
0.0
  9
$UCSORGLEFT
 10
0.0
 20
0.0
 30
0.0
  9
$UCSORGRIGHT
 10
0.0
 20
0.0
 30
0.0
  9
$UCSORGFRONT
 10
0.0
 20
0.0
 30
0.0
  9
$UCSORGBACK
 10
0.0
 20
0.0
 30
0.0
  9
$PUCSBASE
  2

  9
$PUCSNAME
  2

  9
$PUCSORG
 10
0.0
 20
0.0
 30
0.0
  9
$PUCSXDIR
 10
1.0
 20
0.0
 30
0.0
  9
$PUCSYDIR
 10
0.0
 20
1.0
 30
0.0
  9
$PUCSORTHOREF
  2

  9
$PUCSORTHOVIEW
 70
     0
  9
$PUCSORGTOP
 10
0.0
 20
0.0
 30
0.0
  9
$PUCSORGBOTTOM
 10
0.0
 20
0.0
 30
0.0
  9
$PUCSORGLEFT
 10
0.0
 20
0.0
 30
0.0
  9
$PUCSORGRIGHT
 10
0.0
 20
0.0
 30
0.0
  9
$PUCSORGFRONT
 10
0.0
 20
0.0
 30
0.0
  9
$PUCSORGBACK
 10
0.0
 20
0.0
 30
0.0
  9
$USERI1
 70
     0
  9
$USERI2
 70
     0
  9
$USERI3
 70
     0
  9
$USERI4
 70
     0
  9
$USERI5
 70
     0
  9
$USERR1
 40
0.0
  9
$USERR2
 40
0.0
  9
$USERR3
 40
0.0
  9
$USERR4
 40
0.0
  9
$USERR5
 40
0.0
  9
$WORLDVIEW
 70
     1
  9
$SHADEDGE
 70
     3
  9
$SHADEDIF
 70
    70
  9
$TILEMODE
 70
     1
  9
$MAXACTVP
 70
    64
  9
$PINSBASE
 10
0.0
 20
0.0
 30
0.0
  9
$PLIMCHECK
 70
     0
  9
$PEXTMIN
 10
0.0
 20
0.0
 30
0.0
  9
$PEXTMAX
 10
1500.0
 20
2121.428571428571
 30
0.0
  9
$PLIMMIN
 10
0.0
 20
0.0
  9
$PLIMMAX
 10
1500.0
 20
2121.428571428571
  9
$UNITMODE
 70
     0
  9
$VISRETAIN
 70
     1
  9
$PLINEGEN
 70
     0
  9
$PSLTSCALE
 70
     1
  9
$TREEDEPTH
 70
  3020
  9
$CMLSTYLE
  2
Standard
  9
$CMLJUST
 70
     0
  9
$CMLSCALE
 40
1.0
  9
$PROXYGRAPHICS
 70
     1
  9
$MEASUREMENT
 70
     1
  9
$CELWEIGHT
370
    -1
  9
$ENDCAPS
280
     0
  9
$JOINSTYLE
280
     0
  9
$LWDISPLAY
290
     0
  9
$INSUNITS
 70
     4
  9
$HYPERLINKBASE
  1

  9
$STYLESHEET
  1

  9
$XEDIT
290
     1
  9
$CEPSNTYPE
380
     0
  9
$PSTYLEMODE
290
     1
  9
$FINGERPRINTGUID
  2
{DAC21D47-D0AE-4657-9CCA-F5E190BC77A5}
  9
$VERSIONGUID
  2
{D71F0045-1774-4A5B-91E3-5C862BDDE3E2}
  9
$EXTNAMES
290
     1
  9
$PSVPSCALE
 40
0.0
  9
$OLESTARTUP
290
     0
  9
$SORTENTS
280
   127
  9
$INDEXCTL
280
     0
  9
$HIDETEXT
280
     1
  9
$XCLIPFRAME
290
     0
  9
$HALOGAP
280
     0
  9
$OBSCOLOR
 70
   257
  9
$OBSLTYPE
280
     0
  9
$INTERSECTIONDISPLAY
280
     0
  9
$INTERSECTIONCOLOR
 70
   257
  9
$DIMASSOC
280
     1
  9
$PROJECTNAME
  1

  0
ENDSEC
  0
SECTION
  2
CLASSES
  0
CLASS
  1
ACDBDICTIONARYWDFLT
  2
AcDbDictionaryWithDefault
  3
ObjectDBX Classes
 90
        0
 91
        1
280
     0
281
     0
  0
CLASS
  1
MATERIAL
  2
AcDbMaterial
  3
ObjectDBX Classes
 90
     1153
 91
        3
280
     0
281
     0
  0
CLASS
  1
VISUALSTYLE
  2
AcDbVisualStyle
  3
ObjectDBX Classes
 90
     4095
 91
       19
280
     0
281
     0
  0
CLASS
  1
SCALE
  2
AcDbScale
  3
ObjectDBX Classes
 90
     1153
 91
       33
280
     0
281
     0
  0
CLASS
  1
TABLESTYLE
  2
AcDbTableStyle
  3
ObjectDBX Classes
 90
     4095
 91
        1
280
     0
281
     0
  0
CLASS
  1
MLEADERSTYLE
  2
AcDbMLeaderStyle
  3
ACDB_MLEADERSTYLE_CLASS
 90
     4095
 91
        1
280
     0
281
     0
  0
CLASS
  1
DICTIONARYVAR
  2
AcDbDictionaryVar
  3
ObjectDBX Classes
 90
        0
 91
        9
280
     0
281
     0
  0
CLASS
  1
CELLSTYLEMAP
  2
AcDbCellStyleMap
  3
ObjectDBX Classes
 90
     1152
 91
        2
280
     0
281
     0
  0
CLASS
  1
ACME_DOCUMENT
  2
AcMeDbDoc
  3
AcMeServices
 90
     1024
 91
        1
280
     0
281
     0
  0
CLASS
  1
ACMESCOPE
  2
AcMeScope
  3
AcMeServices
 90
     1024
 91
        1
280
     0
281
     0
  0
CLASS
  1
ACMECOMMANDHISTORY
  2
AcMeCommandHistory
  3
AcMeServices
 90
     1024
 91
        1
280
     0
281
     0
  0
CLASS
  1
ACIMSYSVARMAN
  2
AcImSysVarManager
  3
AcMeServices
 90
     1024
 91
        5
280
     0
281
     0
  0
CLASS
  1
ACIMINTSYSVAR
  2
AcImIntSysVar
  3
AcMeServices
 90
     1024
 91
       27
280
     0
281
     0
  0
CLASS
  1
ACMEDRAWINGMAN
  2
AcMeDrawingMan
  3
AcMeServices
 90
     1024
 91
        1
280
     0
281
     0
  0
CLASS
  1
ACMEVIEW
  2
AcMeView
  3
AcMeServices
 90
     1024
 91
        1
280
     0
281
     0
  0
CLASS
  1
ACDBENTITYCACHE
  2
AcMeEntityCache
  3
AcMeServices
 90
     1024
 91
        1
280
     0
281
     0
  0
CLASS
  1
ACMESTATEMGR
  2
AcMeStateMgr
  3
AcMeServices
 90
     1024
 91
        1
280
     0
281
     0
  0
CLASS
  1
ACGREFMASTER
  2
AcGrefMaster
  3
AcAttribServices
 90
     1024
 91
        1
280
     0
281
     0
  0
CLASS
  1
AM_DRAWING_MGR
  2
AcDmDwgMgr
  3
AcMechDwgViewMgmt
 90
     1024
 91
        1
280
     0
281
     0
  0
CLASS
  1
AM_DWG_DOCUMENT
  2
AcDmDwgDocument
  3
AcMechDwgViewMgmt
 90
     1024
 91
        1
280
     0
281
     0
  0
CLASS
  1
AM_DWG_SHEET
  2
AcDmSheet
  3
AcMechDwgViewMgmt
 90
     1024
 91
        2
280
     0
281
     0
  0
CLASS
  1
AM_VIEWDIMPARMAP
  2
AcDmViewDimParMap
  3
AcMechDwgViewMgmt
 90
     1024
 91
        2
280
     0
281
     0
  0
CLASS
  1
AMDTINTERNALREACTOR
  2
AmdtInternalReactor
  3
AcMeServices
 90
     1024
 91
        1
280
     0
281
     0
  0
CLASS
  1
ACIMREALSYSVAR
  2
AcImRealSysVar
  3
AcMeServices
 90
     1024
 91
        1
280
     0
281
     0
  0
CLASS
  1
AM_DWGMGR_NAME
  2
AcDmDwgMgrName
  3
AcMechDwgViewMgmt
 90
     1024
 91
        1
280
     0
281
     0
  0
CLASS
  1
ACME_DATABASE
  2
AcMeDbDatabase
  3
AcMeServices
 90
     1024
 91
        1
280
     0
281
     0
  0
CLASS
  1
ACRFINSADJUSTERMGR
  2
AcRfInsAdjusterMgr
  3
AcMeServices
 90
     1024
 91
        1
280
     0
281
     0
  0
CLASS
  1
ACGREFACADMASTER
  2
AcGrefacadMaster
  3
AcGrefServices
 90
     1024
 91
        1
280
     0
281
     0
  0
CLASS
  1
AMDTMENUSTATEMGR
  2
AmdtMenuStateMgr
  3
McadcomServices
 90
     1024
 91
        1
280
     0
281
     0
  0
CLASS
  1
AMDTMCOMMENUSTATE
  2
AmdtMcomMenuState
  3
McadcomServices
 90
     1024
 91
        1
280
     0
281
     0
  0
CLASS
  1
AMIMASTER
  2
AmiMaster
  3
AmiServices
 90
     1024
 91
        1
280
     0
281
     0
  0
CLASS
  1
AMGSETTINGSOBJ
  2
AmgSettingsObj
  3
"AcadM|Product Description: AutoCAD Mechanical|Company: Autodesk, Inc."
 90
     1024
 91
        2
280
     0
281
     0
  0
CLASS
  1
MAPIAMMOUDLE
  2
MApiAmModule
  3
MApiAmServices
 90
     1024
 91
        1
280
     0
281
     0
  0
CLASS
  1
ACIMSTRSYSVAR
  2
AcImStrSysVar
  3
AcMeServices
 90
     1024
 91
        5
280
     0
281
     0
  0
CLASS
  1
AMDTADMENUSTATE
  2
AmdtAdMenuState
  3
DesignerServices
 90
     1024
 91
        1
280
     0
281
     0
  0
CLASS
  1
ADAPPL
  2
AcAdAppl
  3
DesignerServices
 90
     1024
 91
        1
280
     0
281
     0
  0
CLASS
  1
DEPMGR
  2
AcAdDepMgr
  3
DesignerServices
 90
     1024
 91
        1
280
     0
281
     0
  0
CLASS
  1
PARAMMGR
  2
AcAdParamMgr
  3
DesignerServices
 90
     1024
 91
        1
280
     0
281
     0
  0
CLASS
  1
PARAMSCOPE
  2
AcAdParamScope
  3
DesignerServices
 90
     1024
 91
        1
280
     0
281
     0
  0
CLASS
  1
NAMEDAPPL
  2
AcAdNamedAppl
  3
DesignerServices
 90
     1024
 91
        1
280
     0
281
     0
  0
CLASS
  1
AMDTDMMENUSTATE
  2
AmdtDmMenuState
  3
AcMechDwgViewMgmt
 90
     1024
 91
        1
280
     0
281
     0
  0
CLASS
  1
AMDTAMMENUSTATE
  2
AmdtAmMenuState
  3
DesignerAssemblies
 90
     1024
 91
        1
280
     0
281
     0
  0
CLASS
  1
ACAMPROJECT
  2
AcAmProject
  3
DesignerAssemblies
 90
     1024
 91
        1
280
     0
281
     0
  0
CLASS
  1
ACAMGRCOMPDEF
  2
AcAmGrCompDef
  3
DesignerAssemblies
 90
     1024
 91
        1
280
     0
281
     0
  0
CLASS
  1
ACAMCOMPDEF
  2
AcAmCompDef
  3
DesignerAssemblies
 90
     1024
 91
        1
280
     0
281
     0
  0
CLASS
  1
ACAMCOMPDEFMGR
  2
AcAmCompDefMgr
  3
DesignerAssemblies
 90
     1024
 91
        1
280
     0
281
     0
  0
CLASS
  1
AMCONTEXTMGR
  2
AcAmContextMgr
  3
DesignerAssemblies
 90
     1024
 91
        1
280
     0
281
     0
  0
CLASS
  1
ACAMCONTEXTMODELER
  2
AcAmContextModeler
  3
DesignerAssemblies
 90
     1024
 91
        1
280
     0
281
     0
  0
CLASS
  1
ACMDATADICTIONARY
  2
AcmDataDictionary
  3
"AcmSymBB|Product Description: AutoCAD Mechanical|Company: Autodesk, Inc."
 90
     1024
 91
        1
280
     0
281
     0
  0
CLASS
  1
CATALOGSTATE
  2
AcAmCatalogState
  3
DesignerAssemblies
 90
     1024
 91
        1
280
     0
281
     0
  0
CLASS
  1
ACAMGRCOMPDEFSET
  2
AcAmGrCompDefSet
  3
DesignerAssemblies
 90
     1024
 91
        1
280
     0
281
     0
  0
CLASS
  1
AMDTBROWSERDBTAB
  2
AmdtBrowserDbTab
  3
McadcomServices
 90
     1024
 91
        1
280
     0
281
     0
  0
CLASS
  1
CBROWSERAPPOBJECT
  2
CBrowserAppObject
  3
McadcomServices
 90
     1024
 91
        2
280
     0
281
     0
  0
CLASS
  1
DM_PLACEHOLDER
  2
AcDmSelsetPlaceholder
  3
AcMechDwgViewMgmt
 90
     1024
 91
        1
280
     0
281
     0
  0
CLASS
  1
ACMSTANDARDISO
  2
AcmStandardISO
  3
"Amdt_StdImp|Product Description: AutoCAD Mechanical|Company: Autodesk, Inc."
 90
     1024
 91
        1
280
     0
281
     0
  0
CLASS
  1
AMDTEDGESTANDARDISO13715
  2
AmdtEdgeStdISO13715
  3
"Amdt_StdImp|Product Description: AutoCAD Mechanical|Company: Autodesk, Inc."
 90
     1024
 91
        1
280
     0
281
     0
  0
CLASS
  1
ACMSURFSTANDARDISO2002
  2
AcmSurfTextStdISO2002
  3
"Amdt_StdImp|Product Description: AutoCAD Mechanical|Company: Autodesk, Inc."
 90
     1024
 91
        1
280
     0
281
     0
  0
CLASS
  1
ACMFCFSTANDARDISO
  2
AcmFCFStdISO
  3
"Amdt_StdImp|Product Description: AutoCAD Mechanical|Company: Autodesk, Inc."
 90
     1024
 91
        1
280
     0
281
     0
  0
CLASS
  1
ACMWELDSTANDARDISO
  2
AcmWeldingStdISO
  3
"Amdt_StdImp|Product Description: AutoCAD Mechanical|Company: Autodesk, Inc."
 90
     1024
 91
        1
280
     0
281
     0
  0
CLASS
  1
ACMIDSTANDARDISO
  2
AcmIdStdISO
  3
"Amdt_StdImp|Product Description: AutoCAD Mechanical|Company: Autodesk, Inc."
 90
     1024
 91
        1
280
     0
281
     0
  0
CLASS
  1
ACMDATUMSTANDARDISO
  2
AcmDatumStdISO
  3
"Amdt_StdImp|Product Description: AutoCAD Mechanical|Company: Autodesk, Inc."
 90
     1024
 91
        1
280
     0
281
     0
  0
CLASS
  1
ACMBOMSTANDARDISO
  2
AcmBOMStdISO
  3
"Amdt_StdImp|Product Description: AutoCAD Mechanical|Company: Autodesk, Inc."
 90
     1024
 91
        1
280
     0
281
     0
  0
CLASS
  1
ACMDETAILSTANDARDISO
  2
AmdtDetailSymStdISO
  3
"Amdt_StdImp|Product Description: AutoCAD Mechanical|Company: Autodesk, Inc."
 90
     1024
 91
        1
280
     0
281
     0
  0
CLASS
  1
ACMSECTIONSTANDARDISO2001
  2
AmdtSectionSymStdISO2001
  3
"Amdt_StdImp|Product Description: AutoCAD Mechanical|Company: Autodesk, Inc."
 90
     1024
 91
        1
280
     0
281
     0
  0
CLASS
  1
ACMCENTERLINESTANDARDISO
  2
AmdtCenterLineStdISO
  3
"Amdt_StdImp|Product Description: AutoCAD Mechanical|Company: Autodesk, Inc."
 90
     1024
 91
        1
280
     0
281
     0
  0
CLASS
  1
ACMTHREADLINESTANDARDISO
  2
AmdtThreadLineStdISO
  3
"Amdt_StdImp|Product Description: AutoCAD Mechanical|Company: Autodesk, Inc."
 90
     1024
 91
        1
280
     0
281
     0
  0
CLASS
  1
ACMNOTESTANDARDISO
  2
AmdtNoteStdISO
  3
"Amdt_StdImp|Product Description: AutoCAD Mechanical|Company: Autodesk, Inc."
 90
     1024
 91
        1
280
     0
281
     0
  0
CLASS
  1
ACMTAPERSTANDARDISO
  2
AcmTaperStdISO
  3
"Amdt_StdImp|Product Description: AutoCAD Mechanical|Company: Autodesk, Inc."
 90
     1024
 91
        1
280
     0
281
     0
  0
CLASS
  1
ACMANOOTATIONVIEWSTANDARDISO
  2
AmdtAnViewStdISO
  3
"Amdt_StdImp|Product Description: AutoCAD Mechanical|Company: Autodesk, Inc."
 90
     1024
 91
        1
280
     0
281
     0
  0
CLASS
  1
ACAMGLAYSTD
  2
AcAmgLayStd
  3
"AmgLay|Product Description: AutoCAD Mechanical|Company: Autodesk, Inc."
 90
     1024
 91
        1
280
     0
281
     0
  0
CLASS
  1
ACAMGDIMSTD
  2
AcAmgDimStd
  3
"AmgDim|Product Description: AutoCAD Mechanical|Company: Autodesk, Inc."
 90
     1024
 91
        1
280
     0
281
     0
  0
CLASS
  1
AMGOBJPROPCFG
  2
AmgObjPropCfg
  3
"AmgLay|Product Description: AutoCAD Mechanical|Company: Autodesk, Inc."
 90
     1025
 91
        1
280
     0
281
     0
  0
CLASS
  1
ACAMGHOLECHARTSTDISO
  2
AcAmgHoleChartStdISO
  3
AmgDim|Product Description: AutoCAD Mechanical|Company: Autodesk, Inc.
 90
     1024
 91
        1
280
     0
281
     0
  0
CLASS
  1
ACAMGTITLESTD
  2
AcAmgTitleStd
  3
"AmgTitle|Product Description: AutoCAD Mechanical|Company: Autodesk, Inc."
 90
     4095
 91
        1
280
     0
281
     0
  0
CLASS
  1
AMDTNOTETEMPLATEDB
  2
AmdtNoteTemplateDB
  3
AcmSymBB|Product Description: AutoCAD Mechanical|Company: Autodesk, Inc.
 90
     1024
 91
        6
280
     0
281
     0
  0
CLASS
  1
ACAMGFILTERDAT
  2
AcAmgFilterDat
  3
"AcadM|Product Description: AutoCAD Mechanical|Company: Autodesk, Inc."
 90
     1024
 91
        6
280
     0
281
     0
  0
ENDSEC
  0
SECTION
  2
TABLES
  0
TABLE
  2
VPORT
  5
8
330
0
100
AcDbSymbolTable
 70
     1
  0
VPORT
  5
62
330
8
100
AcDbSymbolTableRecord
100
AcDbViewportTableRecord
  2
*Active
 70
     0
 10
0.0
 20
0.0
 11
1.0
 21
1.0
 12
1467.426035502958
 22
1060.714285714285
 13
0.0
 23
0.0
 14
1.0
 24
1.0
 15
0.0
 25
0.0
 16
0.0
 26
0.0
 36
1.0
 17
0.0
 27
0.0
 37
0.0
 40
1973.480243161093
 41
1.487277353689567
 42
50.0
 43
0.0
 44
0.0
 50
0.0
 51
0.0
 71
     0
 72
   100
 73
     1
 74
     1
 75
     0
 76
     0
 77
     0
 78
     0
281
     0
 65
     0
110
0.0
120
0.0
130
0.0
111
1.0
121
0.0
131
0.0
112
0.0
122
1.0
132
0.0
 79
     0
146
0.0
  0
ENDTAB
  0
TABLE
  2
LTYPE
  5
5
330
0
100
AcDbSymbolTable
 70
    14
  0
LTYPE
  5
66
330
5
100
AcDbSymbolTableRecord
100
AcDbLinetypeTableRecord
  2
ByBlock
 70
     0
  3

 72
    65
 73
     0
 40
0.0
  0
LTYPE
  5
67
330
5
100
AcDbSymbolTableRecord
100
AcDbLinetypeTableRecord
  2
ByLayer
 70
     0
  3

 72
    65
 73
     0
 40
0.0
  0
LTYPE
  5
68
330
5
100
AcDbSymbolTableRecord
100
AcDbLinetypeTableRecord
  2
Continuous
 70
     0
  3
Solid line
 72
    65
 73
     0
 40
0.0
  0
LTYPE
  5
D77
330
5
100
AcDbSymbolTableRecord
100
AcDbLinetypeTableRecord
  2
HIDDEN
 70
     0
  3
Hidden __ __ __ __ __ __ __ __ __ __ __ __ __ _
 72
    65
 73
     2
 40
9.524999999999998
 49
6.349999999999999
 74
     0
 49
-3.174999999999999
 74
     0
  0
LTYPE
  5
D78
330
5
100
AcDbSymbolTableRecord
100
AcDbLinetypeTableRecord
  2
PHANTOM2
 70
     0
  3
Phantom (.5x) ___ _ _ ___ _ _ ___ _ _ ___ _ _
 72
    65
 73
     6
 40
31.75
 49
15.875
 74
     0
 49
-3.174999999999999
 74
     0
 49
3.174999999999999
 74
     0
 49
-3.174999999999999
 74
     0
 49
3.174999999999999
 74
     0
 49
-3.174999999999999
 74
     0
  0
LTYPE
  5
D79
330
5
100
AcDbSymbolTableRecord
100
AcDbLinetypeTableRecord
  2
CENTER
 70
     0
  3
Center ____ _ ____ _ ____ _ ____ _ ____ _ ____
 72
    65
 73
     4
 40
50.8
 49
31.75
 74
     0
 49
-6.349999999999999
 74
     0
 49
6.349999999999999
 74
     0
 49
-6.349999999999999
 74
     0
  0
LTYPE
  5
DC3
330
5
100
AcDbSymbolTableRecord
100
AcDbLinetypeTableRecord
  2
AM_ISO02W050
 70
     0
  3
__ __ __ __ __ __ __ __ __ __ __ __ __ __ __
 72
    65
 73
     2
 40
7.5
 49
6.0
 74
     0
 49
-1.5
 74
     0
  0
LTYPE
  5
DC4
330
5
100
AcDbSymbolTableRecord
100
AcDbLinetypeTableRecord
  2
AM_ISO08W050
 70
     0
  3
____ . ____ . ____ . ____ . ____ . ____ . ____
 72
    65
 73
     4
 40
18.0
 49
12.0
 74
     0
 49
-1.5
 74
     0
 49
3.0
 74
     0
 49
-1.5
 74
     0
  0
LTYPE
  5
DC5
330
5
100
AcDbSymbolTableRecord
100
AcDbLinetypeTableRecord
  2
AM_ISO09W050
 70
     0
  3
_____ . . _____ . . _____ . . ____ .. ____
 72
    65
 73
     6
 40
22.5
 49
12.0
 74
     0
 49
-1.5
 74
     0
 49
3.0
 74
     0
 49
-1.5
 74
     0
 49
3.0
 74
     0
 49
-1.5
 74
     0
  0
LTYPE
  5
DC6
330
5
100
AcDbSymbolTableRecord
100
AcDbLinetypeTableRecord
  2
Amconstr
 70
     0
  3
_______________________
 72
    65
 73
     2
 40
9999.0
 49
9999.0
 74
     0
 49
0.0
 74
     0
  0
LTYPE
  5
DC7
330
5
100
AcDbSymbolTableRecord
100
AcDbLinetypeTableRecord
  2
AM_ISO08W050x2
 70
     0
  3
__ . __ . __ . __ . __ . __
 72
    65
 73
     4
 40
9.0
 49
6.0
 74
     0
 49
-0.75
 74
     0
 49
1.5
 74
     0
 49
-0.75
 74
     0
  0
LTYPE
  5
DC8
330
5
100
AcDbSymbolTableRecord
100
AcDbLinetypeTableRecord
  2
AM_ISO02W050x2
 70
     0
  3
 _ _ _ _ _ _ _ _ _ _ _ _
 72
    65
 73
     2
 40
3.75
 49
3.0
 74
     0
 49
-0.75
 74
     0
  0
LTYPE
  5
DCB
330
5
100
AcDbSymbolTableRecord
100
AcDbLinetypeTableRecord
  2
Amzigzag
 70
     0
  3
/\/-/\/-/\/-/\/-/\/-/\/
 72
    65
 73
     2
 40
11.0001
 49
0.0001
 74
     4
 75
   136
340
DCA
 46
0.04
 50
0.0
 44
0.0
 45
0.0
 49
-11.0
 74
     0
  0
LTYPE
  5
DDA
330
5
100
AcDbSymbolTableRecord
100
AcDbLinetypeTableRecord
  2
ACISOWELD
 70
     0
  3
_ _ _ _ _
 72
    65
 73
     2
 40
2.0
 49
2.0
 74
     0
 49
-1.0
 74
     0
  0
LTYPE
  5
DDB
330
5
100
AcDbSymbolTableRecord
100
AcDbLinetypeTableRecord
  2
ACISOTGB
 70
     0
  3
__ . . __ . .
 72
    65
 73
     6
 40
9.0
 49
4.0
 74
     0
 49
-1.0
 74
     0
 49
1.0
 74
     0
 49
-1.0
 74
     0
 49
1.0
 74
     0
 49
-1.0
 74
     0
  0
LTYPE
  5
DDC
330
5
100
AcDbSymbolTableRecord
100
AcDbLinetypeTableRecord
  2
ACISOTGL
 70
     0
  3
_ _ _ _ _
 72
    65
 73
     2
 40
3.0
 49
2.0
 74
     0
 49
-1.0
 74
     0
  0
ENDTAB
  0
TABLE
  2
LAYER
  5
2
330
0
100
AcDbSymbolTable
 70
    15
  0
LAYER
  5
5F
330
2
100
AcDbSymbolTableRecord
100
AcDbLayerTableRecord
  2
0
 70
     0
 62
     7
  6
Continuous
370
    -3
390
F
  0
LAYER
  5
8F
330
2
100
AcDbSymbolTableRecord
100
AcDbLayerTableRecord
  2
Bemaßungen(DIN)
 70
     0
 62
     7
  6
Continuous
370
    25
390
F
  0
LAYER
  5
95
330
2
100
AcDbSymbolTableRecord
100
AcDbLayerTableRecord
  2
Centerline(ISO)
 70
     0
 62
     7
  6
Continuous
370
    25
390
F
  0
LAYER
  5
9B
330
2
100
AcDbSymbolTableRecord
100
AcDbLayerTableRecord
  2
Hatch
 70
     0
 62
     7
  6
Continuous
370
     9
390
F
  0
LAYER
  5
A2
330
2
100
AcDbSymbolTableRecord
100
AcDbLayerTableRecord
  2
MaCenterline
 70
     0
 62
     7
  6
Continuous
370
    35
390
F
  0
LAYER
  5
A5
330
2
100
AcDbSymbolTableRecord
100
AcDbLayerTableRecord
  2
MaSichtkante dünnFliese
 70
     0
 62
     7
  6
Continuous
370
    30
390
F
  0
LAYER
  5
A6
330
2
100
AcDbSymbolTableRecord
100
AcDbLayerTableRecord
  2
MaVisibleEdge
 70
     0
 62
     7
  6
Continuous
370
    50
390
F
  0
LAYER
  5
A7
330
2
100
AcDbSymbolTableRecord
100
AcDbLayerTableRecord
  2
MaVisibleEdge thinFlag
 70
     0
 62
     7
  6
Continuous
370
    30
390
F
  0
LAYER
  5
AE
330
2
100
AcDbSymbolTableRecord
100
AcDbLayerTableRecord
  2
Phantom Lines(ISO)
 70
     0
 62
     7
  6
Continuous
370
    70
390
F
  0
LAYER
  5
B6
330
2
100
AcDbSymbolTableRecord
100
AcDbLayerTableRecord
  2
Sketch Geometry(DIN)
 70
     0
 62
     7
  6
Continuous
370
    50
390
F
  0
LAYER
  5
B7
330
2
100
AcDbSymbolTableRecord
100
AcDbLayerTableRecord
  2
Sketch Geometry(ISO)
 70
     0
 62
     7
  6
Continuous
370
    50
390
F
  0
LAYER
  5
C0
330
2
100
AcDbSymbolTableRecord
100
AcDbLayerTableRecord
  2
Symbole(DIN)
 70
     0
 62
     7
  6
Continuous
370
    25
390
F
  0
LAYER
  5
C1
330
2
100
AcDbSymbolTableRecord
100
AcDbLayerTableRecord
  2
Symbols(ISO)
 70
     0
 62
     7
  6
Continuous
370
    25
390
F
  0
LAYER
  5
C9
330
2
100
AcDbSymbolTableRecord
100
AcDbLayerTableRecord
  2
Visible Edges(DIN)
 70
     0
 62
     7
  6
Continuous
370
    50
390
F
  0
LAYER
  5
3FD
330
2
100
AcDbSymbolTableRecord
100
AcDbLayerTableRecord
  2
Defpoints
 70
     0
 62
     7
  6
Continuous
290
     0
370
    -3
390
F
  0
ENDTAB
  0
TABLE
  2
STYLE
  5
3
330
0
100
AcDbSymbolTable
 70
    25
  0
STYLE
  5
60
330
3
100
AcDbSymbolTableRecord
100
AcDbTextStyleTableRecord
  2
Standard
 70
     0
 40
0.0
 41
1.0
 50
0.0
 71
     0
 42
0.2
  3
monotxt.shx
  4

  0
STYLE
  5
65
330
3
100
AcDbSymbolTableRecord
100
AcDbTextStyleTableRecord
  2
Annotative
 70
     0
 40
0.0
 41
1.0
 50
0.0
 71
     0
 42
0.2
  3
txt
  4

1001
AcadAnnotative
1000
AnnotativeData
1002
{
1070
     1
1070
     1
1002
}
  0
STYLE
  5
D0
330
3
100
AcDbSymbolTableRecord
100
AcDbTextStyleTableRecord
  2
Current-DIN
 70
     0
 40
0.0
 41
1.0
 50
0.0
 71
     0
 42
0.2
  3
TAHOMA.TTF
  4

1001
ACAD
1000
Tahoma
1071
      256
  0
STYLE
  5
D1
330
3
100
AcDbSymbolTableRecord
100
AcDbTextStyleTableRecord
  2
Parts-List_2.0mm
 70
     0
 40
0.0
 41
0.899999976158142
 50
0.0
 71
     0
 42
0.2
  3
ARIAL.TTF
  4

1001
ACAD
1000
Arial
1071
      256
  0
STYLE
  5
D2
330
3
100
AcDbSymbolTableRecord
100
AcDbTextStyleTableRecord
  2
Parts-List_2.0mmByLayer
 70
     0
 40
0.0
 41
0.899999976158142
 50
0.0
 71
     0
 42
0.2
  3
ARIAL.TTF
  4

1001
ACAD
1000
Arial
1071
      256
  0
STYLE
  5
D3
330
3
100
AcDbSymbolTableRecord
100
AcDbTextStyleTableRecord
  2
Text__1.3mm
 70
     0
 40
0.0
 41
0.899999976158142
 50
0.0
 71
     0
 42
0.2
  3
ARIAL.TTF
  4

1001
ACAD
1000
Arial
1071
      256
  0
STYLE
  5
D4
330
3
100
AcDbSymbolTableRecord
100
AcDbTextStyleTableRecord
  2
Text__1.5mm
 70
     0
 40
0.0
 41
0.899999976158142
 50
0.0
 71
     0
 42
0.2
  3
ARIAL.TTF
  4

1001
ACAD
1000
Arial
1071
      256
  0
STYLE
  5
D5
330
3
100
AcDbSymbolTableRecord
100
AcDbTextStyleTableRecord
  2
Text__3.5mm
 70
     0
 40
0.0
 41
0.899999976158142
 50
0.0
 71
     0
 42
0.2
  3
ARIAL.TTF
  4

1001
ACAD
1000
Arial
1071
      256
  0
STYLE
  5
D6
330
3
100
AcDbSymbolTableRecord
100
AcDbTextStyleTableRecord
  2
Text__3.5mmBigText
 70
     0
 40
0.0
 41
0.899999976158142
 50
0.0
 71
     0
 42
0.2
  3
ARIAL.TTF
  4

1001
ACAD
1000
Arial
1071
      256
  0
STYLE
  5
D7
330
3
100
AcDbSymbolTableRecord
100
AcDbTextStyleTableRecord
  2
Text__3.5mmByLayer
 70
     0
 40
0.0
 41
0.899999976158142
 50
0.0
 71
     0
 42
0.2
  3
ARIAL.TTF
  4

1001
ACAD
1000
Arial
1071
      256
  0
STYLE
  5
D8
330
3
100
AcDbSymbolTableRecord
100
AcDbTextStyleTableRecord
  2
Text__4.0mm
 70
     0
 40
0.0
 41
0.899999976158142
 50
0.0
 71
     0
 42
0.2
  3
ARIAL.TTF
  4

1001
ACAD
1000
Arial
1071
      256
  0
STYLE
  5
D9
330
3
100
AcDbSymbolTableRecord
100
AcDbTextStyleTableRecord
  2
Text__5.0mm
 70
     0
 40
0.0
 41
0.899999976158142
 50
0.0
 71
     0
 42
0.2
  3
ARIAL.TTF
  4

1001
ACAD
1000
Arial
1071
      256
  0
STYLE
  5
DA
330
3
100
AcDbSymbolTableRecord
100
AcDbTextStyleTableRecord
  2
Text__5.0mmByLayer
 70
     0
 40
0.0
 41
0.899999976158142
 50
0.0
 71
     0
 42
0.2
  3
ARIAL.TTF
  4

1001
ACAD
1000
Arial
1071
      256
  0
STYLE
  5
DB
330
3
100
AcDbSymbolTableRecord
100
AcDbTextStyleTableRecord
  2
Text_2.5mm
 70
     0
 40
0.0
 41
0.899999976158142
 50
0.0
 71
     0
 42
0.2
  3
ARIAL.TTF
  4

1001
ACAD
1000
Arial
1071
      256
  0
STYLE
  5
DC
330
3
100
AcDbSymbolTableRecord
100
AcDbTextStyleTableRecord
  2
Text_3.5mm
 70
     0
 40
0.0
 41
0.899999976158142
 50
0.0
 71
     0
 42
0.2
  3
ARIAL.TTF
  4

1001
ACAD
1000
Arial
1071
      256
  0
STYLE
  5
DD
330
3
100
AcDbSymbolTableRecord
100
AcDbTextStyleTableRecord
  2
Text_5.0mm
 70
     0
 40
0.0
 41
0.899999976158142
 50
0.0
 71
     0
 42
0.2
  3
ARIAL.TTF
  4

1001
ACAD
1000
Arial
1071
      256
  0
STYLE
  5
DE
330
3
100
AcDbSymbolTableRecord
100
AcDbTextStyleTableRecord
  2
Text_5.0mmByLayer
 70
     0
 40
0.0
 41
0.899999976158142
 50
0.0
 71
     0
 42
0.2
  3
ARIAL.TTF
  4

1001
ACAD
1000
Arial
1071
      256
  0
STYLE
  5
103
330
3
100
AcDbSymbolTableRecord
100
AcDbTextStyleTableRecord
  2
Text Style49
 70
     0
 40
0.0
 41
0.899999976158142
 50
0.0
 71
     0
 42
0.2
  3
ARIAL.TTF
  4

1001
ACAD
1000
Arial
1071
      256
  0
STYLE
  5
242
330
3
100
AcDbSymbolTableRecord
100
AcDbTextStyleTableRecord
  2
Text Style20
 70
     0
 40
0.0
 41
1.0
 50
0.0
 71
     0
 42
0.2
  3
ARIAL.TTF
  4

1001
ACAD
1000
Arial
1071
      256
  0
STYLE
  5
244
330
3
100
AcDbSymbolTableRecord
100
AcDbTextStyleTableRecord
  2
Text Style9
 70
     0
 40
0.0
 41
1.0
 50
0.0
 71
     0
 42
0.2
  3
ARIAL.TTF
  4

1001
ACAD
1000
Arial
1071
      256
  0
STYLE
  5
247
330
3
100
AcDbSymbolTableRecord
100
AcDbTextStyleTableRecord
  2
Text Style38
 70
     0
 40
0.0
 41
1.0
 50
0.0
 71
     0
 42
0.2
  3
ARIAL.TTF
  4

1001
ACAD
1000
Arial
1071
      256
  0
STYLE
  5
24A
330
3
100
AcDbSymbolTableRecord
100
AcDbTextStyleTableRecord
  2
Text Style40
 70
     0
 40
0.0
 41
1.0
 50
0.0
 71
     0
 42
0.2
  3
ARIAL.TTF
  4

1001
ACAD
1000
Arial
1071
      256
  0
STYLE
  5
DCA
330
3
100
AcDbSymbolTableRecord
100
AcDbTextStyleTableRecord
  2

 70
     1
 40
0.0
 41
1.0
 50
0.0
 71
     0
 42
0.2
  3
genltshp.shx
  4

  0
STYLE
  5
DD8
330
3
100
AcDbSymbolTableRecord
100
AcDbTextStyleTableRecord
  2
ACISOTS
 70
     0
 40
1.0
 41
1.0
 50
0.0
 71
     0
 42
0.2
  3
isocp.shx
  4

  0
STYLE
  5
DD9
330
3
100
AcDbSymbolTableRecord
100
AcDbTextStyleTableRecord
  2
ACISOGDT
 70
     0
 40
0.0
 41
1.0
 50
0.0
 71
     0
 42
0.2
  3
amgdt.shx
  4

  0
ENDTAB
  0
TABLE
  2
VIEW
  5
6
330
0
100
AcDbSymbolTable
 70
     0
  0
ENDTAB
  0
TABLE
  2
UCS
  5
7
330
0
100
AcDbSymbolTable
 70
     0
  0
ENDTAB
  0
TABLE
  2
APPID
  5
9
330
0
100
AcDbSymbolTable
 70
    18
  0
APPID
  5
61
330
9
100
AcDbSymbolTableRecord
100
AcDbRegAppTableRecord
  2
ACAD
 70
     0
  0
APPID
  5
69
330
9
100
AcDbSymbolTableRecord
100
AcDbRegAppTableRecord
  2
AcadAnnotative
 70
     0
  0
APPID
  5
107
330
9
100
AcDbSymbolTableRecord
100
AcDbRegAppTableRecord
  2
AcadAnnoPO
 70
     0
  0
APPID
  5
D3F
330
9
100
AcDbSymbolTableRecord
100
AcDbRegAppTableRecord
  2
ACAD_MLEADERVER
 70
     0
  0
APPID
  5
D4A
330
9
100
AcDbSymbolTableRecord
100
AcDbRegAppTableRecord
  2
MCAD_NO_VIS
 70
     0
  0
APPID
  5
D4B
330
9
100
AcDbSymbolTableRecord
100
AcDbRegAppTableRecord
  2
ACAD_TEMP_GRAPHIC
 70
     0
  0
APPID
  5
D7B
330
9
100
AcDbSymbolTableRecord
100
AcDbRegAppTableRecord
  2
AD_DRAW
 70
     0
  0
APPID
  5
D7E
330
9
100
AcDbSymbolTableRecord
100
AcDbRegAppTableRecord
  2
ACATTRIBSERVICES
 70
     0
  0
APPID
  5
DA2
330
9
100
AcDbSymbolTableRecord
100
AcDbRegAppTableRecord
  2
DESIGNERASSEMBLIES
 70
     0
  0
APPID
  5
DA8
330
9
100
AcDbSymbolTableRecord
100
AcDbRegAppTableRecord
  2
ACADM_DIM_EDIT
 70
     0
  0
APPID
  5
DA9
330
9
100
AcDbSymbolTableRecord
100
AcDbRegAppTableRecord
  2
AMDT_DM_ADJ
 70
     0
  0
APPID
  5
DC0
330
9
100
AcDbSymbolTableRecord
100
AcDbRegAppTableRecord
  2
ACAD_DSTYLE_DIMJAG
 70
     0
  0
APPID
  5
DC1
330
9
100
AcDbSymbolTableRecord
100
AcDbRegAppTableRecord
  2
ACAD_DSTYLE_DIMBREAK
 70
     0
  0
APPID
  5
DEA
330
9
100
AcDbSymbolTableRecord
100
AcDbRegAppTableRecord
  2
AMAcad
 70
     0
  0
APPID
  5
E64
330
9
100
AcDbSymbolTableRecord
100
AcDbRegAppTableRecord
  2
ACAD_DSTYLE_DIMARC_LENGTH_SYMBOL
 70
     0
  0
APPID
  5
E65
330
9
100
AcDbSymbolTableRecord
100
AcDbRegAppTableRecord
  2
ACAD_DSTYLE_DIM_LINETYPE
 70
     0
  0
APPID
  5
E66
330
9
100
AcDbSymbolTableRecord
100
AcDbRegAppTableRecord
  2
ACAD_DSTYLE_DIM_EXT1_LINETYPE
 70
     0
  0
APPID
  5
E67
330
9
100
AcDbSymbolTableRecord
100
AcDbRegAppTableRecord
  2
ACAD_DSTYLE_DIM_EXT2_LINETYPE
 70
     0
  0
ENDTAB
  0
TABLE
  2
DIMSTYLE
  5
A
330
0
100
AcDbSymbolTable
 70
    24
100
AcDbDimStyleTable
 71
     2
340
E3
340
63
  0
DIMSTYLE
105
63
330
A
100
AcDbSymbolTableRecord
100
AcDbDimStyleTableRecord
  2
Standard
 70
     0
340
60
  0
DIMSTYLE
105
64
330
A
100
AcDbSymbolTableRecord
100
AcDbDimStyleTableRecord
  2
Annotative
 70
     0
340
60
1001
AcadAnnotative
1000
AnnotativeData
1002
{
1070
     1
1070
     1
1002
}
  0
DIMSTYLE
105
DF
330
A
100
AcDbSymbolTableRecord
100
AcDbDimStyleTableRecord
  2
KS-STANDARD
 70
     0
 40
7.142857142857142
 41
2.5
 42
0.0
 43
12.0
 44
3.174999999999998
 45
0.00000001
 46
10.0
 73
     0
 74
     0
 77
     1
 78
     8
 79
     2
140
3.5
143
0.03937
146
0.7142857142857145
147
0.8000000000000001
171
     3
172
     1
176
     7
177
     7
178
     7
271
     1
274
     3
278
    44
284
     8
286
     8
340
DC
371
    25
372
    25
  0
DIMSTYLE
105
E0
330
A
100
AcDbSymbolTableRecord
100
AcDbDimStyleTableRecord
  2
KS-STANDARD$7
 70
     0
 40
7.142857142857142
 41
2.5
 42
0.0
 43
12.0
 44
3.174999999999998
 45
0.00000001
 46
10.0
 73
     0
 74
     0
 77
     1
 78
     8
 79
     2
140
3.5
143
0.03937
146
0.7142857142857145
147
0.8000000000000001
171
     3
172
     1
176
     7
177
     7
178
     7
271
     1
274
     3
278
    44
284
     8
286
     8
340
DC
371
    25
372
    25
  0
DIMSTYLE
105
E1
330
A
100
AcDbSymbolTableRecord
100
AcDbDimStyleTableRecord
  2
KS-STANDARDBigText
 70
     0
 40
7.142857142857142
 41
5.0
 42
0.0
 43
12.0
 44
3.174999999999998
 45
0.00000001
 46
10.0
 73
     0
 74
     0
 77
     1
 78
     8
 79
     2
140
5.25
143
0.03937
146
0.4761904761904762
147
0.8000000000000001
171
     3
172
     1
176
     7
177
     7
178
     7
271
     1
274
     3
278
    44
284
     8
286
     8
340
D6
371
    25
372
    25
  0
DIMSTYLE
105
E2
330
A
100
AcDbSymbolTableRecord
100
AcDbDimStyleTableRecord
  2
KS-STANDARDBigText$7
 70
     0
 40
7.142857142857142
 41
5.0
 42
0.0
 43
12.0
 44
3.174999999999998
 45
0.00000001
 46
10.0
 73
     0
 74
     0
 77
     1
 78
     8
 79
     2
140
5.25
143
0.03937
146
0.4761904761904762
147
0.8000000000000001
171
     3
172
     1
176
     7
177
     7
178
     7
271
     1
274
     3
278
    44
284
     8
286
     8
340
D6
371
    25
372
    25
  0
DIMSTYLE
105
E3
102
{ACAD_REACTORS
330
3FC
330
4E7
330
5D1
330
6C1
330
7B7
330
8A1
330
991
330
AA0
330
B90
102
}
330
A
100
AcDbSymbolTableRecord
100
AcDbDimStyleTableRecord
  2
MarketingDrawing
 70
     0
 40
7.142857142857142
 41
4.0
 42
2.0
 43
12.0
 44
2.0
 45
0.00000001
 46
10.0
 78
     8
 79
     2
140
4.0
143
0.03937
146
0.625
147
1.0
171
     3
176
     7
177
     7
178
     7
271
     0
274
     3
278
    44
284
     8
286
     8
340
D8
371
    25
372
    25
  0
DIMSTYLE
105
E4
330
A
100
AcDbSymbolTableRecord
100
AcDbDimStyleTableRecord
  2
MarketingDrawing$7
 70
     0
 40
7.142857142857142
 41
5.0
 42
2.0
 43
12.0
 44
2.0
 45
0.00000001
 46
10.0
 78
     8
 79
     2
140
4.0
143
0.03937
146
0.625
147
1.0
171
     3
176
     7
177
     7
178
     7
271
     0
274
     3
278
    44
284
     8
286
     8
340
D8
371
    25
372
    25
  0
DIMSTYLE
105
EF
330
A
100
AcDbSymbolTableRecord
100
AcDbDimStyleTableRecord
  2
Leader-Datum(DIN)
 70
     0
 40
7.142857142857142
 41
2.5
340
60
342
F0
  0
DIMSTYLE
105
F7
330
A
100
AcDbSymbolTableRecord
100
AcDbDimStyleTableRecord
  2
Leader-Datum(ISO)
 70
     0
 40
7.142857142857142
 41
2.5
340
60
342
F0
  0
DIMSTYLE
105
F8
330
A
100
AcDbSymbolTableRecord
100
AcDbDimStyleTableRecord
  2
Leader-Dot(DIN)
 70
     0
 40
7.142857142857142
 41
2.5
340
60
342
F0
  0
DIMSTYLE
105
F9
330
A
100
AcDbSymbolTableRecord
100
AcDbDimStyleTableRecord
  2
Leader-Dot(ISO)
 70
     0
 40
7.142857142857142
 41
2.5
340
60
342
F0
  0
DIMSTYLE
105
FA
330
A
100
AcDbSymbolTableRecord
100
AcDbDimStyleTableRecord
  2
Leader-Large(DIN)
 70
     0
 40
7.142857142857142
 41
5.0
340
60
342
F0
  0
DIMSTYLE
105
FB
330
A
100
AcDbSymbolTableRecord
100
AcDbDimStyleTableRecord
  2
Leader-OriginIndicator(DIN)
 70
     0
 40
7.142857142857142
 41
2.5
340
60
342
F0
  0
DIMSTYLE
105
FC
330
A
100
AcDbSymbolTableRecord
100
AcDbDimStyleTableRecord
  2
Leader-OriginIndicator(ISO)
 70
     0
 40
7.142857142857142
 41
2.5
340
60
342
F0
  0
DIMSTYLE
105
FD
330
A
100
AcDbSymbolTableRecord
100
AcDbDimStyleTableRecord
  2
Leader(DIN)
 70
     0
 40
7.142857142857142
 41
2.5
340
60
342
F0
  0
DIMSTYLE
105
FE
330
A
100
AcDbSymbolTableRecord
100
AcDbDimStyleTableRecord
  2
Leader(ISO)
 70
     0
 40
7.142857142857142
 41
2.5
340
60
342
F0
  0
DIMSTYLE
105
DBF
102
{ACAD_REACTORS
330
DAE
102
}
330
A
100
AcDbSymbolTableRecord
100
AcDbDimStyleTableRecord
  2
AM_ISO
 70
     0
  4
"
 41
3.5
 42
1.0
 43
10.0
 44
1.0
 47
0.1
 48
0.1
 73
     0
 74
     0
 77
     1
 78
     8
 79
     2
140
3.5
141
0.0
143
0.0393701
146
0.71
147
1.5
172
     1
176
   256
177
   256
178
     2
271
     2
272
     3
274
     4
283
     0
284
     8
340
60
371
    -1
372
    -1
1001
ACAD_DSTYLE_DIMJAG
1070
   388
1040
1.5
1001
ACAD_DSTYLE_DIMBREAK
1070
   391
1040
3.75
1001
ACAD_DSTYLE_DIMARC_LENGTH_SYMBOL
1070
   379
1070
     1
1001
ACAD_DSTYLE_DIM_LINETYPE
1070
   380
1005
66
1001
ACAD_DSTYLE_DIM_EXT1_LINETYPE
1070
   381
1005
66
1001
ACAD_DSTYLE_DIM_EXT2_LINETYPE
1070
   382
1005
66
  0
DIMSTYLE
105
DCC
330
A
100
AcDbSymbolTableRecord
100
AcDbDimStyleTableRecord
  2
AM_ISO$3
 70
     0
  4
"
 41
3.5
 42
1.0
 43
10.0
 44
1.0
 47
0.1
 48
0.1
 73
     0
 77
     1
 78
     8
 79
     2
140
3.5
141
0.0
143
0.0393701
146
0.71
147
1.5
176
   256
177
   256
178
     2
271
     2
272
     3
274
     4
283
     0
284
     8
288
     1
289
     0
340
60
371
    -1
372
    -1
1001
ACAD_DSTYLE_DIMBREAK
1070
   391
1040
3.75
1001
ACAD_DSTYLE_DIMJAG
1070
   388
1040
1.5
1001
ACAD_DSTYLE_DIMARC_LENGTH_SYMBOL
1070
   379
1070
     1
1001
ACAD_DSTYLE_DIM_LINETYPE
1070
   380
1005
66
1001
ACAD_DSTYLE_DIM_EXT1_LINETYPE
1070
   381
1005
66
1001
ACAD_DSTYLE_DIM_EXT2_LINETYPE
1070
   382
1005
66
  0
DIMSTYLE
105
DCD
330
A
100
AcDbSymbolTableRecord
100
AcDbDimStyleTableRecord
  2
AM_ISO$4
 70
     0
  4
"
 41
3.5
 42
1.0
 43
10.0
 44
1.0
 47
0.1
 48
0.1
 73
     0
 77
     1
 78
     8
 79
     2
140
3.5
141
0.0
143
0.0393701
146
0.71
147
1.5
176
   256
177
   256
178
     2
271
     2
272
     3
274
     4
283
     0
284
     8
288
     1
289
     0
340
60
371
    -1
372
    -1
1001
ACAD_DSTYLE_DIMBREAK
1070
   391
1040
3.75
1001
ACAD_DSTYLE_DIMJAG
1070
   388
1040
1.5
1001
ACAD_DSTYLE_DIMARC_LENGTH_SYMBOL
1070
   379
1070
     1
1001
ACAD_DSTYLE_DIM_LINETYPE
1070
   380
1005
66
1001
ACAD_DSTYLE_DIM_EXT1_LINETYPE
1070
   381
1005
66
1001
ACAD_DSTYLE_DIM_EXT2_LINETYPE
1070
   382
1005
66
  0
DIMSTYLE
105
DCE
330
A
100
AcDbSymbolTableRecord
100
AcDbDimStyleTableRecord
  2
AM_ISO$6
 70
     0
  4
"
 41
3.5
 42
1.0
 43
10.0
 44
1.0
 47
0.1
 48
0.1
 73
     0
 74
     0
 78
     8
 79
     2
140
3.5
141
0.0
143
0.0393701
146
0.71
147
1.5
172
     1
176
   256
177
   256
178
     2
271
     2
272
     3
274
     4
283
     0
284
     8
340
60
371
    -1
372
    -1
1001
ACAD_DSTYLE_DIMBREAK
1070
   391
1040
3.75
1001
ACAD_DSTYLE_DIMJAG
1070
   388
1040
1.5
1001
ACAD_DSTYLE_DIMARC_LENGTH_SYMBOL
1070
   379
1070
     1
1001
ACAD_DSTYLE_DIM_LINETYPE
1070
   380
1005
66
1001
ACAD_DSTYLE_DIM_EXT1_LINETYPE
1070
   381
1005
66
1001
ACAD_DSTYLE_DIM_EXT2_LINETYPE
1070
   382
1005
66
  0
DIMSTYLE
105
DCF
330
A
100
AcDbSymbolTableRecord
100
AcDbDimStyleTableRecord
  2
AM_ISO$7
 70
     0
  4
"
 41
3.5
 42
1.0
 43
10.0
 44
1.0
 47
0.1
 48
0.1
 73
     0
 74
     0
 77
     1
 78
     8
 79
     2
140
3.5
141
0.0
143
0.0393701
146
0.71
147
1.5
172
     1
176
   256
177
   256
178
     2
271
     2
272
     3
274
     4
283
     0
284
     8
340
60
371
    -1
372
    -1
1001
ACAD_DSTYLE_DIMBREAK
1070
   391
1040
3.75
1001
ACAD_DSTYLE_DIMJAG
1070
   388
1040
1.5
1001
ACAD_DSTYLE_DIMARC_LENGTH_SYMBOL
1070
   379
1070
     1
1001
ACAD_DSTYLE_DIM_LINETYPE
1070
   380
1005
66
1001
ACAD_DSTYLE_DIM_EXT1_LINETYPE
1070
   381
1005
66
1001
ACAD_DSTYLE_DIM_EXT2_LINETYPE
1070
   382
1005
66
  0
DIMSTYLE
105
DD0
330
A
100
AcDbSymbolTableRecord
100
AcDbDimStyleTableRecord
  2
AM_ISO$SF
 70
     0
  4
"
 41
3.5
 42
1.0
 43
10.0
 44
1.0
 47
0.1
 48
0.1
 73
     0
 74
     0
 75
     1
 76
     1
 77
     1
 78
     8
 79
     2
140
3.5
141
0.0
143
0.0393701
146
0.71
147
1.5
172
     1
176
   256
177
   256
178
     2
271
     2
272
     3
274
     4
283
     0
284
     8
340
60
371
    -1
372
    -1
1001
ACAD_DSTYLE_DIMBREAK
1070
   391
1040
3.75
1001
ACAD_DSTYLE_DIMJAG
1070
   388
1040
1.5
1001
ACAD_DSTYLE_DIMARC_LENGTH_SYMBOL
1070
   379
1070
     1
1001
ACAD_DSTYLE_DIM_LINETYPE
1070
   380
1005
66
1001
ACAD_DSTYLE_DIM_EXT1_LINETYPE
1070
   381
1005
66
1001
ACAD_DSTYLE_DIM_EXT2_LINETYPE
1070
   382
1005
66
  0
DIMSTYLE
105
DD5
330
A
100
AcDbSymbolTableRecord
100
AcDbDimStyleTableRecord
  2
AM_ISO$SH
 70
     0
  4
"
 41
3.5
 42
1.0
 43
10.0
 44
1.0
 47
0.1
 48
0.1
 73
     0
 74
     0
 75
     1
 76
     1
 77
     1
 78
     8
 79
     2
140
3.5
141
0.0
143
0.0393701
144
2.0
146
0.71
147
1.5
172
     1
173
     1
176
   256
177
   256
178
     2
271
     2
272
     3
274
     4
283
     0
284
     8
340
60
343
DD1
371
    -1
372
    -1
1001
ACAD_DSTYLE_DIMBREAK
1070
   391
1040
3.75
1001
ACAD_DSTYLE_DIMJAG
1070
   388
1040
1.5
1001
ACAD_DSTYLE_DIMARC_LENGTH_SYMBOL
1070
   379
1070
     1
1001
ACAD_DSTYLE_DIM_LINETYPE
1070
   380
1005
66
1001
ACAD_DSTYLE_DIM_EXT1_LINETYPE
1070
   381
1005
66
1001
ACAD_DSTYLE_DIM_EXT2_LINETYPE
1070
   382
1005
66
  0
ENDTAB
  0
TABLE
  2
BLOCK_RECORD
  5
1
330
0
100
AcDbSymbolTable
 70
    22
  0
BLOCK_RECORD
  5
77
330
1
100
AcDbSymbolTableRecord
100
AcDbBlockTableRecord
  2
*Model_Space
340
7A
  0
BLOCK_RECORD
  5
73
330
1
100
AcDbSymbolTableRecord
100
AcDbBlockTableRecord
  2
*Paper_Space
340
76
  0
BLOCK_RECORD
  5
7B
330
1
100
AcDbSymbolTableRecord
100
AcDbBlockTableRecord
  2
*Paper_Space0
340
7E
  0
BLOCK_RECORD
  5
E5
330
1
100
AcDbSymbolTableRecord
100
AcDbBlockTableRecord
  2
DatumFilled45
340
0
  0
BLOCK_RECORD
  5
F0
330
1
100
AcDbSymbolTableRecord
100
AcDbBlockTableRecord
  2
_Closed
340
0
  0
BLOCK_RECORD
  5
FF
330
1
100
AcDbSymbolTableRecord
100
AcDbBlockTableRecord
  2
Index
340
0
  0
BLOCK_RECORD
  5
108
330
1
100
AcDbSymbolTableRecord
100
AcDbBlockTableRecord
  2
AIR
340
0
  0
BLOCK_RECORD
  5
115
330
1
100
AcDbSymbolTableRecord
100
AcDbBlockTableRecord
  2
Zertifizierungszeichnung
340
0
  0
BLOCK_RECORD
  5
11D
330
1
100
AcDbSymbolTableRecord
100
AcDbBlockTableRecord
  2
Pfeil 1_1
340
0
  0
BLOCK_RECORD
  5
12F
330
1
100
AcDbSymbolTableRecord
100
AcDbBlockTableRecord
  2
TWK 1_1
340
0
  0
BLOCK_RECORD
  5
13D
330
1
100
AcDbSymbolTableRecord
100
AcDbBlockTableRecord
  2
TWW 1_1
340
0
  0
BLOCK_RECORD
  5
14D
330
1
100
AcDbSymbolTableRecord
100
AcDbBlockTableRecord
  2
Title Blocks WS-Marketing-FUN
340
0
102
{BLKREFS
331
259
102
}
  0
BLOCK_RECORD
  5
26E
330
1
100
AcDbSymbolTableRecord
100
AcDbBlockTableRecord
  2
Borders Verkauf Border_85x80
340
0
102
{BLKREFS
331
279
102
}
  0
BLOCK_RECORD
  5
3FE
330
1
100
AcDbSymbolTableRecord
100
AcDbBlockTableRecord
  2
*D11
340
0
  0
BLOCK_RECORD
  5
4E8
330
1
100
AcDbSymbolTableRecord
100
AcDbBlockTableRecord
  2
*D12
340
0
  0
BLOCK_RECORD
  5
5D2
330
1
100
AcDbSymbolTableRecord
100
AcDbBlockTableRecord
  2
*D13
340
0
  0
BLOCK_RECORD
  5
6C2
330
1
100
AcDbSymbolTableRecord
100
AcDbBlockTableRecord
  2
*D14
340
0
  0
BLOCK_RECORD
  5
7B8
330
1
100
AcDbSymbolTableRecord
100
AcDbBlockTableRecord
  2
*D15
340
0
  0
BLOCK_RECORD
  5
8A2
330
1
100
AcDbSymbolTableRecord
100
AcDbBlockTableRecord
  2
*D16
340
0
  0
BLOCK_RECORD
  5
992
330
1
100
AcDbSymbolTableRecord
100
AcDbBlockTableRecord
  2
*D17
340
0
  0
BLOCK_RECORD
  5
AA1
330
1
100
AcDbSymbolTableRecord
100
AcDbBlockTableRecord
  2
*D18
340
0
  0
BLOCK_RECORD
  5
B91
330
1
100
AcDbSymbolTableRecord
100
AcDbBlockTableRecord
  2
*D19
340
0
  0
BLOCK_RECORD
  5
DD1
330
1
100
AcDbSymbolTableRecord
100
AcDbBlockTableRecord
  2
GENAXEH
340
0
  0
ENDTAB
  0
ENDSEC
  0
SECTION
  2
BLOCKS
  0
BLOCK
  5
78
330
77
100
AcDbEntity
  8
0
100
AcDbBlockBegin
  2
*Model_Space
 70
     0
 10
0.0
 20
0.0
 30
0.0
  3
*Model_Space
  1

  0
ENDBLK
  5
79
330
77
100
AcDbEntity
  8
0
100
AcDbBlockEnd
  0
BLOCK
  5
74
330
73
100
AcDbEntity
 67
     1
  8
0
100
AcDbBlockBegin
  2
*Paper_Space
 70
     0
 10
0.0
 20
0.0
 30
0.0
  3
*Paper_Space
  1

  0
ENDBLK
  5
75
330
73
100
AcDbEntity
 67
     1
  8
0
100
AcDbBlockEnd
  0
BLOCK
  5
7C
330
7B
100
AcDbEntity
 67
     1
  8
0
100
AcDbBlockBegin
  2
*Paper_Space0
 70
     0
 10
0.0
 20
0.0
 30
0.0
  3
*Paper_Space0
  1

  0
ENDBLK
  5
7D
330
7B
100
AcDbEntity
 67
     1
  8
0
100
AcDbBlockEnd
  0
BLOCK
  5
E6
330
E5
100
AcDbEntity
  8
0
100
AcDbBlockBegin
  2
DatumFilled45
 70
     0
 10
0.0
 20
0.0
 30
0.0
  3
DatumFilled45
  1

  0
POLYLINE
  5
E8
330
E5
100
AcDbEntity
  8
0
 62
     0
100
AcDb2dPolyline
 66
     1
 10
0.0
 20
0.0
 30
0.0
 70
   128
  0
VERTEX
  5
E9
330
E8
100
AcDbEntity
  8
0
 62
     0
100
AcDbVertex
100
AcDb2dVertex
 10
0.0
 20
1.0
 30
0.0
  0
VERTEX
  5
EA
330
E8
100
AcDbEntity
  8
0
 62
     0
100
AcDbVertex
100
AcDb2dVertex
 10
0.0
 20
-1.0
 30
0.0
  0
VERTEX
  5
EC
330
E8
100
AcDbEntity
  8
0
 62
     0
100
AcDbVertex
100
AcDb2dVertex
 10
-1.0
 20
0.0
 30
0.0
  0
VERTEX
  5
ED
330
E8
100
AcDbEntity
  8
0
 62
     0
100
AcDbVertex
100
AcDb2dVertex
 10
0.0
 20
1.0
 30
0.0
  0
SEQEND
  5
EB
330
E8
100
AcDbEntity
  8
0
 62
     0
  0
SOLID
  5
EE
330
E5
100
AcDbEntity
  8
0
 62
     0
100
AcDbTrace
 10
0.0
 20
1.0
 30
0.0
 11
0.0
 21
-1.0
 31
0.0
 12
-1.0
 22
0.0
 32
0.0
 13
0.0
 23
1.0
 33
0.0
  0
ENDBLK
  5
E7
330
E5
100
AcDbEntity
  8
0
100
AcDbBlockEnd
  0
BLOCK
  5
F5
330
F0
100
AcDbEntity
  8
0
100
AcDbBlockBegin
  2
_Closed
 70
     0
 10
0.0
 20
0.0
 30
0.0
  3
_Closed
  1

  0
LINE
  5
F1
330
F0
100
AcDbEntity
  8
0
  6
ByBlock
 62
     0
370
    -2
100
AcDbLine
 10
-1.0
 20
0.1666666666666666
 30
0.0
 11
0.0
 21
0.0
 31
0.0
  0
LINE
  5
F2
330
F0
100
AcDbEntity
  8
0
  6
ByBlock
 62
     0
370
    -2
100
AcDbLine
 10
0.0
 20
0.0
 30
0.0
 11
-1.0
 21
-0.1666666666666666
 31
0.0
  0
LINE
  5
F3
330
F0
100
AcDbEntity
  8
0
  6
ByBlock
 62
     0
370
    -2
100
AcDbLine
 10
-1.0
 20
0.1666666666666666
 30
0.0
 11
-1.0
 21
-0.1666666666666666
 31
0.0
  0
LINE
  5
F4
330
F0
100
AcDbEntity
  8
0
  6
ByBlock
 62
     0
370
    -2
100
AcDbLine
 10
0.0
 20
0.0
 30
0.0
 11
-1.0
 21
0.0
 31
0.0
  0
ENDBLK
  5
F6
330
F0
100
AcDbEntity
  8
0
100
AcDbBlockEnd
  0
BLOCK
  5
100
330
FF
100
AcDbEntity
  8
0
100
AcDbBlockBegin
  2
Index
 70
     2
 10
0.0
 20
0.0
 30
0.0
  3
Index
  1

  0
CIRCLE
  5
102
330
FF
100
AcDbEntity
  8
Sketch Geometry(ISO)
  6
Continuous
 62
     7
370
    25
100
AcDbCircle
 10
0.0
 20
0.0
 30
0.0
 40
2.5
  0
ATTDEF
  5
104
102
{ACAD_XDICTIONARY
360
C9E
102
}
330
FF
100
AcDbEntity
  8
Symbols(ISO)
 62
     7
100
AcDbText
 10
-0.0000000000000001
 20
-1.25
 30
0.0
 40
2.5
  1

 41
0.899999976158142
  7
Text Style49
 72
     1
 11
0.0
 21
0.0
 31
0.0
100
AcDbAttributeDefinition
  3
<Enter Prompt for Field>
  2
<Enter_Prompt_for_Field>
 70
     0
 74
     2
  0
ENDBLK
  5
101
330
FF
100
AcDbEntity
  8
0
100
AcDbBlockEnd
  0
BLOCK
  5
109
330
108
100
AcDbEntity
  8
0
100
AcDbBlockBegin
  2
AIR
 70
     0
 10
0.0
 20
0.0
 30
0.0
  3
AIR
  1

  0
LINE
  5
10B
330
108
100
AcDbEntity
  8
Sketch Geometry(ISO)
 62
     7
370
    70
100
AcDbLine
 10
-7.0
 20
6.000000000000048
 30
0.0
 11
6.999999999999992
 21
6.000000000000013
 31
0.0
  0
LINE
  5
10C
330
108
100
AcDbEntity
  8
Sketch Geometry(ISO)
 62
     7
370
    70
100
AcDbLine
 10
10.00000000000001
 20
3.000000000000006
 30
0.0
 11
10.00000000000001
 21
-2.999999999999971
 31
0.0
  0
LINE
  5
10D
330
108
100
AcDbEntity
  8
Sketch Geometry(ISO)
 62
     7
370
    70
100
AcDbLine
 10
6.999999999999992
 20
-5.999999999999976
 30
0.0
 11
-7.0
 21
-6.000000000000013
 31
0.0
  0
LINE
  5
10E
330
108
100
AcDbEntity
  8
Sketch Geometry(ISO)
 62
     7
370
    70
100
AcDbLine
 10
-10.00000000000001
 20
-2.999999999999971
 30
0.0
 11
-10.0
 21
3.000000000000006
 31
0.0
  0
ARC
  5
10F
330
108
100
AcDbEntity
  8
Sketch Geometry(ISO)
 62
     7
370
    70
100
AcDbCircle
 10
6.999999999999992
 20
3.000000000000006
 30
0.0
 40
3.0
100
AcDbArc
 50
0.0
 51
90.0
  0
ARC
  5
110
330
108
100
AcDbEntity
  8
Sketch Geometry(ISO)
 62
     7
370
    70
100
AcDbCircle
 10
6.999999999999992
 20
-2.999999999999971
 30
0.0
 40
3.0
100
AcDbArc
 50
270.0
 51
0.0
  0
ARC
  5
111
330
108
100
AcDbEntity
  8
Sketch Geometry(ISO)
 62
     7
370
    70
100
AcDbCircle
 10
-7.0
 20
-2.999999999999971
 30
0.0
 40
3.0
100
AcDbArc
 50
180.0
 51
270.0
  0
ARC
  5
112
330
108
100
AcDbEntity
  8
Sketch Geometry(ISO)
 62
     7
370
    70
100
AcDbCircle
 10
-7.0
 20
3.000000000000006
 30
0.0
 40
3.0
100
AcDbArc
 50
90.0
 51
180.0
  0
MTEXT
  5
113
330
108
100
AcDbEntity
  8
Symbols(ISO)
 62
     7
100
AcDbMText
 10
0.0
 20
0.0
 30
0.0
 40
6.99999988079071
 41
16.10195276430038
 71
     5
 72
     1
  1
\fArial|b0|i0;\H7.0000;AIR
  7
Text__3.5mm
 73
     1
 44
1.0
  0
ENDBLK
  5
10A
330
108
100
AcDbEntity
  8
0
100
AcDbBlockEnd
  0
BLOCK
  5
116
330
115
100
AcDbEntity
  8
0
100
AcDbBlockBegin
  2
Zertifizierungszeichnung
 70
     0
 10
0.0
 20
0.0
 30
0.0
  3
Zertifizierungszeichnung
  1

  0
LINE
  5
118
330
115
100
AcDbEntity
  8
Sketch Geometry(ISO)
100
AcDbLine
 10
-36.13491376407675
 20
6.581399957023617
 30
0.0
 11
36.13491376407676
 21
6.581399957023617
 31
0.0
  0
LINE
  5
119
330
115
100
AcDbEntity
  8
Sketch Geometry(ISO)
100
AcDbLine
 10
36.13491376407676
 20
6.581399957023617
 30
0.0
 11
36.13491376407676
 21
-6.581399957023633
 31
0.0
  0
LINE
  5
11A
330
115
100
AcDbEntity
  8
Sketch Geometry(ISO)
100
AcDbLine
 10
36.13491376407676
 20
-6.581399957023633
 30
0.0
 11
-36.13491376407675
 21
-6.581399957023633
 31
0.0
  0
LINE
  5
11B
330
115
100
AcDbEntity
  8
Sketch Geometry(ISO)
100
AcDbLine
 10
-36.13491376407675
 20
-6.581399957023633
 30
0.0
 11
-36.13491376407675
 21
6.581399957023617
 31
0.0
  0
MTEXT
  5
11C
330
115
100
AcDbEntity
  8
Symbols(ISO)
 62
     7
100
AcDbMText
 10
-34.13997890763035
 20
-0.338671892615654
 30
0.0
 40
3.000000119209288
 41
0.0
 71
     4
 72
     1
  1
\fTahoma|b0|i0;\H3.0000;Drawing for certification purposes only!\PDrawing not for manufacturing purposes!
  7
Text__3.5mm
 73
     2
 44
0.9442214369773862
  0
ENDBLK
  5
117
330
115
100
AcDbEntity
  8
0
100
AcDbBlockEnd
  0
BLOCK
  5
11E
330
11D
100
AcDbEntity
  8
0
100
AcDbBlockBegin
  2
Pfeil 1_1
 70
     0
 10
0.0
 20
0.0
 30
0.0
  3
Pfeil 1_1
  1

  0
HATCH
  5
127
330
11D
100
AcDbEntity
  8
Hatch
100
AcDbHatch
 10
0.0
 20
0.0
 30
0.0
210
0.0
220
0.0
230
1.0
  2
ANSI31
 70
     0
 71
     0
 91
        1
 92
        1
 93
        7
 72
     1
 10
-2.327499999999814
 20
0.6650000000002621
 11
0.0
 21
-2.659999999999874
 72
     1
 10
0.0
 20
-2.659999999999874
 11
2.327499999999833
 21
0.6650000000002621
 72
     1
 10
2.327499999999833
 20
0.6650000000002621
 11
0.6649999999998713
 21
0.6650000000002621
 72
     1
 10
0.6649999999998713
 20
0.6650000000002621
 11
0.6649999999998713
 21
2.659999999999858
 72
     1
 10
0.6649999999998713
 20
2.659999999999858
 11
-0.6649999999999779
 21
2.659999999999858
 72
     1
 10
-0.664999999999978
 20
2.659999999999858
 11
-0.664999999999978
 21
0.6650000000002621
 72
     1
 10
-0.664999999999978
 20
0.6650000000002621
 11
-2.327499999999814
 21
0.6650000000002621
 97
        0
 75
     0
 76
     1
 52
0.0
 41
0.0254
 77
     0
 78
     1
 53
45.0
 43
0.0
 44
0.0
 45
-0.0022450640302673
 46
0.0022450640302673
 79
     0
 98
        1
 10
0.0
 20
0.0
  0
LINE
  5
128
330
11D
100
AcDbEntity
  8
MaSichtkante dünnFliese
370
     5
100
AcDbLine
 10
-2.327499999999814
 20
0.6650000000002621
 30
0.0
 11
-0.664999999999978
 21
0.6650000000002621
 31
0.0
  0
LINE
  5
129
330
11D
100
AcDbEntity
  8
MaSichtkante dünnFliese
370
     5
100
AcDbLine
 10
0.0
 20
-2.659999999999874
 30
0.0
 11
-2.327499999999814
 21
0.6650000000002621
 31
0.0
  0
LINE
  5
12A
330
11D
100
AcDbEntity
  8
MaSichtkante dünnFliese
370
     5
100
AcDbLine
 10
-0.664999999999978
 20
0.6650000000002621
 30
0.0
 11
-0.664999999999978
 21
2.659999999999858
 31
0.0
  0
LINE
  5
12B
330
11D
100
AcDbEntity
  8
MaSichtkante dünnFliese
370
     5
100
AcDbLine
 10
-0.664999999999978
 20
2.659999999999858
 30
0.0
 11
0.6649999999998713
 21
2.659999999999858
 31
0.0
  0
LINE
  5
12C
330
11D
100
AcDbEntity
  8
MaSichtkante dünnFliese
370
     5
100
AcDbLine
 10
0.6649999999998713
 20
2.659999999999858
 30
0.0
 11
0.6649999999998713
 21
0.6650000000002621
 31
0.0
  0
LINE
  5
12D
330
11D
100
AcDbEntity
  8
MaSichtkante dünnFliese
370
     5
100
AcDbLine
 10
2.327499999999833
 20
0.6650000000002621
 30
0.0
 11
0.0
 21
-2.659999999999874
 31
0.0
  0
LINE
  5
12E
330
11D
100
AcDbEntity
  8
MaSichtkante dünnFliese
370
     5
100
AcDbLine
 10
0.6649999999998713
 20
0.6650000000002621
 30
0.0
 11
2.327499999999833
 21
0.6650000000002621
 31
0.0
  0
ENDBLK
  5
11F
330
11D
100
AcDbEntity
  8
0
100
AcDbBlockEnd
  0
BLOCK
  5
130
330
12F
100
AcDbEntity
  8
0
100
AcDbBlockBegin
  2
TWK 1_1
 70
     0
 10
0.0
 20
0.0
 30
0.0
  3
TWK 1_1
  1

  0
HATCH
  5
134
330
12F
100
AcDbEntity
  8
Hatch
100
AcDbHatch
 10
0.0
 20
0.0
 30
0.0
210
0.0
220
0.0
230
1.0
  2
ANSI31
 70
     0
 71
     0
 91
        1
 92
        1
 93
        2
 72
     2
 10
0.0
 20
-3.324999949999316
 40
2.659999999999999
 50
148.4507563219768
 51
391.549243678031
 73
     1
 72
     1
 10
2.266827476457925
 20
-1.933204996720494
 11
-2.2668274764586
 21
-1.933204996720494
 97
        0
 75
     0
 76
     1
 52
0.0
 41
0.0254
 77
     0
 78
     1
 53
45.0
 43
0.0
 44
0.0
 45
-0.0022450640302673
 46
0.0022450640302673
 79
     0
 98
        1
 10
0.0
 20
0.0
  0
LINE
  5
135
330
12F
100
AcDbEntity
  8
MaSichtkante dünnFliese
100
AcDbLine
 10
-2.266827476458601
 20
-1.933204996720494
 30
0.0
 11
2.266827476457925
 21
-1.933204996720494
 31
0.0
  0
ARC
  5
136
330
12F
100
AcDbEntity
  8
MaSichtkante dünnFliese
100
AcDbCircle
 10
0.0
 20
-3.324999949999316
 30
0.0
 40
2.66
100
AcDbArc
 50
112.0243128370458
 51
67.97568716296805
  0
LINE
  5
137
330
12F
100
AcDbEntity
  8
MaSichtkante dünnFliese
100
AcDbLine
 10
-0.9975000000001619
 20
-0.8591139530400582
 30
0.0
 11
-0.9975000000001619
 21
5.985000049999325
 31
0.0
  0
LINE
  5
138
330
12F
100
AcDbEntity
  8
MaSichtkante dünnFliese
100
AcDbLine
 10
0.9974999999994691
 20
5.985000049999325
 30
0.0
 11
0.9974999999994691
 21
-0.8591139530400582
 31
0.0
  0
LINE
  5
139
330
12F
100
AcDbEntity
  8
MaSichtkante dünnFliese
100
AcDbLine
 10
0.9974999999994873
 20
2.827327836441567
 30
0.0
 11
2.194499999999254
 21
2.827327836441567
 31
0.0
  0
LINE
  5
13A
330
12F
100
AcDbEntity
  8
MaSichtkante dünnFliese
100
AcDbLine
 10
-0.9975000000001619
 20
5.985000049999325
 30
0.0
 11
0.9974999999994691
 21
5.985000049999325
 31
0.0
  0
LINE
  5
13B
330
12F
100
AcDbEntity
  8
MaSichtkante dünnFliese
100
AcDbLine
 10
0.9974999999994691
 20
4.932451836441167
 30
0.0
 11
2.194499999999236
 21
4.932451836441167
 31
0.0
  0
LINE
  5
13C
330
12F
100
AcDbEntity
  8
MaSichtkante dünnFliese
100
AcDbLine
 10
0.9974999999994691
 20
0.7222038364418637
 30
0.0
 11
2.194499999999236
 21
0.7222038364418637
 31
0.0
  0
ENDBLK
  5
131
330
12F
100
AcDbEntity
  8
0
100
AcDbBlockEnd
  0
BLOCK
  5
13E
330
13D
100
AcDbEntity
  8
0
100
AcDbBlockBegin
  2
TWW 1_1
 70
     0
 10
0.0
 20
0.0
 30
0.0
  3
TWW 1_1
  1

  0
HATCH
  5
144
330
13D
100
AcDbEntity
  8
Hatch
100
AcDbHatch
 10
0.0
 20
0.0
 30
0.0
210
0.0
220
0.0
230
1.0
  2
ANSI31
 70
     0
 71
     0
 91
        1
 92
        1
 93
        4
 72
     1
 10
0.9974999999997892
 20
4.796219377687264
 11
-0.9975000000000909
 21
4.796219377687264
 72
     1
 10
-0.9975000000000909
 20
4.796219377687264
 11
-0.9975000000000909
 21
-0.8591139530402891
 72
     2
 10
0.0
 20
-3.324999950000062
 40
2.659999999999827
 50
112.0243128370404
 51
427.9756871629659
 73
     1
 72
     1
 10
0.9974999999997892
 20
-0.8591139530402891
 11
0.9974999999997892
 21
4.796219377687264
 97
        0
 75
     0
 76
     1
 52
0.0
 41
0.0254
 77
     0
 78
     1
 53
45.0
 43
0.0
 44
0.0
 45
-0.0022450640302673
 46
0.0022450640302673
 79
     0
 98
        1
 10
0.0
 20
0.0
  0
LINE
  5
145
330
13D
100
AcDbEntity
  8
MaSichtkante dünnFliese
370
    18
100
AcDbLine
 10
0.9974999999997892
 20
4.893283779707643
 30
0.0
 11
2.194499999999734
 21
4.893283779707643
 31
0.0
  0
LINE
  5
146
330
13D
100
AcDbEntity
  8
MaSichtkante dünnFliese
370
    18
100
AcDbLine
 10
0.9974999999997892
 20
0.8330332774134241
 30
0.0
 11
2.194499999999734
 21
0.8330332774134241
 31
0.0
  0
LINE
  5
147
330
13D
100
AcDbEntity
  8
MaSichtkante dünnFliese
370
    18
100
AcDbLine
 10
0.9974999999997892
 20
2.863158528560525
 30
0.0
 11
2.194499999999734
 21
2.863158528560525
 31
0.0
  0
LINE
  5
148
330
13D
100
AcDbEntity
  8
Sketch Geometry(DIN)
370
    18
100
AcDbLine
 10
0.9974999999997892
 20
5.98500004999991
 30
0.0
 11
0.9974999999997892
 21
-0.8591139530402891
 31
0.0
  0
LINE
  5
149
330
13D
100
AcDbEntity
  8
MaSichtkante dünnFliese
100
AcDbLine
 10
-0.9975000000000909
 20
5.98500004999991
 30
0.0
 11
0.9974999999997892
 21
5.98500004999991
 31
0.0
  0
LINE
  5
14A
330
13D
100
AcDbEntity
  8
MaSichtkante dünnFliese
100
AcDbLine
 10
-0.9975000000000909
 20
-0.8591139530402891
 30
0.0
 11
-0.9975000000000909
 21
5.98500004999991
 31
0.0
  0
LINE
  5
14B
330
13D
100
AcDbEntity
  8
MaSichtkante dünnFliese
370
    18
100
AcDbLine
 10
-0.9975000000000909
 20
4.796219377687264
 30
0.0
 11
0.9974999999997892
 21
4.796219377687264
 31
0.0
  0
ARC
  5
14C
330
13D
100
AcDbEntity
  8
MaSichtkante dünnFliese
370
    18
100
AcDbCircle
 10
0.0
 20
-3.324999950000062
 30
0.0
 40
2.659999999999829
100
AcDbArc
 50
112.0243128370402
 51
67.9756871629658
  0
ENDBLK
  5
13F
330
13D
100
AcDbEntity
  8
0
100
AcDbBlockEnd
  0
BLOCK
  5
14E
330
14D
100
AcDbEntity
  8
0
100
AcDbBlockBegin
  2
Title Blocks WS-Marketing-FUN
 70
     2
 10
0.0
 20
0.0
 30
0.0
  3
Title Blocks WS-Marketing-FUN
  1

  0
LINE
  5
150
330
14D
100
AcDbEntity
  8
Visible Edges(DIN)
100
AcDbLine
 10
89.59999999999997
 20
100.2741925130958
 30
0.0
 11
289.6
 21
100.2741925130958
 31
0.0
  0
LINE
  5
151
330
14D
100
AcDbEntity
  8
Visible Edges(DIN)
100
AcDbLine
 10
289.6
 20
100.2741925130958
 30
0.0
 11
289.6
 21
146.0241925130958
 31
0.0
  0
LINE
  5
152
330
14D
100
AcDbEntity
  8
Visible Edges(DIN)
100
AcDbLine
 10
289.6
 20
146.0241925130958
 30
0.0
 11
89.59999999999999
 21
146.0241925130958
 31
0.0
  0
LINE
  5
153
330
14D
100
AcDbEntity
  8
Visible Edges(DIN)
100
AcDbLine
 10
89.59999999999999
 20
146.0241925130958
 30
0.0
 11
89.59999999999997
 21
100.2741925130958
 31
0.0
  0
LINE
  5
154
330
14D
100
AcDbEntity
  8
Visible Edges(DIN)
100
AcDbLine
 10
154.6
 20
100.2741925130958
 30
0.0
 11
154.6
 21
146.0241925130958
 31
0.0
  0
LINE
  5
155
330
14D
100
AcDbEntity
  8
Visible Edges(DIN)
100
AcDbLine
 10
204.6
 20
100.2741925130958
 30
0.0
 11
204.6
 21
146.0241925130958
 31
0.0
  0
LINE
  5
156
330
14D
100
AcDbEntity
  8
Sketch Geometry(ISO)
  6
Continuous
 62
     7
370
    25
100
AcDbLine
 10
109.6
 20
131.0241925130958
 30
0.0
 11
109.6
 21
146.0241925130958
 31
0.0
  0
LINE
  5
157
330
14D
100
AcDbEntity
  8
Sketch Geometry(ISO)
  6
Continuous
 62
     7
370
    25
100
AcDbLine
 10
89.59999999999999
 20
138.5241925130958
 30
0.0
 11
154.6
 21
138.5241925130958
 31
0.0
  0
LINE
  5
158
330
14D
100
AcDbEntity
  8
Sketch Geometry(ISO)
  6
Continuous
 62
     7
370
    25
100
AcDbLine
 10
89.59999999999999
 20
131.0241925130958
 30
0.0
 11
154.6
 21
131.0241925130958
 31
0.0
  0
LINE
  5
159
330
14D
100
AcDbEntity
  8
Sketch Geometry(ISO)
  6
Continuous
 62
     7
370
    25
100
AcDbLine
 10
289.6
 20
110.2741925130957
 30
0.0
 11
204.6
 21
110.2741925130957
 31
0.0
  0
LINE
  5
15A
330
14D
100
AcDbEntity
  8
Sketch Geometry(ISO)
  6
Continuous
 62
     7
370
    25
100
AcDbLine
 10
216.6
 20
100.2741925130958
 30
0.0
 11
216.6
 21
110.2741925130957
 31
0.0
  0
LINE
  5
15B
330
14D
100
AcDbEntity
  8
Sketch Geometry(ISO)
  6
Continuous
 62
     7
370
    25
100
AcDbLine
 10
282.1
 20
110.2741925130957
 30
0.0
 11
282.1
 21
100.2741925130958
 31
0.0
  0
LINE
  5
15C
330
14D
100
AcDbEntity
  8
Sketch Geometry(ISO)
  6
Continuous
 62
     7
370
    25
100
AcDbLine
 10
274.6
 20
110.2741925130957
 30
0.0
 11
274.6
 21
100.2741925130958
 31
0.0
  0
LINE
  5
15D
330
14D
100
AcDbEntity
  8
Sketch Geometry(ISO)
  6
Continuous
 62
     7
370
    25
100
AcDbLine
 10
220.7048524866916
 20
143.6616925130957
 30
0.0
 11
226.2048524866916
 21
144.4616925130956
 31
0.0
  0
LINE
  5
15E
330
14D
100
AcDbEntity
  8
Centerline(ISO)
  6
Continuous
 62
     7
370
    18
100
AcDbLine
 10
227.2048524866917
 20
142.4616925130957
 30
0.0
 11
219.7048524866915
 21
142.4616925130957
 31
0.0
  0
LINE
  5
15F
330
14D
100
AcDbEntity
  8
Sketch Geometry(ISO)
  6
Continuous
 62
     7
370
    25
100
AcDbLine
 10
220.7048524866916
 20
143.6616925130957
 30
0.0
 11
220.7048524866916
 21
141.2616925130957
 31
0.0
  0
LINE
  5
160
330
14D
100
AcDbEntity
  8
Sketch Geometry(ISO)
  6
Continuous
 62
     7
370
    25
100
AcDbLine
 10
220.7048524866916
 20
141.2616925130957
 30
0.0
 11
226.2048524866916
 21
140.4616925130957
 31
0.0
  0
LINE
  5
161
330
14D
100
AcDbEntity
  8
Centerline(ISO)
  6
Continuous
 62
     7
370
    18
100
AcDbLine
 10
227.7048524866915
 20
142.4616925130957
 30
0.0
 11
233.7048524866915
 21
142.4616925130957
 31
0.0
  0
LINE
  5
162
330
14D
100
AcDbEntity
  8
Sketch Geometry(ISO)
  6
Continuous
 62
     7
370
    25
100
AcDbLine
 10
226.2048524866916
 20
144.4616925130956
 30
0.0
 11
226.2048524866916
 21
140.4616925130957
 31
0.0
  0
CIRCLE
  5
163
330
14D
100
AcDbEntity
  8
Sketch Geometry(ISO)
  6
Continuous
 62
     7
370
    25
100
AcDbCircle
 10
230.7048524866915
 20
142.4616925130957
 30
0.0
 40
1.199999999999999
  0
LINE
  5
164
330
14D
100
AcDbEntity
  8
Centerline(ISO)
  6
Continuous
 62
     7
370
    18
100
AcDbLine
 10
230.7048524866914
 20
145.4616925130956
 30
0.0
 11
230.7048524866914
 21
139.4616925130957
 31
0.0
  0
CIRCLE
  5
165
330
14D
100
AcDbEntity
  8
Sketch Geometry(ISO)
  6
Continuous
 62
     7
370
    25
100
AcDbCircle
 10
230.7048524866915
 20
142.4616925130957
 30
0.0
 40
2.0
  0
LINE
  5
166
330
14D
100
AcDbEntity
  8
Sketch Geometry(ISO)
  6
Continuous
 62
     7
370
    25
100
AcDbLine
 10
134.6
 20
131.0241925130958
 30
0.0
 11
134.6
 21
146.0241925130958
 31
0.0
  0
LINE
  5
167
330
14D
100
AcDbEntity
  8
Sketch Geometry(ISO)
  6
Continuous
 62
     7
370
    35
100
AcDbLine
 10
204.6
 20
138.5241925130958
 30
0.0
 11
289.6
 21
138.5241925130958
 31
0.0
  0
LINE
  5
168
330
14D
100
AcDbEntity
  8
Sketch Geometry(ISO)
  6
Continuous
 62
     7
370
    25
100
AcDbLine
 10
204.6
 20
131.0241925130958
 30
0.0
 11
289.6
 21
131.0241925130958
 31
0.0
  0
LINE
  5
169
330
14D
100
AcDbEntity
  8
Sketch Geometry(ISO)
  6
Continuous
 62
     7
370
    25
100
AcDbLine
 10
247.1
 20
146.0241925130956
 30
0.0
 11
247.1
 21
131.0241925130958
 31
0.0
  0
LINE
  5
16A
330
14D
100
AcDbEntity
  8
Sketch Geometry(ISO)
  6
Continuous
 62
     7
370
    25
100
AcDbLine
 10
263.6
 20
110.2741925130957
 30
0.0
 11
263.6
 21
100.2741925130958
 31
0.0
  0
LINE
  5
16B
330
14D
100
AcDbEntity
  8
Sketch Geometry(DIN)
  6
Continuous
 62
     7
370
    18
100
AcDbLine
 10
104.8419687591776
 20
126.4474596613701
 30
0.0
 11
104.708542955785
 21
126.4474596613701
 31
0.0
  0
LINE
  5
16C
330
14D
100
AcDbEntity
  8
Sketch Geometry(DIN)
  6
Continuous
 62
     7
370
    18
100
AcDbLine
 10
104.8419687591776
 20
125.9871380380973
 30
0.0
 11
104.8419687591776
 21
126.4474596613701
 31
0.0
  0
LINE
  5
16D
330
14D
100
AcDbEntity
  8
Sketch Geometry(DIN)
  6
Continuous
 62
     7
370
    18
100
AcDbLine
 10
105.032169470591
 20
126.4492027126165
 30
0.0
 11
105.032169470591
 21
125.9888377298602
 31
0.0
  0
LINE
  5
16E
330
14D
100
AcDbEntity
  8
Sketch Geometry(DIN)
  6
Continuous
 62
     7
370
    18
100
AcDbLine
 10
106.9469156010504
 20
125.9888377298602
 30
0.0
 11
106.9469156010504
 21
126.6493414177054
 31
0.0
  0
LINE
  5
16F
330
14D
100
AcDbEntity
  8
Sketch Geometry(DIN)
  6
Continuous
 62
     7
370
    18
100
AcDbLine
 10
105.032169470591
 20
125.9888377298602
 30
0.0
 11
106.9469156010504
 21
125.9888377298602
 31
0.0
  0
LINE
  5
170
330
14D
100
AcDbEntity
  8
Sketch Geometry(DIN)
  6
Continuous
 62
     7
370
    18
100
AcDbLine
 10
102.420185497654
 20
128.0753567911394
 30
0.0
 11
102.420185497654
 21
127.6550386275736
 31
0.0
  0
LINE
  5
171
330
14D
100
AcDbEntity
  8
Sketch Geometry(DIN)
  6
Continuous
 62
     7
370
    18
100
AcDbLine
 10
103.5743629236721
 20
128.0753567911394
 30
0.0
 11
102.420185497654
 21
128.0753567911394
 31
0.0
  0
LINE
  5
172
330
14D
100
AcDbEntity
  8
Sketch Geometry(DIN)
  6
Continuous
 62
     7
370
    18
100
AcDbLine
 10
103.4275910711816
 20
127.1946823167133
 30
0.0
 11
103.4275910711816
 21
127.6550386275736
 31
0.0
  0
LINE
  5
173
330
14D
100
AcDbEntity
  8
Sketch Geometry(DIN)
  6
Continuous
 62
     7
370
    18
100
AcDbLine
 10
103.4275910711816
 20
127.6550386275736
 30
0.0
 11
103.5743629236721
 21
127.6550386275736
 31
0.0
  0
LINE
  5
174
330
14D
100
AcDbEntity
  8
Sketch Geometry(DIN)
  6
Continuous
 62
     7
370
    18
100
AcDbLine
 10
103.5743629236721
 20
127.6550386275736
 30
0.0
 11
103.5743629236721
 21
128.0753567911394
 31
0.0
  0
LINE
  5
175
330
14D
100
AcDbEntity
  8
Sketch Geometry(DIN)
  6
Continuous
 62
     7
370
    18
100
AcDbLine
 10
103.7344894971573
 20
128.0753567911394
 30
0.0
 11
103.7344894971573
 21
127.6550386275736
 31
0.0
  0
LINE
  5
176
330
14D
100
AcDbEntity
  8
Sketch Geometry(DIN)
  6
Continuous
 62
     7
370
    18
100
AcDbLine
 10
103.8679153005499
 20
127.6550386275736
 30
0.0
 11
103.4275910711816
 21
127.1946823167133
 31
0.0
  0
LINE
  5
177
330
14D
100
AcDbEntity
  8
Sketch Geometry(DIN)
  6
Continuous
 62
     7
370
    18
100
AcDbLine
 10
103.7344894971573
 20
127.6550386275736
 30
0.0
 11
103.8679153005499
 21
127.6550386275736
 31
0.0
  0
LINE
  5
178
330
14D
100
AcDbEntity
  8
Sketch Geometry(DIN)
  6
Continuous
 62
     7
370
    18
100
AcDbLine
 10
104.0880947590273
 20
127.1813622833059
 30
0.0
 11
104.541765037493
 21
127.6616986442773
 31
0.0
  0
LINE
  5
179
330
14D
100
AcDbEntity
  8
Sketch Geometry(DIN)
  6
Continuous
 62
     7
370
    18
100
AcDbLine
 10
104.541765037493
 20
127.6616986442773
 30
0.0
 11
104.7152029724891
 21
127.6616986442773
 31
0.0
  0
LINE
  5
17A
330
14D
100
AcDbEntity
  8
Sketch Geometry(DIN)
  6
Continuous
 62
     7
370
    18
100
AcDbLine
 10
104.7152029724891
 20
127.6616986442773
 30
0.0
 11
104.7152029724891
 21
128.0753567911394
 31
0.0
  0
LINE
  5
17B
330
14D
100
AcDbEntity
  8
Sketch Geometry(DIN)
  6
Continuous
 62
     7
370
    18
100
AcDbLine
 10
104.7152029724891
 20
128.0753567911394
 30
0.0
 11
103.7344894971573
 21
128.0753567911394
 31
0.0
  0
LINE
  5
17C
330
14D
100
AcDbEntity
  8
Sketch Geometry(DIN)
  6
Continuous
 62
     7
370
    18
100
AcDbLine
 10
106.466544552492
 20
126.8695208761829
 30
0.0
 11
106.466544552492
 21
127.2230827785689
 31
0.0
  0
LINE
  5
17D
330
14D
100
AcDbEntity
  8
Sketch Geometry(DIN)
  6
Continuous
 62
     7
370
    18
100
AcDbLine
 10
106.5065913716826
 20
126.4492027126165
 30
0.0
 11
106.0462697484097
 21
126.4492027126165
 31
0.0
  0
LINE
  5
17E
330
14D
100
AcDbEntity
  8
Sketch Geometry(DIN)
  6
Continuous
 62
     7
370
    18
100
AcDbLine
 10
106.0462697484097
 20
126.4492027126165
 30
0.0
 11
106.0462697484097
 21
126.8695208761829
 31
0.0
  0
LINE
  5
17F
330
14D
100
AcDbEntity
  8
Sketch Geometry(DIN)
  6
Continuous
 62
     7
370
    18
100
AcDbLine
 10
106.0462697484097
 20
126.8695208761829
 30
0.0
 11
106.466544552492
 21
126.8695208761829
 31
0.0
  0
LINE
  5
180
330
14D
100
AcDbEntity
  8
Sketch Geometry(DIN)
  6
Continuous
 62
     7
370
    18
100
AcDbLine
 10
106.5065913716826
 20
127.4299161879484
 30
0.0
 11
106.9469156010504
 21
127.4299161879484
 31
0.0
  0
LINE
  5
181
330
14D
100
AcDbEntity
  8
Sketch Geometry(DIN)
  6
Continuous
 62
     7
370
    18
100
AcDbLine
 10
106.466544552492
 20
127.2230827785689
 30
0.0
 11
106.0462697484097
 21
127.2230827785689
 31
0.0
  0
LINE
  5
182
330
14D
100
AcDbEntity
  8
Sketch Geometry(DIN)
  6
Continuous
 62
     7
370
    18
100
AcDbLine
 10
106.5065913716826
 20
127.6500869745293
 30
0.0
 11
106.5065913716826
 21
127.4299161879484
 31
0.0
  0
LINE
  5
183
330
14D
100
AcDbEntity
  8
Sketch Geometry(DIN)
  6
Continuous
 62
     7
370
    18
100
AcDbLine
 10
106.0462697484097
 20
127.6500869745293
 30
0.0
 11
106.5065913716826
 21
127.6500869745293
 31
0.0
  0
LINE
  5
184
330
14D
100
AcDbEntity
  8
Sketch Geometry(DIN)
  6
Continuous
 62
     7
370
    18
100
AcDbLine
 10
106.0462697484097
 20
127.2230827785689
 30
0.0
 11
106.0462697484097
 21
127.6500869745293
 31
0.0
  0
LINE
  5
185
330
14D
100
AcDbEntity
  8
Sketch Geometry(DIN)
  6
Continuous
 62
     7
370
    18
100
AcDbLine
 10
105.2323081756798
 20
126.4492027126165
 30
0.0
 11
105.032169470591
 21
126.4492027126165
 31
0.0
  0
LINE
  5
186
330
14D
100
AcDbEntity
  8
Sketch Geometry(DIN)
  6
Continuous
 62
     7
370
    18
100
AcDbLine
 10
105.2323081756798
 20
127.6500869745293
 30
0.0
 11
105.2323081756798
 21
126.4492027126165
 31
0.0
  0
LINE
  5
187
330
14D
100
AcDbEntity
  8
Sketch Geometry(DIN)
  6
Continuous
 62
     7
370
    18
100
AcDbLine
 10
106.9469156010504
 20
127.4299161879484
 30
0.0
 11
106.9469156010504
 21
128.0770651547993
 31
0.0
  0
LINE
  5
188
330
14D
100
AcDbEntity
  8
Sketch Geometry(DIN)
  6
Continuous
 62
     7
370
    18
100
AcDbLine
 10
106.9469156010504
 20
128.0770651547993
 30
0.0
 11
105.032169470591
 21
128.0770651547993
 31
0.0
  0
LINE
  5
189
330
14D
100
AcDbEntity
  8
Sketch Geometry(DIN)
  6
Continuous
 62
     7
370
    18
100
AcDbLine
 10
105.032169470591
 20
128.0770651547993
 30
0.0
 11
105.032169470591
 21
127.6500869745293
 31
0.0
  0
LINE
  5
18A
330
14D
100
AcDbEntity
  8
Sketch Geometry(DIN)
  6
Continuous
 62
     7
370
    18
100
AcDbLine
 10
102.0646377309122
 20
124.5375774404595
 30
0.0
 11
102.0646377309122
 21
129.533943808766
 31
0.0
  0
LINE
  5
18B
330
14D
100
AcDbEntity
  8
Sketch Geometry(DIN)
  6
Continuous
 62
     7
370
    18
100
AcDbLine
 10
102.2772726392172
 20
124.5367536102683
 30
0.0
 11
107.2676023428579
 21
124.5375774404595
 31
0.0
  0
LINE
  5
18C
330
14D
100
AcDbEntity
  8
Sketch Geometry(DIN)
  6
Continuous
 62
     7
370
    18
100
AcDbLine
 10
107.2676023428579
 20
124.5375774404595
 30
0.0
 11
107.2676023428579
 21
129.533943808766
 31
0.0
  0
LINE
  5
18D
330
14D
100
AcDbEntity
  8
Sketch Geometry(DIN)
  6
Continuous
 62
     7
370
    18
100
AcDbLine
 10
107.2676023428579
 20
129.533943808766
 30
0.0
 11
102.2772726392172
 21
129.533943808766
 31
0.0
  0
LINE
  5
18E
330
14D
100
AcDbEntity
  8
Sketch Geometry(DIN)
  6
Continuous
 62
     7
370
    18
100
AcDbLine
 10
104.708542955785
 20
126.4474596613701
 30
0.0
 11
104.0880947590273
 21
127.1813622833059
 31
0.0
  0
LINE
  5
18F
330
14D
100
AcDbEntity
  8
Sketch Geometry(DIN)
  6
Continuous
 62
     7
370
    18
100
AcDbLine
 10
103.7344894971573
 20
125.9871380380973
 30
0.0
 11
104.8419687591776
 21
125.9871380380973
 31
0.0
  0
LINE
  5
190
330
14D
100
AcDbEntity
  8
Sketch Geometry(DIN)
  6
Continuous
 62
     7
370
    18
100
AcDbLine
 10
103.8679153005499
 20
126.4474596613701
 30
0.0
 11
103.7344894971573
 21
126.4474596613701
 31
0.0
  0
LINE
  5
191
330
14D
100
AcDbEntity
  8
Sketch Geometry(DIN)
  6
Continuous
 62
     7
370
    18
100
AcDbLine
 10
103.7344894971573
 20
126.4474596613701
 30
0.0
 11
103.7344894971573
 21
125.9871380380973
 31
0.0
  0
LINE
  5
192
330
14D
100
AcDbEntity
  8
Sketch Geometry(DIN)
  6
Continuous
 62
     7
370
    18
100
AcDbLine
 10
103.5810229403762
 20
125.9871380380973
 30
0.0
 11
103.5810229403762
 21
126.4474596613701
 31
0.0
  0
LINE
  5
193
330
14D
100
AcDbEntity
  8
Sketch Geometry(DIN)
  6
Continuous
 62
     7
370
    18
100
AcDbLine
 10
103.4275910711816
 20
126.9478367757306
 30
0.0
 11
103.8679153005499
 21
126.4474596613701
 31
0.0
  0
LINE
  5
194
330
14D
100
AcDbEntity
  8
Sketch Geometry(DIN)
  6
Continuous
 62
     7
370
    18
100
AcDbLine
 10
103.5810229403762
 20
126.4474596613701
 30
0.0
 11
103.4275910711816
 21
126.4474596613701
 31
0.0
  0
LINE
  5
195
330
14D
100
AcDbEntity
  8
Sketch Geometry(DIN)
  6
Continuous
 62
     7
370
    18
100
AcDbLine
 10
103.4275910711816
 20
126.4474596613701
 30
0.0
 11
103.4275910711816
 21
126.9478367757306
 31
0.0
  0
LINE
  5
196
330
14D
100
AcDbEntity
  8
Sketch Geometry(DIN)
  6
Continuous
 62
     7
370
    18
100
AcDbLine
 10
102.420185497654
 20
125.9871380380973
 30
0.0
 11
103.5810229403762
 21
125.9871380380973
 31
0.0
  0
LINE
  5
197
330
14D
100
AcDbEntity
  8
Sketch Geometry(DIN)
  6
Continuous
 62
     7
370
    18
100
AcDbLine
 10
102.420185497654
 20
126.4474596613701
 30
0.0
 11
102.420185497654
 21
125.9871380380973
 31
0.0
  0
LINE
  5
198
330
14D
100
AcDbEntity
  8
Sketch Geometry(DIN)
  6
Continuous
 62
     7
370
    18
100
AcDbLine
 10
102.6403649561314
 20
126.4474596613701
 30
0.0
 11
102.420185497654
 21
126.4474596613701
 31
0.0
  0
LINE
  5
199
330
14D
100
AcDbEntity
  8
Sketch Geometry(DIN)
  6
Continuous
 62
     7
370
    18
100
AcDbLine
 10
102.6403649561314
 20
127.6550386275736
 30
0.0
 11
102.6403649561314
 21
126.4474596613701
 31
0.0
  0
LINE
  5
19A
330
14D
100
AcDbEntity
  8
Sketch Geometry(DIN)
  6
Continuous
 62
     7
370
    18
100
AcDbLine
 10
102.2772726392172
 20
129.533943808766
 30
0.0
 11
102.2772726392172
 21
124.5367536102683
 31
0.0
  0
LINE
  5
19B
330
14D
100
AcDbEntity
  8
Sketch Geometry(DIN)
  6
Continuous
 62
     7
370
    18
100
AcDbLine
 10
102.420185497654
 20
127.6550386275736
 30
0.0
 11
102.6403649561314
 21
127.6550386275736
 31
0.0
  0
LINE
  5
19C
330
14D
100
AcDbEntity
  8
Sketch Geometry(DIN)
  6
Continuous
 62
     7
370
    18
100
AcDbLine
 10
101.0907923978064
 20
127.656746991233
 30
0.0
 11
101.2509102993947
 21
127.656746991233
 31
0.0
  0
LINE
  5
19D
330
14D
100
AcDbEntity
  8
Sketch Geometry(DIN)
  6
Continuous
 62
     7
370
    18
100
AcDbLine
 10
101.0907923978064
 20
128.0770651547993
 30
0.0
 11
101.0907923978064
 21
127.656746991233
 31
0.0
  0
LINE
  5
19E
330
14D
100
AcDbEntity
  8
Sketch Geometry(DIN)
  6
Continuous
 62
     7
370
    18
100
AcDbLine
 10
101.6845398244714
 20
127.656746991233
 30
0.0
 11
101.9113792996529
 21
127.656746991233
 31
0.0
  0
LINE
  5
19F
330
14D
100
AcDbEntity
  8
Sketch Geometry(DIN)
  6
Continuous
 62
     7
370
    18
100
AcDbLine
 10
101.9113792996529
 20
128.0770651547993
 30
0.0
 11
101.0907923978064
 21
128.0770651547993
 31
0.0
  0
LINE
  5
1A0
330
14D
100
AcDbEntity
  8
Sketch Geometry(DIN)
  6
Continuous
 62
     7
370
    18
100
AcDbLine
 10
101.9113792996529
 20
127.656746991233
 30
0.0
 11
101.9113792996529
 21
128.0770651547993
 31
0.0
  0
LINE
  5
1A1
330
14D
100
AcDbEntity
  8
Sketch Geometry(DIN)
  6
Continuous
 62
     7
370
    18
100
AcDbLine
 10
97.58174406558607
 20
127.6521422140591
 30
0.0
 11
97.58174406558607
 21
128.0791117224321
 31
0.0
  0
LINE
  5
1A2
330
14D
100
AcDbEntity
  8
Sketch Geometry(DIN)
  6
Continuous
 62
     7
370
    18
100
AcDbLine
 10
98.25965225020826
 20
127.6715672627784
 30
0.0
 11
98.08617962762555
 21
126.9844061643244
 31
0.0
  0
LINE
  5
1A3
330
14D
100
AcDbEntity
  8
Sketch Geometry(DIN)
  6
Continuous
 62
     7
370
    18
100
AcDbLine
 10
98.08617962762555
 20
126.9844061643244
 30
0.0
 11
98.43978488949517
 21
126.9844061643244
 31
0.0
  0
LINE
  5
1A4
330
14D
100
AcDbEntity
  8
Sketch Geometry(DIN)
  6
Continuous
 62
     7
370
    18
100
AcDbLine
 10
98.43978488949517
 20
126.9844061643244
 30
0.0
 11
98.25965225020826
 21
127.6715672627784
 31
0.0
  0
LINE
  5
1A5
330
14D
100
AcDbEntity
  8
Sketch Geometry(DIN)
  6
Continuous
 62
     7
370
    18
100
AcDbLine
 10
97.58174406558607
 20
128.0791117224321
 30
0.0
 11
99.11619283597985
 21
128.0791117224321
 31
0.0
  0
LINE
  5
1A6
330
14D
100
AcDbEntity
  8
Sketch Geometry(DIN)
  6
Continuous
 62
     7
370
    18
100
AcDbLine
 10
99.11619283597985
 20
127.6521422140591
 30
0.0
 11
98.94272021339665
 21
127.6521422140591
 31
0.0
  0
LINE
  5
1A7
330
14D
100
AcDbEntity
  8
Sketch Geometry(DIN)
  6
Continuous
 62
     7
370
    18
100
AcDbLine
 10
99.11619283597985
 20
128.0791117224321
 30
0.0
 11
99.11619283597985
 21
127.6587935588663
 31
0.0
  0
LINE
  5
1A8
330
14D
100
AcDbEntity
  8
Sketch Geometry(DIN)
  6
Continuous
 62
     7
370
    18
100
AcDbLine
 10
98.94272021339665
 20
127.6521422140591
 30
0.0
 11
99.30297682007379
 21
126.4512492802498
 31
0.0
  0
LINE
  5
1A9
330
14D
100
AcDbEntity
  8
Sketch Geometry(DIN)
  6
Continuous
 62
     7
370
    18
100
AcDbLine
 10
99.30297682007379
 20
126.4512492802498
 30
0.0
 11
99.49645550845856
 21
126.4512492802498
 31
0.0
  0
LINE
  5
1AA
330
14D
100
AcDbEntity
  8
Sketch Geometry(DIN)
  6
Continuous
 62
     7
370
    18
100
AcDbLine
 10
99.49645550845856
 20
126.4512492802498
 30
0.0
 11
99.49645550845856
 21
125.990927656977
 31
0.0
  0
LINE
  5
1AB
330
14D
100
AcDbEntity
  8
Sketch Geometry(DIN)
  6
Continuous
 62
     7
370
    18
100
AcDbLine
 10
99.49645550845856
 20
125.990927656977
 30
0.0
 11
98.36231883582909
 21
125.990927656977
 31
0.0
  0
LINE
  5
1AC
330
14D
100
AcDbEntity
  8
Sketch Geometry(DIN)
  6
Continuous
 62
     7
370
    18
100
AcDbLine
 10
98.36231883582909
 20
125.990927656977
 30
0.0
 11
98.36231883582909
 21
126.4512492802498
 31
0.0
  0
LINE
  5
1AD
330
14D
100
AcDbEntity
  8
Sketch Geometry(DIN)
  6
Continuous
 62
     7
370
    18
100
AcDbLine
 10
98.36231883582909
 20
126.4512492802498
 30
0.0
 11
98.56910888572512
 21
126.4512492802498
 31
0.0
  0
LINE
  5
1AE
330
14D
100
AcDbEntity
  8
Sketch Geometry(DIN)
  6
Continuous
 62
     7
370
    18
100
AcDbLine
 10
98.52241072172736
 20
126.6447279686345
 30
0.0
 11
98.00202754156529
 21
126.6447279686345
 31
0.0
  0
LINE
  5
1AF
330
14D
100
AcDbEntity
  8
Sketch Geometry(DIN)
  6
Continuous
 62
     7
370
    18
100
AcDbLine
 10
98.56910888572512
 20
126.4512492802498
 30
0.0
 11
98.52241072172736
 21
126.6447279686345
 31
0.0
  0
LINE
  5
1B0
330
14D
100
AcDbEntity
  8
Sketch Geometry(DIN)
  6
Continuous
 62
     7
370
    18
100
AcDbLine
 10
98.00202754156529
 20
126.6447279686345
 30
0.0
 11
97.94200067226325
 21
126.4512492802498
 31
0.0
  0
LINE
  5
1B1
330
14D
100
AcDbEntity
  8
Sketch Geometry(DIN)
  6
Continuous
 62
     7
370
    18
100
AcDbLine
 10
97.94200067226325
 20
126.4512492802498
 30
0.0
 11
98.12879332825378
 21
126.4512492802498
 31
0.0
  0
LINE
  5
1B2
330
14D
100
AcDbEntity
  8
Sketch Geometry(DIN)
  6
Continuous
 62
     7
370
    18
100
AcDbLine
 10
98.12879332825378
 20
126.4512492802498
 30
0.0
 11
98.12879332825378
 21
125.990927656977
 31
0.0
  0
LINE
  5
1B3
330
14D
100
AcDbEntity
  8
Sketch Geometry(DIN)
  6
Continuous
 62
     7
370
    18
100
AcDbLine
 10
97.3682246238124
 20
126.4512492802498
 30
0.0
 11
97.74852198387852
 21
127.6521422140591
 31
0.0
  0
LINE
  5
1B4
330
14D
100
AcDbEntity
  8
Sketch Geometry(DIN)
  6
Continuous
 62
     7
370
    18
100
AcDbLine
 10
97.22814747561304
 20
126.4512492802498
 30
0.0
 11
97.3682246238124
 21
126.4512492802498
 31
0.0
  0
LINE
  5
1B5
330
14D
100
AcDbEntity
  8
Sketch Geometry(DIN)
  6
Continuous
 62
     7
370
    18
100
AcDbLine
 10
98.12879332825378
 20
125.990927656977
 30
0.0
 11
97.22814747561304
 21
125.990927656977
 31
0.0
  0
LINE
  5
1B6
330
14D
100
AcDbEntity
  8
Sketch Geometry(DIN)
  6
Continuous
 62
     7
370
    18
100
AcDbLine
 10
97.22814747561304
 20
125.990927656977
 30
0.0
 11
97.22814747561304
 21
126.4512492802498
 31
0.0
  0
LINE
  5
1B7
330
14D
100
AcDbEntity
  8
Sketch Geometry(DIN)
  6
Continuous
 62
     7
370
    18
100
AcDbLine
 10
97.74852198387852
 20
127.6521422140591
 30
0.0
 11
97.58174406558607
 21
127.6521422140591
 31
0.0
  0
LINE
  5
1B8
330
14D
100
AcDbEntity
  8
Sketch Geometry(DIN)
  6
Continuous
 62
     7
370
    18
100
AcDbLine
 10
101.0707863320044
 20
125.9888377298602
 30
0.0
 11
101.6845398244714
 21
125.9888377298602
 31
0.0
  0
LINE
  5
1B9
330
14D
100
AcDbEntity
  8
Sketch Geometry(DIN)
  6
Continuous
 62
     7
370
    18
100
AcDbLine
 10
100.5036963159481
 20
125.9888377298602
 30
0.0
 11
100.5036963159481
 21
126.4492027126165
 31
0.0
  0
LINE
  5
1BA
330
14D
100
AcDbEntity
  8
Sketch Geometry(DIN)
  6
Continuous
 62
     7
370
    18
100
AcDbLine
 10
100.5036963159481
 20
126.4492027126165
 30
0.0
 11
100.330223693365
 21
126.4492027126165
 31
0.0
  0
LINE
  5
1BB
330
14D
100
AcDbEntity
  8
Sketch Geometry(DIN)
  6
Continuous
 62
     7
370
    18
100
AcDbLine
 10
99.6497226116147
 20
125.9888377298602
 30
0.0
 11
100.5036963159481
 21
125.9888377298602
 31
0.0
  0
LINE
  5
1BC
330
14D
100
AcDbEntity
  8
Sketch Geometry(DIN)
  6
Continuous
 62
     7
370
    18
100
AcDbLine
 10
99.85654734909729
 20
126.4492027126165
 30
0.0
 11
99.6497226116147
 21
126.4492027126165
 31
0.0
  0
LINE
  5
1BD
330
14D
100
AcDbEntity
  8
Sketch Geometry(DIN)
  6
Continuous
 62
     7
370
    18
100
AcDbLine
 10
99.6497226116147
 20
126.4492027126165
 30
0.0
 11
99.6497226116147
 21
125.9888377298602
 31
0.0
  0
LINE
  5
1BE
330
14D
100
AcDbEntity
  8
Sketch Geometry(DIN)
  6
Continuous
 62
     7
370
    18
100
AcDbLine
 10
101.6845398244714
 20
125.9888377298602
 30
0.0
 11
101.6845398244714
 21
127.656746991233
 31
0.0
  0
LINE
  5
1BF
330
14D
100
AcDbEntity
  8
Sketch Geometry(DIN)
  6
Continuous
 62
     7
370
    18
100
AcDbLine
 10
100.330223693365
 20
126.4492027126165
 30
0.0
 11
100.330223693365
 21
127.2364374995637
 31
0.0
  0
LINE
  5
1C0
330
14D
100
AcDbEntity
  8
Sketch Geometry(DIN)
  6
Continuous
 62
     7
370
    18
100
AcDbLine
 10
100.330223693365
 20
127.2364374995637
 30
0.0
 11
101.0707863320044
 21
125.9888377298602
 31
0.0
  0
LINE
  5
1C1
330
14D
100
AcDbEntity
  8
Sketch Geometry(DIN)
  6
Continuous
 62
     7
370
    18
100
AcDbLine
 10
101.2509102993947
 20
127.656746991233
 30
0.0
 11
101.2509102993947
 21
126.9762459094827
 31
0.0
  0
LINE
  5
1C2
330
14D
100
AcDbEntity
  8
Sketch Geometry(DIN)
  6
Continuous
 62
     7
370
    18
100
AcDbLine
 10
99.85654734909729
 20
127.656746991233
 30
0.0
 11
99.85654734909729
 21
126.4492027126165
 31
0.0
  0
LINE
  5
1C3
330
14D
100
AcDbEntity
  8
Sketch Geometry(DIN)
  6
Continuous
 62
     7
370
    18
100
AcDbLine
 10
101.2509102993947
 20
126.9762459094827
 30
0.0
 11
100.5904152834459
 21
128.0770651547993
 31
0.0
  0
LINE
  5
1C4
330
14D
100
AcDbEntity
  8
Sketch Geometry(DIN)
  6
Continuous
 62
     7
370
    18
100
AcDbLine
 10
99.6497226116147
 20
127.656746991233
 30
0.0
 11
99.85654734909729
 21
127.656746991233
 31
0.0
  0
LINE
  5
1C5
330
14D
100
AcDbEntity
  8
Sketch Geometry(DIN)
  6
Continuous
 62
     7
370
    18
100
AcDbLine
 10
100.5904152834459
 20
128.0770651547993
 30
0.0
 11
99.6497226116147
 21
128.0770651547993
 31
0.0
  0
LINE
  5
1C6
330
14D
100
AcDbEntity
  8
Sketch Geometry(DIN)
  6
Continuous
 62
     7
370
    18
100
AcDbLine
 10
99.6497226116147
 20
128.0770651547993
 30
0.0
 11
99.6497226116147
 21
127.656746991233
 31
0.0
  0
LINE
  5
1C7
330
14D
100
AcDbEntity
  8
Sketch Geometry(DIN)
  6
Continuous
 62
     7
370
    18
100
AcDbLine
 10
99.11619283597985
 20
127.6587935588663
 30
0.0
 11
99.11619283597985
 21
127.6521422140591
 31
0.0
  0
LINE
  5
1C8
330
14D
100
AcDbEntity
  8
Sketch Geometry(DIN)
  6
Continuous
 62
     7
370
    18
100
AcDbLine
 10
97.07429935537462
 20
124.5375774404595
 30
0.0
 11
102.0646377309122
 21
124.5375774404595
 31
0.0
  0
LINE
  5
1C9
330
14D
100
AcDbEntity
  8
Sketch Geometry(DIN)
  6
Continuous
 62
     7
370
    18
100
AcDbLine
 10
97.07429935537462
 20
129.533943808766
 30
0.0
 11
97.07429935537462
 21
124.5375774404595
 31
0.0
  0
LINE
  5
1CA
330
14D
100
AcDbEntity
  8
Sketch Geometry(DIN)
  6
Continuous
 62
     7
370
    18
100
AcDbLine
 10
102.0646377309122
 20
129.533943808766
 30
0.0
 11
97.07429935537462
 21
129.533943808766
 31
0.0
  0
LINE
  5
1CB
330
14D
100
AcDbEntity
  8
Sketch Geometry(DIN)
  6
Continuous
 62
     7
370
    18
100
AcDbLine
 10
96.56334252697977
 20
127.3913696068958
 30
0.0
 11
96.55003116546893
 21
127.3313167219032
 31
0.0
  0
LINE
  5
1CC
330
14D
100
AcDbEntity
  8
Sketch Geometry(DIN)
  6
Continuous
 62
     7
370
    18
100
AcDbLine
 10
96.55003116546893
 20
127.3313167219032
 30
0.0
 11
96.52999041207987
 21
127.2779498693052
 31
0.0
  0
LINE
  5
1CD
330
14D
100
AcDbEntity
  8
Sketch Geometry(DIN)
  6
Continuous
 62
     7
370
    18
100
AcDbLine
 10
96.52999041207987
 20
127.2779498693052
 30
0.0
 11
96.50332432957418
 21
127.2178969843126
 31
0.0
  0
LINE
  5
1CE
330
14D
100
AcDbEntity
  8
Sketch Geometry(DIN)
  6
Continuous
 62
     7
370
    18
100
AcDbLine
 10
96.4699635427778
 20
127.1711901484184
 30
0.0
 11
96.42991672358721
 21
127.1245180001105
 31
0.0
  0
LINE
  5
1CF
330
14D
100
AcDbEntity
  8
Sketch Geometry(DIN)
  6
Continuous
 62
     7
370
    18
100
AcDbLine
 10
96.42991672358721
 20
127.1245180001105
 30
0.0
 11
96.38990459198367
 21
127.0778111642164
 31
0.0
  0
LINE
  5
1D0
330
14D
100
AcDbEntity
  8
Sketch Geometry(DIN)
  6
Continuous
 62
     7
370
    18
100
AcDbLine
 10
96.38990459198367
 20
127.0778111642164
 30
0.0
 11
96.34319775608931
 21
127.0444590493165
 31
0.0
  0
LINE
  5
1D1
330
14D
100
AcDbEntity
  8
Sketch Geometry(DIN)
  6
Continuous
 62
     7
370
    18
100
AcDbLine
 10
96.34319775608931
 20
127.0444590493165
 30
0.0
 11
96.28983957538782
 21
127.0177582792238
 31
0.0
  0
LINE
  5
1D2
330
14D
100
AcDbEntity
  8
Sketch Geometry(DIN)
  6
Continuous
 62
     7
370
    18
100
AcDbLine
 10
96.28983957538782
 20
127.0177582792238
 30
0.0
 11
96.2631388052952
 21
126.9844061643244
 31
0.0
  0
LINE
  5
1D3
330
14D
100
AcDbEntity
  8
Sketch Geometry(DIN)
  6
Continuous
 62
     7
370
    18
100
AcDbLine
 10
96.50332432957418
 20
127.2178969843126
 30
0.0
 11
96.4699635427778
 21
127.1711901484184
 31
0.0
  0
LINE
  5
1D4
330
14D
100
AcDbEntity
  8
Sketch Geometry(DIN)
  6
Continuous
 62
     7
370
    18
100
AcDbLine
 10
96.50332432957418
 20
126.4440169183604
 30
0.0
 11
96.7034630346675
 21
126.4440169183604
 31
0.0
  0
LINE
  5
1D5
330
14D
100
AcDbEntity
  8
Sketch Geometry(DIN)
  6
Continuous
 62
     7
370
    18
100
AcDbLine
 10
96.2631388052952
 20
126.9844061643244
 30
0.0
 11
96.50332432957418
 21
126.4440169183604
 31
0.0
  0
LINE
  5
1D6
330
14D
100
AcDbEntity
  8
Sketch Geometry(DIN)
  6
Continuous
 62
     7
370
    18
100
AcDbLine
 10
96.7034630346675
 20
126.4440169183604
 30
0.0
 11
96.70346303466777
 21
125.9836519356054
 31
0.0
  0
LINE
  5
1D7
330
14D
100
AcDbEntity
  8
Sketch Geometry(DIN)
  6
Continuous
 62
     7
370
    18
100
AcDbLine
 10
96.70346303466777
 20
125.9836519356054
 30
0.0
 11
95.96959510031894
 21
125.9836519356054
 31
0.0
  0
LINE
  5
1D8
330
14D
100
AcDbEntity
  8
Sketch Geometry(DIN)
  6
Continuous
 62
     7
370
    18
100
AcDbLine
 10
96.12302696951056
 20
128.0652106719415
 30
0.0
 11
96.1830798545032
 21
128.0385185737453
 31
0.0
  0
LINE
  5
1D9
330
14D
100
AcDbEntity
  8
Sketch Geometry(DIN)
  6
Continuous
 62
     7
370
    18
100
AcDbLine
 10
96.0029472152188
 20
128.0718706886462
 30
0.0
 11
96.0630001002108
 21
128.0718706886462
 31
0.0
  0
LINE
  5
1DA
330
14D
100
AcDbEntity
  8
Sketch Geometry(DIN)
  6
Continuous
 62
     7
370
    18
100
AcDbLine
 10
96.0630001002108
 20
128.0718706886462
 30
0.0
 11
96.12302696951056
 21
128.0652106719415
 31
0.0
  0
LINE
  5
1DB
330
14D
100
AcDbEntity
  8
Sketch Geometry(DIN)
  6
Continuous
 62
     7
370
    18
100
AcDbLine
 10
95.74951970459784
 20
127.5380373966253
 30
0.0
 11
95.736164983603
 21
127.5580781500138
 31
0.0
  0
LINE
  5
1DC
330
14D
100
AcDbEntity
  8
Sketch Geometry(DIN)
  6
Continuous
 62
     7
370
    18
100
AcDbLine
 10
91.85580337634979
 20
129.533943808766
 30
0.0
 11
91.85580337634979
 21
124.5375774404595
 31
0.0
  0
LINE
  5
1DD
330
14D
100
AcDbEntity
  8
Sketch Geometry(DIN)
  6
Continuous
 62
     7
370
    18
100
AcDbLine
 10
91.85580337634979
 20
124.5375774404595
 30
0.0
 11
96.85282778428158
 21
124.5375774404595
 31
0.0
  0
LINE
  5
1DE
330
14D
100
AcDbEntity
  8
Sketch Geometry(DIN)
  6
Continuous
 62
     7
370
    18
100
AcDbLine
 10
96.85282778428158
 20
124.5375774404595
 30
0.0
 11
96.85282778428158
 21
129.533943808766
 31
0.0
  0
LINE
  5
1DF
330
14D
100
AcDbEntity
  8
Sketch Geometry(DIN)
  6
Continuous
 62
     7
370
    18
100
AcDbLine
 10
96.85282778428158
 20
129.533943808766
 30
0.0
 11
91.85580337634979
 21
129.533943808766
 31
0.0
  0
LINE
  5
1E0
330
14D
100
AcDbEntity
  8
Sketch Geometry(DIN)
  6
Continuous
 62
     7
370
    18
100
AcDbLine
 10
94.51517059313244
 20
127.6515611969787
 30
0.0
 11
94.295025822242
 21
127.6515611969787
 31
0.0
  0
LINE
  5
1E1
330
14D
100
AcDbEntity
  8
Sketch Geometry(DIN)
  6
Continuous
 62
     7
370
    18
100
AcDbLine
 10
94.295025822242
 20
127.6515611969787
 30
0.0
 11
94.295025822242
 21
128.0718706886462
 31
0.0
  0
LINE
  5
1E2
330
14D
100
AcDbEntity
  8
Sketch Geometry(DIN)
  6
Continuous
 62
     7
370
    18
100
AcDbLine
 10
94.295025822242
 20
128.0718706886462
 30
0.0
 11
96.0029472152188
 21
128.0718706886462
 31
0.0
  0
LINE
  5
1E3
330
14D
100
AcDbEntity
  8
Sketch Geometry(DIN)
  6
Continuous
 62
     7
370
    18
100
AcDbLine
 10
95.75617104940503
 20
127.5180313308232
 30
0.0
 11
95.74951970459784
 21
127.5380373966253
 31
0.0
  0
LINE
  5
1E4
330
14D
100
AcDbEntity
  8
Sketch Geometry(DIN)
  6
Continuous
 62
     7
370
    18
100
AcDbLine
 10
95.63609996700732
 20
127.65814316661
 30
0.0
 11
95.61609390120528
 21
127.6648031833137
 31
0.0
  0
LINE
  5
1E5
330
14D
100
AcDbEntity
  8
Sketch Geometry(DIN)
  6
Continuous
 62
     7
370
    18
100
AcDbLine
 10
95.736164983603
 20
127.5580781500138
 30
0.0
 11
95.72951363879587
 21
127.5780842158158
 31
0.0
  0
LINE
  5
1E6
330
14D
100
AcDbEntity
  8
Sketch Geometry(DIN)
  6
Continuous
 62
     7
370
    18
100
AcDbLine
 10
95.72951363879587
 20
127.5780842158158
 30
0.0
 11
95.70949890109728
 21
127.5980902816174
 31
0.0
  0
LINE
  5
1E7
330
14D
100
AcDbEntity
  8
Sketch Geometry(DIN)
  6
Continuous
 62
     7
370
    18
100
AcDbLine
 10
95.67614678619788
 20
127.638137100808
 30
0.0
 11
95.66280073710002
 21
127.6447971175117
 31
0.0
  0
LINE
  5
1E8
330
14D
100
AcDbEntity
  8
Sketch Geometry(DIN)
  6
Continuous
 62
     7
370
    18
100
AcDbLine
 10
95.70949890109728
 20
127.5980902816174
 30
0.0
 11
95.69615285199942
 21
127.6180963474194
 31
0.0
  0
LINE
  5
1E9
330
14D
100
AcDbEntity
  8
Sketch Geometry(DIN)
  6
Continuous
 62
     7
370
    18
100
AcDbLine
 10
95.69615285199942
 20
127.6180963474194
 30
0.0
 11
95.67614678619788
 21
127.638137100808
 31
0.0
  0
LINE
  5
1EA
330
14D
100
AcDbEntity
  8
Sketch Geometry(DIN)
  6
Continuous
 62
     7
370
    18
100
AcDbLine
 10
105.032169470591
 20
127.6500869745293
 30
0.0
 11
105.2323081756798
 21
127.6500869745293
 31
0.0
  0
LINE
  5
1EB
330
14D
100
AcDbEntity
  8
Sketch Geometry(DIN)
  6
Continuous
 62
     7
370
    18
100
AcDbLine
 10
96.1830798545032
 20
128.0385185737453
 30
0.0
 11
96.22978669039742
 21
128.0185125079437
 31
0.0
  0
LINE
  5
1EC
330
14D
100
AcDbEntity
  8
Sketch Geometry(DIN)
  6
Continuous
 62
     7
370
    18
100
AcDbLine
 10
96.22978669039742
 20
128.0185125079437
 30
0.0
 11
96.2898395753897
 21
127.9918117378511
 31
0.0
  0
LINE
  5
1ED
330
14D
100
AcDbEntity
  8
Sketch Geometry(DIN)
  6
Continuous
 62
     7
370
    18
100
AcDbLine
 10
96.2898395753897
 20
127.9918117378511
 30
0.0
 11
96.32985170699658
 21
127.9584509510524
 31
0.0
  0
LINE
  5
1EE
330
14D
100
AcDbEntity
  8
Sketch Geometry(DIN)
  6
Continuous
 62
     7
370
    18
100
AcDbLine
 10
96.32985170699658
 20
127.9584509510524
 30
0.0
 11
96.38320988769462
 21
127.9317588528585
 31
0.0
  0
LINE
  5
1EF
330
14D
100
AcDbEntity
  8
Sketch Geometry(DIN)
  6
Continuous
 62
     7
370
    18
100
AcDbLine
 10
96.38320988769462
 20
127.9317588528585
 30
0.0
 11
96.42326537878005
 21
127.8917467212558
 31
0.0
  0
LINE
  5
1F0
330
14D
100
AcDbEntity
  8
Sketch Geometry(DIN)
  6
Continuous
 62
     7
370
    18
100
AcDbLine
 10
96.42326537878005
 20
127.8917467212558
 30
0.0
 11
96.46327751038359
 21
127.8383798686578
 31
0.0
  0
LINE
  5
1F1
330
14D
100
AcDbEntity
  8
Sketch Geometry(DIN)
  6
Continuous
 62
     7
370
    18
100
AcDbLine
 10
96.5700372312704
 20
127.4514224918879
 30
0.0
 11
96.56334252697977
 21
127.3913696068958
 31
0.0
  0
LINE
  5
1F2
330
14D
100
AcDbEntity
  8
Sketch Geometry(DIN)
  6
Continuous
 62
     7
370
    18
100
AcDbLine
 10
96.57003723127045
 20
127.5114406892935
 30
0.0
 11
96.5700372312704
 21
127.4514224918879
 31
0.0
  0
LINE
  5
1F3
330
14D
100
AcDbEntity
  8
Sketch Geometry(DIN)
  6
Continuous
 62
     7
370
    18
100
AcDbLine
 10
96.57003723127049
 20
127.5714935742857
 30
0.0
 11
96.57003723127045
 21
127.5114406892935
 31
0.0
  0
LINE
  5
1F4
330
14D
100
AcDbEntity
  8
Sketch Geometry(DIN)
  6
Continuous
 62
     7
370
    18
100
AcDbLine
 10
96.56334252697977
 20
127.6315551311748
 30
0.0
 11
96.57003723127049
 21
127.5714935742857
 31
0.0
  0
LINE
  5
1F5
330
14D
100
AcDbEntity
  8
Sketch Geometry(DIN)
  6
Continuous
 62
     7
370
    18
100
AcDbLine
 10
96.54333646117777
 20
127.6916080161674
 30
0.0
 11
96.56334252697977
 21
127.6315551311748
 31
0.0
  0
LINE
  5
1F6
330
14D
100
AcDbEntity
  8
Sketch Geometry(DIN)
  6
Continuous
 62
     7
370
    18
100
AcDbLine
 10
96.52333039537621
 20
127.7382801644747
 30
0.0
 11
96.54333646117777
 21
127.6916080161674
 31
0.0
  0
LINE
  5
1F7
330
14D
100
AcDbEntity
  8
Sketch Geometry(DIN)
  6
Continuous
 62
     7
370
    18
100
AcDbLine
 10
96.48996960857985
 20
127.7916730327631
 30
0.0
 11
96.52333039537621
 21
127.7382801644747
 31
0.0
  0
LINE
  5
1F8
330
14D
100
AcDbEntity
  8
Sketch Geometry(DIN)
  6
Continuous
 62
     7
370
    18
100
AcDbLine
 10
96.46327751038359
 20
127.8383798686578
 30
0.0
 11
96.48996960857985
 21
127.7916730327631
 31
0.0
  0
LINE
  5
1F9
330
14D
100
AcDbEntity
  8
Sketch Geometry(DIN)
  6
Continuous
 62
     7
370
    18
100
AcDbLine
 10
93.22251164791238
 20
126.4511799050758
 30
0.0
 11
93.22251164791238
 21
126.864838051938
 31
0.0
  0
LINE
  5
1FA
330
14D
100
AcDbEntity
  8
Sketch Geometry(DIN)
  6
Continuous
 62
     7
370
    18
100
AcDbLine
 10
93.40264428719921
 20
126.4511799050758
 30
0.0
 11
93.22251164791238
 21
126.4511799050758
 31
0.0
  0
LINE
  5
1FB
330
14D
100
AcDbEntity
  8
Sketch Geometry(DIN)
  6
Continuous
 62
     7
370
    18
100
AcDbLine
 10
92.3685726311659
 20
127.6520728388851
 30
0.0
 11
92.3685726311659
 21
126.4511799050758
 31
0.0
  0
LINE
  5
1FC
330
14D
100
AcDbEntity
  8
Sketch Geometry(DIN)
  6
Continuous
 62
     7
370
    18
100
AcDbLine
 10
92.16839923849006
 20
127.6520728388851
 30
0.0
 11
92.3685726311659
 21
127.6520728388851
 31
0.0
  0
LINE
  5
1FD
330
14D
100
AcDbEntity
  8
Sketch Geometry(DIN)
  6
Continuous
 62
     7
370
    18
100
AcDbLine
 10
93.22251164791238
 20
126.864838051938
 30
0.0
 11
93.63616979477447
 21
126.864838051938
 31
0.0
  0
LINE
  5
1FE
330
14D
100
AcDbEntity
  8
Sketch Geometry(DIN)
  6
Continuous
 62
     7
370
    18
100
AcDbLine
 10
93.63616979477447
 20
126.864838051938
 30
0.0
 11
93.63616979477447
 21
127.2250946586152
 31
0.0
  0
LINE
  5
1FF
330
14D
100
AcDbEntity
  8
Sketch Geometry(DIN)
  6
Continuous
 62
     7
370
    18
100
AcDbLine
 10
93.22251164791238
 20
127.2250946586152
 30
0.0
 11
93.22251164791238
 21
127.6520728388851
 31
0.0
  0
LINE
  5
200
330
14D
100
AcDbEntity
  8
Sketch Geometry(DIN)
  6
Continuous
 62
     7
370
    18
100
AcDbLine
 10
92.16839923849006
 20
128.0857370515493
 30
0.0
 11
92.16839923849006
 21
127.6520728388851
 31
0.0
  0
LINE
  5
201
330
14D
100
AcDbEntity
  8
Sketch Geometry(DIN)
  6
Continuous
 62
     7
370
    18
100
AcDbLine
 10
94.12985220484378
 20
128.0857370515493
 30
0.0
 11
92.16839923849006
 21
128.0857370515493
 31
0.0
  0
LINE
  5
202
330
14D
100
AcDbEntity
  8
Sketch Geometry(DIN)
  6
Continuous
 62
     7
370
    18
100
AcDbLine
 10
93.22251164791238
 20
127.6520728388851
 30
0.0
 11
93.67618192637806
 21
127.6520728388851
 31
0.0
  0
LINE
  5
203
330
14D
100
AcDbEntity
  8
Sketch Geometry(DIN)
  6
Continuous
 62
     7
370
    18
100
AcDbLine
 10
93.67618192637806
 20
127.6520728388851
 30
0.0
 11
93.67618192637806
 21
127.4319280679947
 31
0.0
  0
LINE
  5
204
330
14D
100
AcDbEntity
  8
Sketch Geometry(DIN)
  6
Continuous
 62
     7
370
    18
100
AcDbLine
 10
94.51517059313244
 20
126.4440169183623
 30
0.0
 11
94.51517059313244
 21
127.6515611969787
 31
0.0
  0
LINE
  5
205
330
14D
100
AcDbEntity
  8
Sketch Geometry(DIN)
  6
Continuous
 62
     7
370
    18
100
AcDbLine
 10
93.67618192637806
 20
127.4319280679947
 30
0.0
 11
94.12985220484378
 21
127.4319280679947
 31
0.0
  0
LINE
  5
206
330
14D
100
AcDbEntity
  8
Sketch Geometry(DIN)
  6
Continuous
 62
     7
370
    18
100
AcDbLine
 10
94.12985220484378
 20
127.4319280679947
 30
0.0
 11
94.12985220484378
 21
128.0857370515493
 31
0.0
  0
LINE
  5
207
330
14D
100
AcDbEntity
  8
Sketch Geometry(DIN)
  6
Continuous
 62
     7
370
    18
100
AcDbLine
 10
93.63616979477447
 20
127.2250946586152
 30
0.0
 11
93.22251164791238
 21
127.2250946586152
 31
0.0
  0
LINE
  5
208
330
14D
100
AcDbEntity
  8
Sketch Geometry(DIN)
  6
Continuous
 62
     7
370
    18
100
AcDbLine
 10
92.3685726311659
 20
126.4511799050758
 30
0.0
 11
92.16839923849006
 21
126.4511799050758
 31
0.0
  0
LINE
  5
209
330
14D
100
AcDbEntity
  8
Sketch Geometry(DIN)
  6
Continuous
 62
     7
370
    18
100
AcDbLine
 10
93.40264428719921
 20
125.990858281803
 30
0.0
 11
93.40264428719921
 21
126.4511799050758
 31
0.0
  0
LINE
  5
20A
330
14D
100
AcDbEntity
  8
Sketch Geometry(DIN)
  6
Continuous
 62
     7
370
    18
100
AcDbLine
 10
92.16839923849006
 20
125.990858281803
 30
0.0
 11
93.40264428719921
 21
125.990858281803
 31
0.0
  0
LINE
  5
20B
330
14D
100
AcDbEntity
  8
Sketch Geometry(DIN)
  6
Continuous
 62
     7
370
    18
100
AcDbLine
 10
92.16839923849006
 20
126.4511799050758
 30
0.0
 11
92.16839923849006
 21
125.990858281803
 31
0.0
  0
LINE
  5
20C
330
14D
100
AcDbEntity
  8
Sketch Geometry(DIN)
  6
Continuous
 62
     7
370
    18
100
AcDbLine
 10
95.66280073710002
 20
127.6447971175117
 30
0.0
 11
95.63609996700732
 21
127.65814316661
 31
0.0
  0
LINE
  5
20D
330
14D
100
AcDbEntity
  8
Sketch Geometry(DIN)
  6
Continuous
 62
     7
370
    18
100
AcDbLine
 10
95.74285968789419
 20
127.3178926257348
 30
0.0
 11
95.74951970459784
 21
127.3378986915364
 31
0.0
  0
LINE
  5
20E
330
14D
100
AcDbEntity
  8
Sketch Geometry(DIN)
  6
Continuous
 62
     7
370
    18
100
AcDbLine
 10
95.74951970459784
 20
127.3378986915364
 30
0.0
 11
95.76286575369572
 21
127.3645994616291
 31
0.0
  0
LINE
  5
20F
330
14D
100
AcDbEntity
  8
Sketch Geometry(DIN)
  6
Continuous
 62
     7
370
    18
100
AcDbLine
 10
95.76286575369572
 20
127.3645994616291
 30
0.0
 11
95.76952577039945
 21
127.3846055274307
 31
0.0
  0
LINE
  5
210
330
14D
100
AcDbEntity
  8
Sketch Geometry(DIN)
  6
Continuous
 62
     7
370
    18
100
AcDbLine
 10
95.76952577039945
 20
127.3846055274307
 30
0.0
 11
95.78287181949781
 21
127.4179663142276
 31
0.0
  0
LINE
  5
211
330
14D
100
AcDbEntity
  8
Sketch Geometry(DIN)
  6
Continuous
 62
     7
370
    18
100
AcDbLine
 10
95.78287181949781
 20
127.4179663142276
 30
0.0
 11
95.78287181949781
 21
127.437972380029
 31
0.0
  0
LINE
  5
212
330
14D
100
AcDbEntity
  8
Sketch Geometry(DIN)
  6
Continuous
 62
     7
370
    18
100
AcDbLine
 10
95.78287181949781
 20
127.437972380029
 30
0.0
 11
95.78287181949781
 21
127.4646644782248
 31
0.0
  0
LINE
  5
213
330
14D
100
AcDbEntity
  8
Sketch Geometry(DIN)
  6
Continuous
 62
     7
370
    18
100
AcDbLine
 10
95.78287181949781
 20
127.4646644782248
 30
0.0
 11
95.76952577039945
 21
127.4846792159234
 31
0.0
  0
LINE
  5
214
330
14D
100
AcDbEntity
  8
Sketch Geometry(DIN)
  6
Continuous
 62
     7
370
    18
100
AcDbLine
 10
95.76952577039945
 20
127.4846792159234
 30
0.0
 11
95.75617104940503
 21
127.5180313308232
 31
0.0
  0
LINE
  5
215
330
14D
100
AcDbEntity
  8
Sketch Geometry(DIN)
  6
Continuous
 62
     7
370
    18
100
AcDbLine
 10
95.61609390120528
 20
127.6648031833137
 30
0.0
 11
95.58939313111256
 21
127.6781579043086
 31
0.0
  0
LINE
  5
216
330
14D
100
AcDbEntity
  8
Sketch Geometry(DIN)
  6
Continuous
 62
     7
370
    18
100
AcDbLine
 10
95.58939313111256
 20
127.6781579043086
 30
0.0
 11
95.569387065311
 21
127.6781579043086
 31
0.0
  0
LINE
  5
217
330
14D
100
AcDbEntity
  8
Sketch Geometry(DIN)
  6
Continuous
 62
     7
370
    18
100
AcDbLine
 10
95.569387065311
 20
127.6781579043086
 30
0.0
 11
95.549380999509
 21
127.6781579043086
 31
0.0
  0
LINE
  5
218
330
14D
100
AcDbEntity
  8
Sketch Geometry(DIN)
  6
Continuous
 62
     7
370
    18
100
AcDbLine
 10
95.549380999509
 20
127.6781579043086
 30
0.0
 11
95.29584942613217
 21
127.6781579043086
 31
0.0
  0
LINE
  5
219
330
14D
100
AcDbEntity
  8
Sketch Geometry(DIN)
  6
Continuous
 62
     7
370
    18
100
AcDbLine
 10
95.29584942613217
 20
127.6781579043086
 30
0.0
 11
95.29584942613217
 21
127.191126839046
 31
0.0
  0
LINE
  5
21A
330
14D
100
AcDbEntity
  8
Sketch Geometry(DIN)
  6
Continuous
 62
     7
370
    18
100
AcDbLine
 10
95.29584942613217
 20
127.191126839046
 30
0.0
 11
95.549380999509
 21
127.191126839046
 31
0.0
  0
LINE
  5
21B
330
14D
100
AcDbEntity
  8
Sketch Geometry(DIN)
  6
Continuous
 62
     7
370
    18
100
AcDbLine
 10
95.549380999509
 20
127.191126839046
 30
0.0
 11
95.569387065311
 21
127.191126839046
 31
0.0
  0
LINE
  5
21C
330
14D
100
AcDbEntity
  8
Sketch Geometry(DIN)
  6
Continuous
 62
     7
370
    18
100
AcDbLine
 10
95.72951363879587
 20
127.2978865599328
 30
0.0
 11
95.74285968789419
 21
127.3178926257348
 31
0.0
  0
LINE
  5
21D
330
14D
100
AcDbEntity
  8
Sketch Geometry(DIN)
  6
Continuous
 62
     7
370
    18
100
AcDbLine
 10
95.70949890109728
 20
127.2778458065443
 30
0.0
 11
95.72951363879587
 21
127.2978865599328
 31
0.0
  0
LINE
  5
21E
330
14D
100
AcDbEntity
  8
Sketch Geometry(DIN)
  6
Continuous
 62
     7
370
    18
100
AcDbLine
 10
95.67614678619788
 20
127.2444936916444
 30
0.0
 11
95.69615285199942
 21
127.2645344450329
 31
0.0
  0
LINE
  5
21F
330
14D
100
AcDbEntity
  8
Sketch Geometry(DIN)
  6
Continuous
 62
     7
370
    18
100
AcDbLine
 10
95.66280073710002
 20
127.2378336749407
 30
0.0
 11
95.67614678619788
 21
127.2444936916444
 31
0.0
  0
LINE
  5
220
330
14D
100
AcDbEntity
  8
Sketch Geometry(DIN)
  6
Continuous
 62
     7
370
    18
100
AcDbLine
 10
95.63609996700732
 20
127.2178276091387
 30
0.0
 11
95.66280073710002
 21
127.2378336749407
 31
0.0
  0
LINE
  5
221
330
14D
100
AcDbEntity
  8
Sketch Geometry(DIN)
  6
Continuous
 62
     7
370
    18
100
AcDbLine
 10
95.61609390120528
 20
127.2044815600408
 30
0.0
 11
95.63609996700732
 21
127.2178276091387
 31
0.0
  0
LINE
  5
222
330
14D
100
AcDbEntity
  8
Sketch Geometry(DIN)
  6
Continuous
 62
     7
370
    18
100
AcDbLine
 10
95.59608783540371
 20
127.1977868557497
 30
0.0
 11
95.61609390120528
 21
127.2044815600408
 31
0.0
  0
LINE
  5
223
330
14D
100
AcDbEntity
  8
Sketch Geometry(DIN)
  6
Continuous
 62
     7
370
    18
100
AcDbLine
 10
95.569387065311
 20
127.191126839046
 30
0.0
 11
95.59608783540371
 21
127.1977868557497
 31
0.0
  0
LINE
  5
224
330
14D
100
AcDbEntity
  8
Sketch Geometry(DIN)
  6
Continuous
 62
     7
370
    18
100
AcDbLine
 10
95.69615285199942
 20
127.2645344450329
 30
0.0
 11
95.70949890109728
 21
127.2778458065443
 31
0.0
  0
LINE
  5
225
330
14D
100
AcDbEntity
  8
Sketch Geometry(DIN)
  6
Continuous
 62
     7
370
    18
100
AcDbLine
 10
94.295025822242
 20
125.9836519356054
 30
0.0
 11
94.295025822242
 21
126.4440169183623
 31
0.0
  0
LINE
  5
226
330
14D
100
AcDbEntity
  8
Sketch Geometry(DIN)
  6
Continuous
 62
     7
370
    18
100
AcDbLine
 10
94.295025822242
 20
126.4440169183623
 30
0.0
 11
94.51517059313244
 21
126.4440169183623
 31
0.0
  0
LINE
  5
227
330
14D
100
AcDbEntity
  8
Sketch Geometry(DIN)
  6
Continuous
 62
     7
370
    18
100
AcDbLine
 10
95.48922405176055
 20
125.9836519356054
 30
0.0
 11
94.295025822242
 21
125.9836519356054
 31
0.0
  0
LINE
  5
228
330
14D
100
AcDbEntity
  8
Sketch Geometry(DIN)
  6
Continuous
 62
     7
370
    18
100
AcDbLine
 10
95.30244006766656
 20
126.8776464434394
 30
0.0
 11
95.30244006766656
 21
126.4440169183623
 31
0.0
  0
LINE
  5
229
330
14D
100
AcDbEntity
  8
Sketch Geometry(DIN)
  6
Continuous
 62
     7
370
    18
100
AcDbLine
 10
95.30244006766656
 20
126.4440169183623
 30
0.0
 11
95.48922405176055
 21
126.4440169183623
 31
0.0
  0
LINE
  5
22A
330
14D
100
AcDbEntity
  8
Sketch Geometry(DIN)
  6
Continuous
 62
     7
370
    18
100
AcDbLine
 10
95.5826377235491
 20
126.8776464434394
 30
0.0
 11
95.30244006766656
 21
126.8776464434394
 31
0.0
  0
LINE
  5
22B
330
14D
100
AcDbEntity
  8
Sketch Geometry(DIN)
  6
Continuous
 62
     7
370
    18
100
AcDbLine
 10
95.48922405176055
 20
126.4440169183623
 30
0.0
 11
95.48922405176055
 21
125.9836519356054
 31
0.0
  0
LINE
  5
22C
330
14D
100
AcDbEntity
  8
Sketch Geometry(DIN)
  6
Continuous
 62
     7
370
    18
100
AcDbLine
 10
95.96959510031894
 20
125.9836519356054
 30
0.0
 11
95.5826377235491
 21
126.8776464434394
 31
0.0
  0
LINE
  5
22D
330
14D
100
AcDbEntity
  8
Sketch Geometry(DIN)
  6
Continuous
 62
     7
370
    18
100
AcDbLine
 10
106.5065913716826
 20
126.6493414177054
 30
0.0
 11
106.5065913716826
 21
126.4492027126165
 31
0.0
  0
LINE
  5
22E
330
14D
100
AcDbEntity
  8
Sketch Geometry(DIN)
  6
Continuous
 62
     7
370
    18
100
AcDbLine
 10
106.9469156010504
 20
126.6493414177054
 30
0.0
 11
106.5065913716826
 21
126.6493414177054
 31
0.0
  0
LINE
  5
22F
330
14D
100
AcDbEntity
  8
Sketch Geometry(ISO)
  6
Continuous
 62
     7
370
    25
100
AcDbLine
 10
89.59999999999999
 20
110.2741925130958
 30
0.0
 11
154.6
 21
110.2741925130957
 31
0.0
  0
MTEXT
  5
230
330
14D
100
AcDbEntity
  8
Symbols(ISO)
 62
     7
100
AcDbMText
 10
155.6
 20
144.5241925130958
 30
0.0
 40
1.49859994649887
 41
23.77876622243585
 71
     4
 72
     1
  1
Revision Description:
  7
Text__1.5mm
 73
     1
 44
1.0
  0
MTEXT
  5
231
330
14D
100
AcDbEntity
  8
Symbols(ISO)
 62
     7
100
AcDbMText
 10
91.09999999999997
 20
105.2368704004262
 30
0.0
 40
1.299999952316284
 41
62.47629165649414
 71
     4
 72
     1
  1
\fArial|b0|i0;These drawings and specifications are the property of NIRO-Plan AG and shall not be reproduced, copied or transfered to any third party without the prior written permission of NIRO-Plan AG, Aarburg, Switzerland
  7
Text__1.3mm
 73
     2
 44
0.9442214369773862
  0
MTEXT
  5
232
330
14D
100
AcDbEntity
  8
Symbols(ISO)
 62
     7
100
AcDbMText
 10
264.6
 20
108.7741925130957
 30
0.0
 40
1.49859994649887
 41
6.687050822926429
 71
     4
 72
     1
  1
\fArial|b0|i0;Rev.
  7
Text__1.5mm
 73
     1
 44
1.0
  0
MTEXT
  5
233
330
14D
100
AcDbEntity
  8
Symbols(ISO)
 62
     7
100
AcDbMText
 10
275.6
 20
108.7741925130957
 30
0.0
 40
1.49859994649887
 41
6.687050822926429
 71
     4
 72
     1
  1
\fArial|b0|i0;Sheet
  7
Text__1.5mm
 73
     1
 44
1.0
  0
MTEXT
  5
234
330
14D
100
AcDbEntity
  8
Symbols(ISO)
 62
     7
100
AcDbMText
 10
205.6
 20
108.7741925130957
 30
0.0
 40
1.49859994649887
 41
6.629477143287657
 71
     4
 72
     1
  1
\fArial|b0|i0;Format
  7
Text__1.5mm
 73
     1
 44
1.0
  0
MTEXT
  5
235
330
14D
100
AcDbEntity
  8
Symbols(ISO)
 62
     7
100
AcDbMText
 10
248.1
 20
137.0241925130958
 30
0.0
 40
1.49859994649887
 41
9.419934749603273
 71
     4
 72
     1
  1
EAN / UPC
  7
Text__1.5mm
 73
     1
 44
1.0
  0
MTEXT
  5
236
330
14D
100
AcDbEntity
  8
Symbols(ISO)
 62
     7
100
AcDbMText
 10
205.6
 20
144.3687682948396
 30
0.0
 40
1.49859994649887
 41
8.959617614746091
 71
     4
 72
     1
  1
Projection
  7
Text__1.5mm
 73
     1
 44
1.0
  0
MTEXT
  5
237
330
14D
100
AcDbEntity
  8
Symbols(ISO)
 62
     7
100
AcDbMText
 10
248.1
 20
144.3687682948396
 30
0.0
 40
1.49859994649887
 41
41.00067758866361
 71
     4
 72
     1
  1
Local part number (producing site)
  7
Text__1.5mm
 73
     1
 44
1.0
  0
MTEXT
  5
238
330
14D
100
AcDbEntity
  8
Symbols(ISO)
 62
     7
100
AcDbMText
 10
218.1
 20
108.7741925130957
 30
0.0
 40
1.49859994649887
 41
13.84170077910116
 71
     4
 72
     1
  1
Drawing number
  7
Text__1.5mm
 73
     1
 44
1.0
  0
MTEXT
  5
239
330
14D
100
AcDbEntity
  8
Symbols(ISO)
 62
     7
100
AcDbMText
 10
205.6
 20
137.0241925130958
 30
0.0
 40
1.49859994649887
 41
16.71329739486093
 71
     4
 72
     1
  1
WS global number
  7
Text__1.5mm
 73
     1
 44
1.0
  0
MTEXT
  5
23A
330
14D
100
AcDbEntity
  8
Symbols(ISO)
 62
     7
100
AcDbMText
 10
283.1
 20
108.7741925130957
 30
0.0
 40
1.49859994649887
 41
6.687050822926429
 71
     4
 72
     1
  1
Sheets
  7
Text__1.5mm
 73
     1
 44
1.0
  0
MTEXT
  5
23B
330
14D
100
AcDbEntity
  8
Symbols(ISO)
 62
     7
100
AcDbMText
 10
91.09999999999997
 20
116.4337326665147
 30
0.0
 40
2.000000029802321
 41
51.58130403925818
 71
     4
 72
     1
  1
\fArial|b0|i0;\H2.0000;Franke Washroom Systems\PE-Mail: ws-info.int@franke.com\PInternet: www.franke.com
  7
Text__1.3mm
 73
     2
 44
0.9442214369773862
  0
MTEXT
  5
23C
330
14D
100
AcDbEntity
  8
Symbols(ISO)
 62
     7
100
AcDbMText
 10
90.6
 20
144.5241925130958
 30
0.0
 40
1.49859994649887
 41
8.959617614746091
 71
     4
 72
     1
  1
Drawn by
  7
Text__1.5mm
 73
     1
 44
1.0
  0
MTEXT
  5
23D
330
14D
100
AcDbEntity
  8
Symbols(ISO)
 62
     7
100
AcDbMText
 10
90.6
 20
137.0241925130958
 30
0.0
 40
1.49859994649887
 41
9.318276643753053
 71
     4
 72
     1
  1
Revised by
  7
Text__1.5mm
 73
     1
 44
1.0
  0
MTEXT
  5
23E
330
14D
100
AcDbEntity
  8
Symbols(ISO)
 62
     7
100
AcDbMText
 10
135.6
 20
137.0241925130958
 30
0.0
 40
1.49859994649887
 41
12.0866436953507
 71
     4
 72
     1
  1
Revision date
  7
Text__1.5mm
 73
     1
 44
1.0
  0
MTEXT
  5
23F
330
14D
100
AcDbEntity
  8
Symbols(ISO)
 62
     7
100
AcDbMText
 10
135.6
 20
144.5241925130958
 30
0.0
 40
1.49859994649887
 41
12.73810746214334
 71
     4
 72
     1
  1
Creation date
  7
Text__1.5mm
 73
     1
 44
1.0
  0
MTEXT
  5
240
330
14D
100
AcDbEntity
  8
Symbols(ISO)
 62
     7
100
AcDbMText
 10
110.6
 20
144.5241925130958
 30
0.0
 40
1.49859994649887
 41
10.88769435882568
 71
     4
 72
     1
  1
Departement
  7
Text__1.5mm
 73
     1
 44
1.0
  0
MTEXT
  5
241
330
14D
100
AcDbEntity
  8
Symbols(ISO)
 62
     7
100
AcDbMText
 10
110.6
 20
137.0241925130958
 30
0.0
 40
1.49859994649887
 41
13.53864551460898
 71
     4
 72
     1
  1
Departement
  7
Text__1.5mm
 73
     1
 44
1.0
  0
ATTDEF
  5
243
102
{ACAD_XDICTIONARY
360
CA2
102
}
330
14D
100
AcDbEntity
  8
Symbols(ISO)
 62
     7
100
AcDbText
 10
206.2282401091405
 20
123.5241925130958
 30
0.0
 40
5.0
  1
Guardian WHB
  7
Text Style20
100
AcDbAttributeDefinition
  3
Title
  2
Title_001
 70
     0
  0
ATTDEF
  5
245
102
{ACAD_XDICTIONARY
360
CA5
102
}
330
14D
100
AcDbEntity
  8
Symbols(ISO)
 62
     7
100
AcDbText
 10
206.2275579872431
 20
118.2600383736419
 30
0.0
 40
3.499999940395355
  1
No Tapholes
  7
Text Style9
100
AcDbAttributeDefinition
  3
Auxiliary_Remark1
  2
Auxiliary_Remark1_001
 70
     0
  0
ATTDEF
  5
246
102
{ACAD_XDICTIONARY
360
CA8
102
}
330
14D
100
AcDbEntity
  8
Symbols(ISO)
 62
     7
100
AcDbText
 10
206.6
 20
111.2741925428981
 30
0.0
 40
3.499999940395355
  1

  7
Text Style9
 11
206.6
 21
113.0241925130958
 31
0.0
100
AcDbAttributeDefinition
  3
Auxiliary_Remark2
  2
Auxiliary_Remark2
 70
     0
 74
     2
  0
ATTDEF
  5
248
102
{ACAD_XDICTIONARY
360
CAB
102
}
330
14D
100
AcDbEntity
  8
Symbols(ISO)
 62
     7
100
AcDbText
 10
247.8203274215553
 20
139.7903930587984
 30
0.0
 40
2.5
  1
HDTX450
  7
Text Style38
100
AcDbAttributeDefinition
  3
Part_number
  2
Part_number_001
 70
     0
  0
ATTDEF
  5
249
102
{ACAD_XDICTIONARY
360
CAE
102
}
330
14D
100
AcDbEntity
  8
Symbols(ISO)
 62
     7
100
AcDbText
 10
217.8100954979536
 20
101.8082989251011
 30
0.0
 40
5.0
  1
0093-123073
  7
Text Style20
100
AcDbAttributeDefinition
  3
Document_Number
  2
Document_Number_001
 70
     0
  0
ATTDEF
  5
24B
102
{ACAD_XDICTIONARY
360
CB1
102
}
330
14D
100
AcDbEntity
  8
Symbols(ISO)
 62
     7
100
AcDbText
 10
155.6
 20
136.0241924832935
 30
0.0
 40
2.000000029802321
  1

  7
Text Style40
 11
155.6
 21
138.0241925130958
 31
0.0
100
AcDbAttributeDefinition
  3
Revision_Memo_1
  2
Revision_Memo_1
 70
     0
 74
     3
  0
ATTDEF
  5
24C
102
{ACAD_XDICTIONARY
360
CB4
102
}
330
14D
100
AcDbEntity
  8
Symbols(ISO)
 62
     7
100
AcDbText
 10
264.2521145975443
 20
101.7741925130957
 30
0.0
 40
5.0
  1
C
  7
Text Style20
100
AcDbAttributeDefinition
  3
Revision_Index_1
  2
Revision_Index_1_001
 70
     0
  0
ATTDEF
  5
24D
102
{ACAD_XDICTIONARY
360
CB7
102
}
330
14D
100
AcDbEntity
  8
Symbols(ISO)
 62
     7
100
AcDbText
 10
205.6
 20
101.7741925130957
 30
0.0
 40
5.0
  1
A4
  7
Text Style20
100
AcDbAttributeDefinition
  3
Sheet Size
  2
Sheet_Size_001
 70
     0
  0
ATTDEF
  5
24E
102
{ACAD_XDICTIONARY
360
CBA
102
}
330
14D
100
AcDbEntity
  8
Symbols(ISO)
 62
     7
100
AcDbText
 10
90.46084583694417
 20
140.0248746264449
 30
0.0
 40
2.000000029802321
  1
CJ036
  7
Text Style40
100
AcDbAttributeDefinition
  3
Drawn_By
  2
Drawn_By_001
 70
     0
  0
ATTDEF
  5
24F
102
{ACAD_XDICTIONARY
360
CBD
102
}
330
14D
100
AcDbEntity
  8
Symbols(ISO)
 62
     7
100
AcDbText
 10
90.46084583694417
 20
132.5248746264449
 30
0.0
 40
2.000000029802321
  1
CJ036
  7
Text Style40
100
AcDbAttributeDefinition
  3
Modified_By
  2
Modified_By_001
 70
     0
  0
ATTDEF
  5
250
102
{ACAD_XDICTIONARY
360
CC0
102
}
330
14D
100
AcDbEntity
  8
Symbols(ISO)
 62
     7
100
AcDbText
 10
135.2957708003779
 20
140.0241924981946
 30
0.0
 40
2.000000029802321
  1
16/02/2010
  7
Text Style40
100
AcDbAttributeDefinition
  3
Drawn_Date
  2
Drawn_Date_001
 70
     0
  0
ATTDEF
  5
251
102
{ACAD_XDICTIONARY
360
CC3
102
}
330
14D
100
AcDbEntity
  8
Symbols(ISO)
 62
     7
100
AcDbText
 10
135.5181446099671
 20
132.5241924981946
 30
0.0
 40
2.000000029802321
  1
27/05/2011
  7
Text Style40
100
AcDbAttributeDefinition
  3
Modified_Date
  2
Modified_Date_001
 70
     0
  0
ATTDEF
  5
252
102
{ACAD_XDICTIONARY
360
CC6
102
}
330
14D
100
AcDbEntity
  8
Symbols(ISO)
 62
     7
100
AcDbText
 10
155.6
 20
140.0241924981946
 30
0.0
 40
2.000000029802321
  1

  7
Text Style40
 11
155.6
 21
141.0241925130958
 31
0.0
100
AcDbAttributeDefinition
  3
Revision_Titel_1
  2
Revision_Titel_1
 70
     0
 74
     2
  0
ATTDEF
  5
253
102
{ACAD_XDICTIONARY
360
CC9
102
}
330
14D
100
AcDbEntity
  8
Symbols(ISO)
 62
     7
100
AcDbText
 10
276.8366984993179
 20
101.763960589494
 30
0.0
 40
5.0
  1
1
 41
0.9
  7
Text__5.0mm
100
AcDbAttributeDefinition
  3
Sheet number
  2
Sheet_number_001
 70
     0
  0
ATTDEF
  5
254
102
{ACAD_XDICTIONARY
360
CCC
102
}
330
14D
100
AcDbEntity
  8
Symbols(ISO)
 62
     7
100
AcDbText
 10
284.2139154160983
 20
101.7741925130957
 30
0.0
 40
5.0
  1
4
 41
0.9
  7
Text__5.0mm
100
AcDbAttributeDefinition
  3
Number of sheets
  2
Number_of_sheets_001
 70
     0
  0
ATTDEF
  5
255
102
{ACAD_XDICTIONARY
360
CCF
102
}
330
14D
100
AcDbEntity
  8
Symbols(ISO)
 62
     7
100
AcDbText
 10
205.6
 20
132.2741925130958
 30
0.0
 40
2.5
  1

  7
Text Style38
 11
205.6
 21
133.5241925130958
 31
0.0
100
AcDbAttributeDefinition
  3
FUN
  2
FUN
 70
     0
 74
     2
  0
ATTDEF
  5
256
102
{ACAD_XDICTIONARY
360
CD2
102
}
330
14D
100
AcDbEntity
  8
Symbols(ISO)
 62
     7
100
AcDbText
 10
247.9345839017735
 20
132.2903930587984
 30
0.0
 40
2.5
  1
7612210016790
  7
Text Style38
100
AcDbAttributeDefinition
  3
EAN
  2
EAN_001
 70
     0
  0
ATTDEF
  5
257
102
{ACAD_XDICTIONARY
360
CD5
102
}
330
14D
100
AcDbEntity
  8
Symbols(ISO)
 62
     7
100
AcDbText
 10
110.370804907908
 20
132.8011365678057
 30
0.0
 40
2.000000029802321
  1
FSI-Marketing
  7
Text Style40
100
AcDbAttributeDefinition
  3
Departement
  2
Departement_001
 70
     0
  0
ATTDEF
  5
258
102
{ACAD_XDICTIONARY
360
CD8
102
}
330
14D
100
AcDbEntity
  8
Symbols(ISO)
 62
     7
100
AcDbText
 10
110.370804907908
 20
140.3011365678057
 30
0.0
 40
2.000000029802321
  1
FSI-Marketing
  7
Text Style40
100
AcDbAttributeDefinition
  3
Departement
  2
Departement_001
 70
     0
  0
ENDBLK
  5
14F
330
14D
100
AcDbEntity
  8
0
100
AcDbBlockEnd
  0
BLOCK
  5
26F
330
26E
100
AcDbEntity
  8
0
100
AcDbBlockBegin
  2
Borders Verkauf Border_85x80
 70
     0
 10
0.0
 20
0.0
 30
0.0
  3
Borders Verkauf Border_85x80
  1

  0
LINE
  5
271
330
26E
100
AcDbEntity
  8
Phantom Lines(ISO)
100
AcDbLine
 10
20.00000000000014
 20
228.0000000000001
 30
0.0
 11
190.0
 21
228.0000000000001
 31
0.0
  0
LINE
  5
272
330
26E
100
AcDbEntity
  8
Phantom Lines(ISO)
100
AcDbLine
 10
190.0
 20
228.0000000000001
 30
0.0
 11
190.0
 21
68.00000000000004
 31
0.0
  0
LINE
  5
273
330
26E
100
AcDbEntity
  8
Phantom Lines(ISO)
100
AcDbLine
 10
190.0
 20
68.00000000000003
 30
0.0
 11
20.0
 21
68.00000000000003
 31
0.0
  0
LINE
  5
274
330
26E
100
AcDbEntity
  8
Phantom Lines(ISO)
100
AcDbLine
 10
20.0
 20
68.00000000000003
 30
0.0
 11
20.00000000000014
 21
228.0000000000001
 31
0.0
  0
LINE
  5
275
330
26E
100
AcDbEntity
  8
Sketch Geometry(ISO)
100
AcDbLine
 10
204.9999999999999
 20
292.0
 30
0.0
 11
5.0
 21
292.0
 31
0.0
  0
LINE
  5
276
330
26E
100
AcDbEntity
  8
Sketch Geometry(ISO)
100
AcDbLine
 10
4.999999999999981
 20
292.0
 30
0.0
 11
5.000000000000006
 21
5.0
 31
0.0
  0
LINE
  5
277
330
26E
100
AcDbEntity
  8
Sketch Geometry(ISO)
100
AcDbLine
 10
5.000000000000006
 20
5.0
 30
0.0
 11
205.0
 21
5.0
 31
0.0
  0
LINE
  5
278
330
26E
100
AcDbEntity
  8
Sketch Geometry(ISO)
100
AcDbLine
 10
205.0
 20
5.0
 30
0.0
 11
204.9999999999999
 21
292.0
 31
0.0
  0
ENDBLK
  5
270
330
26E
100
AcDbEntity
  8
0
100
AcDbBlockEnd
  0
BLOCK
  5
3FF
330
3FE
100
AcDbEntity
  8
0
100
AcDbBlockBegin
  2
*D11
 70
     1
 10
0.0
 20
0.0
 30
0.0
  3
*D11
  1

  0
LINE
  5
4DD
330
3FE
100
AcDbEntity
  8
Bemaßungen(DIN)
  6
Continuous
 62
     7
370
    25
100
AcDbLine
 10
827.2658390926451
 20
1538.082503829394
 30
0.0
 11
827.2658390926451
 21
1592.030033195088
 31
0.0
  0
LINE
  5
4DE
330
3FE
100
AcDbEntity
  8
Bemaßungen(DIN)
  6
Continuous
 62
     7
370
    25
100
AcDbLine
 10
945.7658390926438
 20
1539.082503829393
 30
0.0
 11
945.7658390926438
 21
1592.030033195088
 31
0.0
  0
LINE
  5
4DF
330
3FE
100
AcDbEntity
  8
Bemaßungen(DIN)
  6
Continuous
 62
     7
370
    25
100
AcDbLine
 10
855.837267664074
 20
1577.744318909374
 30
0.0
 11
917.1944105212151
 21
1577.744318909374
 31
0.0
  0
LINE
  5
4E0
330
3FE
100
AcDbEntity
  8
Bemaßungen(DIN)
  6
Continuous
 62
     7
370
    25
100
AcDbLine
 10
945.7658390926438
 20
1577.744318909374
 30
0.0
 11
974.3372676640724
 21
1577.744318909374
 31
0.0
  0
SOLID
  5
4E1
330
3FE
100
AcDbEntity
  8
Bemaßungen(DIN)
  6
Continuous
 62
     7
100
AcDbTrace
 10
855.837267664074
 20
1582.506223671279
 30
0.0
 11
855.837267664074
 21
1572.982414147469
 31
0.0
 12
827.2658390926451
 22
1577.744318909374
 32
0.0
 13
827.2658390926451
 23
1577.744318909374
 33
0.0
  0
SOLID
  5
4E2
330
3FE
100
AcDbEntity
  8
Bemaßungen(DIN)
  6
Continuous
 62
     7
100
AcDbTrace
 10
917.1944105212151
 20
1582.506223671279
 30
0.0
 11
917.1944105212151
 21
1572.982414147469
 31
0.0
 12
945.7658390926438
 22
1577.744318909374
 32
0.0
 13
945.7658390926438
 23
1577.744318909374
 33
0.0
  0
MTEXT
  5
4E3
330
3FE
100
AcDbEntity
  8
Bemaßungen(DIN)
  6
Continuous
 62
     7
370
    30
100
AcDbMText
 10
981.4801248069297
 20
1577.744318909374
 30
0.0
 40
28.57142857142857
 41
0.0
 71
     4
 72
     1
  1
\A1; \fArial|b0|i0;\H28.5714; 280 max
  7
Text__4.0mm
 73
     1
 44
1.0
  0
POINT
  5
4E4
330
3FE
100
AcDbEntity
  8
Defpoints
  6
Continuous
 62
     0
100
AcDbPoint
 10
827.2658390926451
 20
1523.796789543679
 30
0.0
  0
POINT
  5
4E5
330
3FE
100
AcDbEntity
  8
Defpoints
  6
Continuous
 62
     0
100
AcDbPoint
 10
945.7658390926438
 20
1524.796789543679
 30
0.0
  0
POINT
  5
4E6
330
3FE
100
AcDbEntity
  8
Defpoints
  6
Continuous
 62
     0
100
AcDbPoint
 10
945.7658390926438
 20
1577.744318909374
 30
0.0
  0
ENDBLK
  5
400
330
3FE
100
AcDbEntity
  8
0
100
AcDbBlockEnd
  0
BLOCK
  5
4E9
330
4E8
100
AcDbEntity
  8
0
100
AcDbBlockBegin
  2
*D12
 70
     1
 10
0.0
 20
0.0
 30
0.0
  3
*D12
  1

  0
LINE
  5
5C7
330
4E8
100
AcDbEntity
  8
Bemaßungen(DIN)
  6
Continuous
 62
     7
370
    25
100
AcDbLine
 10
221.7970907800321
 20
926.966811971344
 30
0.0
 11
221.7970907800321
 21
1004.435590301253
 31
0.0
  0
LINE
  5
5C8
330
4E8
100
AcDbEntity
  8
Bemaßungen(DIN)
  6
Continuous
 62
     7
370
    25
100
AcDbLine
 10
671.7970907800321
 20
926.9668119713443
 30
0.0
 11
671.7970907800321
 21
1004.435590301253
 31
0.0
  0
LINE
  5
5C9
330
4E8
100
AcDbEntity
  8
Bemaßungen(DIN)
  6
Continuous
 62
     7
370
    25
100
AcDbLine
 10
250.3685193514607
 20
990.1498760155387
 30
0.0
 11
410.7738991849362
 21
990.1498760155387
 31
0.0
  0
LINE
  5
5CA
330
4E8
100
AcDbEntity
  8
Bemaßungen(DIN)
  6
Continuous
 62
     7
370
    25
100
AcDbLine
 10
643.2256622086034
 20
990.1498760155387
 30
0.0
 11
482.8202823751283
 21
990.1498760155387
 31
0.0
  0
SOLID
  5
5CB
330
4E8
100
AcDbEntity
  8
Bemaßungen(DIN)
  6
Continuous
 62
     7
100
AcDbTrace
 10
250.3685193514607
 20
994.9117807774436
 30
0.0
 11
250.3685193514607
 21
985.387971253634
 31
0.0
 12
221.7970907800321
 22
990.1498760155387
 32
0.0
 13
221.7970907800321
 23
990.1498760155387
 33
0.0
  0
SOLID
  5
5CC
330
4E8
100
AcDbEntity
  8
Bemaßungen(DIN)
  6
Continuous
 62
     7
100
AcDbTrace
 10
643.2256622086034
 20
994.9117807774436
 30
0.0
 11
643.2256622086034
 21
985.387971253634
 31
0.0
 12
671.7970907800321
 22
990.1498760155387
 32
0.0
 13
671.7970907800321
 23
990.1498760155387
 33
0.0
  0
MTEXT
  5
5CD
330
4E8
100
AcDbEntity
  8
Bemaßungen(DIN)
  6
Continuous
 62
     7
370
    30
100
AcDbMText
 10
417.9167563277933
 20
990.1498760155387
 30
0.0
 40
28.57142857142857
 41
0.0
 71
     4
 72
     1
  1
\A1;450
  7
Text__4.0mm
 73
     1
 44
1.0
  0
POINT
  5
5CE
330
4E8
100
AcDbEntity
  8
Defpoints
  6
Continuous
 62
     0
100
AcDbPoint
 10
221.7970907800321
 20
912.6810976856296
 30
0.0
  0
POINT
  5
5CF
330
4E8
100
AcDbEntity
  8
Defpoints
  6
Continuous
 62
     0
100
AcDbPoint
 10
671.7970907800321
 20
912.6810976856296
 30
0.0
  0
POINT
  5
5D0
330
4E8
100
AcDbEntity
  8
Defpoints
  6
Continuous
 62
     0
100
AcDbPoint
 10
671.7970907800321
 20
990.1498760155387
 30
0.0
  0
ENDBLK
  5
4EA
330
4E8
100
AcDbEntity
  8
0
100
AcDbBlockEnd
  0
BLOCK
  5
5D3
330
5D2
100
AcDbEntity
  8
0
100
AcDbBlockBegin
  2
*D13
 70
     1
 10
0.0
 20
0.0
 30
0.0
  3
*D13
  1

  0
LINE
  5
6B7
330
5D2
100
AcDbEntity
  8
Bemaßungen(DIN)
  6
Continuous
 62
     7
370
    25
100
AcDbLine
 10
220.5113764946557
 20
1524.796789543679
 30
0.0
 11
173.6951672939512
 21
1524.796789543679
 31
0.0
  0
LINE
  5
6B8
330
5D2
100
AcDbEntity
  8
Bemaßungen(DIN)
  6
Continuous
 62
     7
370
    25
100
AcDbLine
 10
432.2772218987338
 20
1244.796789543679
 30
0.0
 11
173.6951672939511
 21
1244.796789543679
 31
0.0
  0
LINE
  5
6B9
330
5D2
100
AcDbEntity
  8
Bemaßungen(DIN)
  6
Continuous
 62
     7
370
    25
100
AcDbLine
 10
187.9808815796654
 20
1496.225360972251
 30
0.0
 11
187.9808815796654
 21
1406.527446335728
 31
0.0
  0
LINE
  5
6BA
330
5D2
100
AcDbEntity
  8
Bemaßungen(DIN)
  6
Continuous
 62
     7
370
    25
100
AcDbLine
 10
187.9808815796654
 20
1273.368218115108
 30
0.0
 11
187.9808815796654
 21
1363.066132751631
 31
0.0
  0
SOLID
  5
6BB
330
5D2
100
AcDbEntity
  8
Bemaßungen(DIN)
  6
Continuous
 62
     7
100
AcDbTrace
 10
183.2189768177607
 20
1496.225360972251
 30
0.0
 11
192.7427863415702
 21
1496.225360972251
 31
0.0
 12
187.9808815796654
 22
1524.796789543679
 32
0.0
 13
187.9808815796654
 23
1524.796789543679
 33
0.0
  0
SOLID
  5
6BC
330
5D2
100
AcDbEntity
  8
Bemaßungen(DIN)
  6
Continuous
 62
     7
100
AcDbTrace
 10
183.2189768177606
 20
1273.368218115108
 30
0.0
 11
192.7427863415701
 21
1273.368218115108
 31
0.0
 12
187.9808815796654
 22
1244.796789543679
 32
0.0
 13
187.9808815796654
 23
1244.796789543679
 33
0.0
  0
MTEXT
  5
6BD
330
5D2
100
AcDbEntity
  8
Bemaßungen(DIN)
  6
Continuous
 62
     7
370
    30
100
AcDbMText
 10
159.398734607346
 20
1384.796789543679
 30
0.0
 40
28.57142857142857
 41
0.0
 71
     4
 72
     1
  1
\A1;280
  7
Text__4.0mm
 73
     1
 44
1.0
  0
POINT
  5
6BE
330
5D2
100
AcDbEntity
  8
Defpoints
  6
Continuous
 62
     0
100
AcDbPoint
 10
234.79709078037
 20
1524.796789543679
 30
0.0
  0
POINT
  5
6BF
330
5D2
100
AcDbEntity
  8
Defpoints
  6
Continuous
 62
     0
100
AcDbPoint
 10
446.5629361844482
 20
1244.796789543679
 30
0.0
  0
POINT
  5
6C0
330
5D2
100
AcDbEntity
  8
Defpoints
  6
Continuous
 62
     0
100
AcDbPoint
 10
187.9808815796654
 20
1244.796789543679
 30
0.0
  0
ENDBLK
  5
5D4
330
5D2
100
AcDbEntity
  8
0
100
AcDbBlockEnd
  0
BLOCK
  5
6C3
330
6C2
100
AcDbEntity
  8
0
100
AcDbBlockBegin
  2
*D14
 70
     1
 10
0.0
 20
0.0
 30
0.0
  3
*D14
  1

  0
LINE
  5
7A7
330
6C2
100
AcDbEntity
  8
Bemaßungen(DIN)
  6
Continuous
 62
     7
370
    25
100
AcDbLine
 10
207.5113764943179
 20
912.6810976856315
 30
0.0
 11
168.8997337624004
 21
912.6810976856315
 31
0.0
  0
LINE
  5
7A8
330
6C2
100
AcDbEntity
  8
Bemaßungen(DIN)
  6
Continuous
 62
     7
370
    25
100
AcDbLine
 10
387.5113764943179
 20
512.6810976856297
 30
0.0
 11
168.8997337624003
 21
512.6810976856297
 31
0.0
  0
LINE
  5
7A9
330
6C2
100
AcDbEntity
  8
Bemaßungen(DIN)
  6
Continuous
 62
     7
370
    25
100
AcDbLine
 10
183.1854480481147
 20
884.1096691142029
 30
0.0
 11
183.1854480481147
 21
734.4117544776786
 31
0.0
  0
LINE
  5
7AA
330
6C2
100
AcDbEntity
  8
Bemaßungen(DIN)
  6
Continuous
 62
     7
370
    25
100
AcDbLine
 10
183.1854480481146
 20
541.2525262570583
 30
0.0
 11
183.1854480481147
 21
690.9504408935823
 31
0.0
  0
SOLID
  5
7AB
330
6C2
100
AcDbEntity
  8
Bemaßungen(DIN)
  6
Continuous
 62
     7
100
AcDbTrace
 10
178.4235432862099
 20
884.1096691142029
 30
0.0
 11
187.9473528100195
 21
884.1096691142029
 31
0.0
 12
183.1854480481147
 22
912.6810976856315
 32
0.0
 13
183.1854480481147
 23
912.6810976856315
 33
0.0
  0
SOLID
  5
7AC
330
6C2
100
AcDbEntity
  8
Bemaßungen(DIN)
  6
Continuous
 62
     7
100
AcDbTrace
 10
178.4235432862099
 20
541.2525262570583
 30
0.0
 11
187.9473528100194
 21
541.2525262570583
 31
0.0
 12
183.1854480481146
 22
512.6810976856297
 32
0.0
 13
183.1854480481146
 23
512.6810976856297
 33
0.0
  0
MTEXT
  5
7AD
330
6C2
100
AcDbEntity
  8
Bemaßungen(DIN)
  6
Continuous
 62
     7
370
    30
100
AcDbMText
 10
154.3051135958755
 20
712.6810976856305
 30
0.0
 40
28.57142857142857
 41
0.0
 71
     4
 72
     1
  1
\A1;400
  7
Text__4.0mm
 73
     1
 44
1.0
  0
POINT
  5
7AE
330
6C2
100
AcDbEntity
  8
Defpoints
  6
Continuous
 62
     0
100
AcDbPoint
 10
221.7970907800321
 20
912.6810976856315
 30
0.0
  0
POINT
  5
7AF
330
6C2
100
AcDbEntity
  8
Defpoints
  6
Continuous
 62
     0
100
AcDbPoint
 10
401.7970907800322
 20
512.6810976856297
 30
0.0
  0
POINT
  5
7B0
330
6C2
100
AcDbEntity
  8
Defpoints
  6
Continuous
 62
     0
100
AcDbPoint
 10
183.1854480481146
 20
512.6810976856297
 30
0.0
  0
ENDBLK
  5
6C4
330
6C2
100
AcDbEntity
  8
0
100
AcDbBlockEnd
  0
BLOCK
  5
7B9
330
7B8
100
AcDbEntity
  8
0
100
AcDbBlockBegin
  2
*D15
 70
     1
 10
0.0
 20
0.0
 30
0.0
  3
*D15
  1

  0
LINE
  5
897
330
7B8
100
AcDbEntity
  8
Bemaßungen(DIN)
  6
Continuous
 62
     7
370
    25
100
AcDbLine
 10
301.7970907803698
 20
1520.939646686536
 30
0.0
 11
301.7970907803698
 21
1597.563221938041
 31
0.0
  0
LINE
  5
898
330
7B8
100
AcDbEntity
  8
Bemaßungen(DIN)
  6
Continuous
 62
     7
370
    25
100
AcDbLine
 10
591.7970907803699
 20
1520.939646686536
 30
0.0
 11
591.7970907803699
 21
1597.563221938041
 31
0.0
  0
LINE
  5
899
330
7B8
100
AcDbEntity
  8
Bemaßungen(DIN)
  6
Continuous
 62
     7
370
    25
100
AcDbLine
 10
330.3685193517984
 20
1583.277507652327
 30
0.0
 11
411.0720866651936
 21
1583.277507652327
 31
0.0
  0
LINE
  5
89A
330
7B8
100
AcDbEntity
  8
Bemaßungen(DIN)
  6
Continuous
 62
     7
370
    25
100
AcDbLine
 10
563.2256622089412
 20
1583.277507652327
 30
0.0
 11
482.522094895546
 21
1583.277507652327
 31
0.0
  0
SOLID
  5
89B
330
7B8
100
AcDbEntity
  8
Bemaßungen(DIN)
  6
Continuous
 62
     7
100
AcDbTrace
 10
330.3685193517984
 20
1588.039412414231
 30
0.0
 11
330.3685193517984
 21
1578.515602890422
 31
0.0
 12
301.7970907803698
 22
1583.277507652327
 32
0.0
 13
301.7970907803698
 23
1583.277507652327
 33
0.0
  0
SOLID
  5
89C
330
7B8
100
AcDbEntity
  8
Bemaßungen(DIN)
  6
Continuous
 62
     7
100
AcDbTrace
 10
563.2256622089412
 20
1588.039412414231
 30
0.0
 11
563.2256622089412
 21
1578.515602890422
 31
0.0
 12
591.7970907803699
 22
1583.277507652327
 32
0.0
 13
591.7970907803699
 23
1583.277507652327
 33
0.0
  0
MTEXT
  5
89D
330
7B8
100
AcDbEntity
  8
Bemaßungen(DIN)
  6
Continuous
 62
     7
370
    30
100
AcDbMText
 10
418.2149438080506
 20
1583.277507652327
 30
0.0
 40
28.57142857142857
 41
0.0
 71
     4
 72
     1
  1
\A1;290
  7
Text__4.0mm
 73
     1
 44
1.0
  0
POINT
  5
89E
330
7B8
100
AcDbEntity
  8
Defpoints
  6
Continuous
 62
     0
100
AcDbPoint
 10
301.7970907803698
 20
1506.653932400822
 30
0.0
  0
POINT
  5
89F
330
7B8
100
AcDbEntity
  8
Defpoints
  6
Continuous
 62
     0
100
AcDbPoint
 10
591.7970907803699
 20
1506.653932400822
 30
0.0
  0
POINT
  5
8A0
330
7B8
100
AcDbEntity
  8
Defpoints
  6
Continuous
 62
     0
100
AcDbPoint
 10
591.7970907803699
 20
1583.277507652327
 30
0.0
  0
ENDBLK
  5
7BA
330
7B8
100
AcDbEntity
  8
0
100
AcDbBlockEnd
  0
BLOCK
  5
8A3
330
8A2
100
AcDbEntity
  8
0
100
AcDbBlockBegin
  2
*D16
 70
     1
 10
0.0
 20
0.0
 30
0.0
  3
*D16
  1

  0
LINE
  5
987
330
8A2
100
AcDbEntity
  8
Bemaßungen(DIN)
  6
Continuous
 62
     7
370
    25
100
AcDbLine
 10
628.939947923227
 20
1483.796789543679
 30
0.0
 11
700.3685193517987
 21
1483.796789543679
 31
0.0
  0
LINE
  5
988
330
8A2
100
AcDbEntity
  8
Bemaßungen(DIN)
  6
Continuous
 62
     7
370
    25
100
AcDbLine
 10
483.939947923227
 20
1283.796789543679
 30
0.0
 11
700.3685193517987
 21
1283.796789543679
 31
0.0
  0
LINE
  5
989
330
8A2
100
AcDbEntity
  8
Bemaßungen(DIN)
  6
Continuous
 62
     7
370
    25
100
AcDbLine
 10
686.0828050660842
 20
1455.22536097225
 30
0.0
 11
686.0828050660842
 21
1405.527446335726
 31
0.0
  0
LINE
  5
98A
330
8A2
100
AcDbEntity
  8
Bemaßungen(DIN)
  6
Continuous
 62
     7
370
    25
100
AcDbLine
 10
686.0828050660842
 20
1312.368218115108
 30
0.0
 11
686.0828050660842
 21
1362.06613275163
 31
0.0
  0
SOLID
  5
98B
330
8A2
100
AcDbEntity
  8
Bemaßungen(DIN)
  6
Continuous
 62
     7
100
AcDbTrace
 10
681.3209003041795
 20
1455.22536097225
 30
0.0
 11
690.8447098279891
 21
1455.22536097225
 31
0.0
 12
686.0828050660842
 22
1483.796789543679
 32
0.0
 13
686.0828050660842
 23
1483.796789543679
 33
0.0
  0
SOLID
  5
98C
330
8A2
100
AcDbEntity
  8
Bemaßungen(DIN)
  6
Continuous
 62
     7
100
AcDbTrace
 10
681.3209003041795
 20
1312.368218115108
 30
0.0
 11
690.8447098279891
 21
1312.368218115108
 31
0.0
 12
686.0828050660842
 22
1283.796789543679
 32
0.0
 13
686.0828050660842
 23
1283.796789543679
 33
0.0
  0
MTEXT
  5
98D
330
8A2
100
AcDbEntity
  8
Bemaßungen(DIN)
  6
Continuous
 62
     7
370
    30
100
AcDbMText
 10
657.5006580937651
 20
1383.796789543679
 30
0.0
 40
28.57142857142857
 41
0.0
 71
     4
 72
     1
  1
\A1;200
  7
Text__4.0mm
 73
     1
 44
1.0
  0
POINT
  5
98E
330
8A2
100
AcDbEntity
  8
Defpoints
  6
Continuous
 62
     0
100
AcDbPoint
 10
614.6542336375127
 20
1483.796789543679
 30
0.0
  0
POINT
  5
98F
330
8A2
100
AcDbEntity
  8
Defpoints
  6
Continuous
 62
     0
100
AcDbPoint
 10
469.6542336375126
 20
1283.796789543679
 30
0.0
  0
POINT
  5
990
330
8A2
100
AcDbEntity
  8
Defpoints
  6
Continuous
 62
     0
100
AcDbPoint
 10
686.0828050660842
 20
1283.796789543679
 30
0.0
  0
ENDBLK
  5
8A4
330
8A2
100
AcDbEntity
  8
0
100
AcDbBlockEnd
  0
BLOCK
  5
993
330
992
100
AcDbEntity
  8
0
100
AcDbBlockBegin
  2
*D17
 70
     1
 10
0.0
 20
0.0
 30
0.0
  3
*D17
  1

  0
LINE
  5
A91
330
992
100
AcDbEntity
  8
Bemaßungen(DIN)
  6
Continuous
 62
     7
370
    25
100
AcDbLine
 10
628.939947923227
 20
1483.796789543679
 30
0.0
 11
645.7631797625896
 21
1483.796789543679
 31
0.0
  0
LINE
  5
A92
330
992
100
AcDbEntity
  8
Bemaßungen(DIN)
  6
Continuous
 62
     7
370
    25
100
AcDbLine
 10
644.5113764946555
 20
1524.796789543679
 30
0.0
 11
617.1917511911608
 21
1524.796789543679
 31
0.0
  0
LINE
  5
A93
330
992
100
AcDbEntity
  8
Bemaßungen(DIN)
  6
Continuous
 62
     7
370
    25
100
AcDbLine
 10
631.4774654768751
 20
1455.22536097225
 30
0.0
 11
631.4774654768751
 21
1426.653932400822
 31
0.0
  0
LINE
  5
A94
330
992
100
AcDbEntity
  8
Bemaßungen(DIN)
  6
Continuous
 62
     7
370
    25
100
AcDbLine
 10
631.4774654768751
 20
1553.368218115108
 30
0.0
 11
631.4774654768751
 21
1586.424281360138
 31
0.0
  0
LINE
  5
A95
330
992
100
AcDbEntity
  8
Bemaßungen(DIN)
  6
Continuous
 62
     7
370
    25
100
AcDbLine
 10
631.4774654768751
 20
1586.424281360138
 30
0.0
 11
660.0488940483037
 21
1586.424281360138
 31
0.0
  0
SOLID
  5
A96
330
992
100
AcDbEntity
  8
Bemaßungen(DIN)
  6
Continuous
 62
     7
100
AcDbTrace
 10
626.7155607149703
 20
1455.22536097225
 30
0.0
 11
636.2393702387801
 21
1455.22536097225
 31
0.0
 12
631.4774654768751
 22
1483.796789543679
 32
0.0
 13
631.4774654768751
 23
1483.796789543679
 33
0.0
  0
SOLID
  5
A97
330
992
100
AcDbEntity
  8
Bemaßungen(DIN)
  6
Continuous
 62
     7
100
AcDbTrace
 10
626.7155607149703
 20
1553.368218115108
 30
0.0
 11
636.2393702387801
 21
1553.368218115108
 31
0.0
 12
631.4774654768751
 22
1524.796789543679
 32
0.0
 13
631.4774654768751
 23
1524.796789543679
 33
0.0
  0
MTEXT
  5
A98
330
992
100
AcDbEntity
  8
Bemaßungen(DIN)
  6
Continuous
 62
     7
370
    30
100
AcDbMText
 10
667.1917511911607
 20
1586.424281360138
 30
0.0
 40
28.57142857142857
 41
0.0
 71
     4
 72
     1
  1
\A1;40
  7
Text__4.0mm
 73
     1
 44
1.0
  0
POINT
  5
A99
330
992
100
AcDbEntity
  8
Defpoints
  6
Continuous
 62
     0
100
AcDbPoint
 10
614.6542336375127
 20
1483.796789543679
 30
0.0
  0
POINT
  5
A9A
330
992
100
AcDbEntity
  8
Defpoints
  6
Continuous
 62
     0
100
AcDbPoint
 10
658.7970907803699
 20
1524.796789543679
 30
0.0
  0
POINT
  5
A9B
330
992
100
AcDbEntity
  8
Defpoints
  6
Continuous
 62
     0
100
AcDbPoint
 10
631.4774654768751
 20
1524.796789543679
 30
0.0
  0
ENDBLK
  5
994
330
992
100
AcDbEntity
  8
0
100
AcDbBlockEnd
  0
BLOCK
  5
AA2
330
AA1
100
AcDbEntity
  8
0
100
AcDbBlockBegin
  2
*D18
 70
     1
 10
0.0
 20
0.0
 30
0.0
  3
*D18
  1

  0
LINE
  5
B86
330
AA1
100
AcDbEntity
  8
Bemaßungen(DIN)
  6
Continuous
 62
     7
370
    25
100
AcDbLine
 10
917.4762913697746
 20
1339.796789543679
 30
0.0
 11
756.2469705652646
 21
1339.796789543679
 31
0.0
  0
LINE
  5
B87
330
AA1
100
AcDbEntity
  8
Bemaßungen(DIN)
  6
Continuous
 62
     7
370
    25
100
AcDbLine
 10
931.4801248069297
 20
1524.796789543679
 30
0.0
 11
756.2469705652646
 21
1524.796789543679
 31
0.0
  0
LINE
  5
B88
330
AA1
100
AcDbEntity
  8
Bemaßungen(DIN)
  6
Continuous
 62
     7
370
    25
100
AcDbLine
 10
770.5326848509787
 20
1368.368218115108
 30
0.0
 11
770.5326848509787
 21
1410.566132751631
 31
0.0
  0
LINE
  5
B89
330
AA1
100
AcDbEntity
  8
Bemaßungen(DIN)
  6
Continuous
 62
     7
370
    25
100
AcDbLine
 10
770.5326848509787
 20
1496.225360972251
 30
0.0
 11
770.5326848509787
 21
1454.027446335727
 31
0.0
  0
SOLID
  5
B8A
330
AA1
100
AcDbEntity
  8
Bemaßungen(DIN)
  6
Continuous
 62
     7
100
AcDbTrace
 10
765.7707800890739
 20
1368.368218115108
 30
0.0
 11
775.2945896128835
 21
1368.368218115108
 31
0.0
 12
770.5326848509787
 22
1339.796789543679
 32
0.0
 13
770.5326848509787
 23
1339.796789543679
 33
0.0
  0
SOLID
  5
B8B
330
AA1
100
AcDbEntity
  8
Bemaßungen(DIN)
  6
Continuous
 62
     7
100
AcDbTrace
 10
765.7707800890739
 20
1496.225360972251
 30
0.0
 11
775.2945896128835
 21
1496.225360972251
 31
0.0
 12
770.5326848509787
 22
1524.796789543679
 32
0.0
 13
770.5326848509787
 23
1524.796789543679
 33
0.0
  0
MTEXT
  5
B8C
330
AA1
100
AcDbEntity
  8
Bemaßungen(DIN)
  6
Continuous
 62
     7
370
    30
100
AcDbMText
 10
743.2397602183129
 20
1432.296789543679
 30
0.0
 40
28.57142857142857
 41
0.0
 71
     4
 72
     1
  1
\A1;185
  7
Text__4.0mm
 73
     1
 44
1.0
  0
POINT
  5
B8D
330
AA1
100
AcDbEntity
  8
Defpoints
  6
Continuous
 62
     0
100
AcDbPoint
 10
931.7620056554888
 20
1339.796789543679
 30
0.0
  0
POINT
  5
B8E
330
AA1
100
AcDbEntity
  8
Defpoints
  6
Continuous
 62
     0
100
AcDbPoint
 10
945.7658390926438
 20
1524.796789543679
 30
0.0
  0
POINT
  5
B8F
330
AA1
100
AcDbEntity
  8
Defpoints
  6
Continuous
 62
     0
100
AcDbPoint
 10
770.5326848509787
 20
1524.796789543679
 30
0.0
  0
ENDBLK
  5
AA3
330
AA1
100
AcDbEntity
  8
0
100
AcDbBlockEnd
  0
BLOCK
  5
B92
330
B91
100
AcDbEntity
  8
0
100
AcDbBlockBegin
  2
*D19
 70
     1
 10
0.0
 20
0.0
 30
0.0
  3
*D19
  1

  0
LINE
  5
C84
330
B91
100
AcDbEntity
  8
Bemaßungen(DIN)
  6
Continuous
 62
     7
370
    25
100
AcDbLine
 10
947.0801248069923
 20
1357.796789543679
 30
0.0
 11
806.9394663865004
 21
1357.796789543679
 31
0.0
  0
LINE
  5
C85
330
B91
100
AcDbEntity
  8
Bemaßungen(DIN)
  6
Continuous
 62
     7
370
    25
100
AcDbLine
 10
947.0801248069923
 20
1321.796789543679
 30
0.0
 11
806.9394663865004
 21
1321.796789543679
 31
0.0
  0
LINE
  5
C86
330
B91
100
AcDbEntity
  8
Bemaßungen(DIN)
  6
Continuous
 62
     7
370
    25
100
AcDbLine
 10
821.2251806722148
 20
1293.225360972251
 30
0.0
 11
821.2251806722148
 21
1264.653932400822
 31
0.0
  0
LINE
  5
C87
330
B91
100
AcDbEntity
  8
Bemaßungen(DIN)
  6
Continuous
 62
     7
370
    25
100
AcDbLine
 10
821.2251806722148
 20
1386.368218115108
 30
0.0
 11
821.2251806722148
 21
1426.170253717272
 31
0.0
  0
LINE
  5
C88
330
B91
100
AcDbEntity
  8
Bemaßungen(DIN)
  6
Continuous
 62
     7
370
    25
100
AcDbLine
 10
821.2251806722148
 20
1426.170253717272
 30
0.0
 11
849.7966092436431
 21
1426.170253717272
 31
0.0
  0
SOLID
  5
C89
330
B91
100
AcDbEntity
  8
Bemaßungen(DIN)
  6
Continuous
 62
     7
100
AcDbTrace
 10
816.4632759103099
 20
1293.225360972251
 30
0.0
 11
825.9870854341196
 21
1293.225360972251
 31
0.0
 12
821.2251806722148
 22
1321.796789543679
 32
0.0
 13
821.2251806722148
 23
1321.796789543679
 33
0.0
  0
SOLID
  5
C8A
330
B91
100
AcDbEntity
  8
Bemaßungen(DIN)
  6
Continuous
 62
     7
100
AcDbTrace
 10
816.4632759103099
 20
1386.368218115108
 30
0.0
 11
825.9870854341196
 21
1386.368218115108
 31
0.0
 12
821.2251806722148
 22
1357.796789543679
 32
0.0
 13
821.2251806722148
 23
1357.796789543679
 33
0.0
  0
MTEXT
  5
C8B
330
B91
100
AcDbEntity
  8
Bemaßungen(DIN)
  6
Continuous
 62
     7
370
    30
100
AcDbMText
 10
856.9394663865002
 20
1426.170253717272
 30
0.0
 40
28.57142857142857
 41
0.0
 71
     4
 72
     1
  1
\A1;{\fAIGDT|b0|i0;\H28.4807;n\fArial|b0|i0;\H28.4807;}36
  7
Text__4.0mm
 73
     1
 44
1.0
  0
POINT
  5
C8C
330
B91
100
AcDbEntity
  8
Defpoints
  6
Continuous
 62
     0
100
AcDbPoint
 10
961.3658390927067
 20
1357.796789543679
 30
0.0
  0
POINT
  5
C8D
330
B91
100
AcDbEntity
  8
Defpoints
  6
Continuous
 62
     0
100
AcDbPoint
 10
961.3658390927067
 20
1321.796789543679
 30
0.0
  0
POINT
  5
C8E
330
B91
100
AcDbEntity
  8
Defpoints
  6
Continuous
 62
     0
100
AcDbPoint
 10
821.2251806722148
 20
1321.796789543679
 30
0.0
  0
ENDBLK
  5
B93
330
B91
100
AcDbEntity
  8
0
100
AcDbBlockEnd
  0
BLOCK
  5
DD3
330
DD1
100
AcDbEntity
  8
0
100
AcDbBlockBegin
  2
GENAXEH
 70
     0
 10
0.0
 20
0.0
 30
0.0
  3
GENAXEH
  1

  0
LINE
  5
DD2
330
DD1
100
AcDbEntity
  8
0
100
AcDbLine
 10
-1.0
 20
0.0
 30
0.0
 11
1.0
 21
0.0
 31
0.0
  0
ENDBLK
  5
DD4
330
DD1
100
AcDbEntity
  8
0
100
AcDbBlockEnd
  0
ENDSEC
  0
SECTION
  2
ENTITIES
  0
INSERT
  5
259
330
77
100
AcDbEntity
  8
0
100
AcDbBlockReference
 66
     1
  2
Title Blocks WS-Marketing-FUN
 10
-604.2857142857142
 20
-680.5299465221127
 30
0.0
 41
7.142857142857142
 42
7.142857142857142
 43
7.142857142857142
  0
ATTRIB
  5
25B
102
{ACAD_XDICTIONARY
360
CDB
102
}
330
259
100
AcDbEntity
  8
Symbols(ISO)
 62
     7
100
AcDbText
 10
868.7731436367178
 20
201.7857142857147
 30
0.0
 40
35.71428571428572
  1
Guardian WHB
  7
Text Style20
100
AcDbAttribute
  2
Title_001
 70
     0
  0
ATTRIB
  5
25C
102
{ACAD_XDICTIONARY
360
CDE
102
}
330
259
100
AcDbEntity
  8
Symbols(ISO)
 62
     7
100
AcDbText
 10
868.7682713374508
 20
164.1846132896157
 30
0.0
 40
24.99999957425254
  1
No Tapholes
  7
Text Style9
100
AcDbAttribute
  2
Auxiliary_Remark1_001
 70
     0
  0
ATTRIB
  5
25D
102
{ACAD_XDICTIONARY
360
CE1
102
}
330
259
100
AcDbEntity
  8
Symbols(ISO)
 62
     7
100
AcDbText
 10
871.4285714285711
 20
114.2857144985885
 30
0.0
 40
24.99999957425254
  1

  7
Text Style9
 11
871.4285714285711
 21
126.7857142857148
 31
0.0
100
AcDbAttribute
  2
Auxiliary_Remark2
 70
     0
 74
     2
  0
ATTRIB
  5
25E
102
{ACAD_XDICTIONARY
360
CE4
102
}
330
259
100
AcDbEntity
  8
Symbols(ISO)
 62
     7
100
AcDbText
 10
1165.859481582537
 20
317.9728610407332
 30
0.0
 40
17.85714285714285
  1
HDTX450
  7
Text Style38
100
AcDbAttribute
  2
Part_number_001
 70
     0
  0
ATTRIB
  5
25F
102
{ACAD_XDICTIONARY
360
CE7
102
}
330
259
100
AcDbEntity
  8
Symbols(ISO)
 62
     7
100
AcDbText
 10
951.5006821282398
 20
46.67218865718183
 30
0.0
 40
35.71428571428572
  1
0093-123073
  7
Text Style20
100
AcDbAttribute
  2
Document_Number_001
 70
     0
  0
ATTRIB
  5
260
102
{ACAD_XDICTIONARY
360
CEA
102
}
330
259
100
AcDbEntity
  8
Symbols(ISO)
 62
     7
100
AcDbText
 10
507.1428571428571
 20
291.0714283585551
 30
0.0
 40
14.28571449858801
  1

  7
Text Style40
 11
507.1428571428571
 21
305.3571428571431
 31
0.0
100
AcDbAttribute
  2
Revision_Memo_1
 70
     0
 74
     3
  0
ATTRIB
  5
261
102
{ACAD_XDICTIONARY
360
CED
102
}
330
259
100
AcDbEntity
  8
Symbols(ISO)
 62
     7
100
AcDbText
 10
1283.229389982459
 20
46.42857142857106
 30
0.0
 40
35.71428571428572
  1
C
  7
Text Style20
100
AcDbAttribute
  2
Revision_Index_1_001
 70
     0
  0
ATTRIB
  5
262
102
{ACAD_XDICTIONARY
360
CF0
102
}
330
259
100
AcDbEntity
  8
Symbols(ISO)
 62
     7
100
AcDbText
 10
864.2857142857144
 20
46.42857142857144
 30
0.0
 40
35.71428571428572
  1
A4
  7
Text Style20
100
AcDbAttribute
  2
Sheet_Size_001
 70
     0
  0
ATTRIB
  5
263
102
{ACAD_XDICTIONARY
360
CF3
102
}
330
259
100
AcDbEntity
  8
Symbols(ISO)
 62
     7
100
AcDbText
 10
41.8631845496011
 20
319.6477293810655
 30
0.0
 40
14.28571449858801
  1
CJ036
  7
Text Style40
100
AcDbAttribute
  2
Drawn_By_001
 70
     0
  0
ATTRIB
  5
264
102
{ACAD_XDICTIONARY
360
CF6
102
}
330
259
100
AcDbEntity
  8
Symbols(ISO)
 62
     7
100
AcDbText
 10
41.8631845496011
 20
266.076300809637
 30
0.0
 40
14.28571449858801
  1
CJ036
  7
Text Style40
100
AcDbAttribute
  2
Modified_By_001
 70
     0
  0
ATTRIB
  5
265
102
{ACAD_XDICTIONARY
360
CF9
102
}
330
259
100
AcDbEntity
  8
Symbols(ISO)
 62
     7
100
AcDbText
 10
362.1126485741281
 20
319.6428570364207
 30
0.0
 40
14.28571449858801
  1
16/02/2010
  7
Text Style40
100
AcDbAttribute
  2
Drawn_Date_001
 70
     0
  0
ATTRIB
  5
266
102
{ACAD_XDICTIONARY
360
CFC
102
}
330
259
100
AcDbEntity
  8
Symbols(ISO)
 62
     7
100
AcDbText
 10
363.7010329283368
 20
266.0714284649922
 30
0.0
 40
14.28571449858801
  1
27/05/2011
  7
Text Style40
100
AcDbAttribute
  2
Modified_Date_001
 70
     0
  0
ATTRIB
  5
267
102
{ACAD_XDICTIONARY
360
CFF
102
}
330
259
100
AcDbEntity
  8
Symbols(ISO)
 62
     7
100
AcDbText
 10
507.1428571428571
 20
319.6428570364205
 30
0.0
 40
14.28571449858801
  1

  7
Text Style40
 11
507.1428571428571
 21
326.7857142857145
 31
0.0
100
AcDbAttribute
  2
Revision_Titel_1
 70
     0
 74
     2
  0
ATTRIB
  5
268
102
{ACAD_XDICTIONARY
360
D02
102
}
330
259
100
AcDbEntity
  8
Symbols(ISO)
 62
     7
100
AcDbText
 10
1373.119274995127
 20
46.35548625998794
 30
0.0
 40
35.71428571428572
  1
1
 41
0.9
  7
Text__5.0mm
100
AcDbAttribute
  2
Sheet_number_001
 70
     0
  0
ATTRIB
  5
269
102
{ACAD_XDICTIONARY
360
D05
102
}
330
259
100
AcDbEntity
  8
Symbols(ISO)
 62
     7
100
AcDbText
 10
1425.813681543559
 20
46.42857142857106
 30
0.0
 40
35.71428571428572
  1
4
 41
0.9
  7
Text__5.0mm
100
AcDbAttribute
  2
Number_of_sheets_001
 70
     0
  0
ATTRIB
  5
26A
102
{ACAD_XDICTIONARY
360
D08
102
}
330
259
100
AcDbEntity
  8
Symbols(ISO)
 62
     7
100
AcDbText
 10
864.2857142857144
 20
264.2857142857147
 30
0.0
 40
17.85714285714285
  1

  7
Text Style38
 11
864.2857142857144
 21
273.2142857142862
 31
0.0
100
AcDbAttribute
  2
FUN
 70
     0
 74
     2
  0
ATTRIB
  5
26B
102
{ACAD_XDICTIONARY
360
D0B
102
}
330
259
100
AcDbEntity
  8
Symbols(ISO)
 62
     7
100
AcDbText
 10
1166.675599298382
 20
264.4014324693047
 30
0.0
 40
17.85714285714285
  1
7612210016790
  7
Text Style38
100
AcDbAttribute
  2
EAN_001
 70
     0
  0
ATTRIB
  5
26C
102
{ACAD_XDICTIONARY
360
D0E
102
}
330
259
100
AcDbEntity
  8
Symbols(ISO)
 62
     7
100
AcDbText
 10
184.0771779136287
 20
268.0496003907858
 30
0.0
 40
14.28571449858801
  1
FSI-Marketing
  7
Text Style40
100
AcDbAttribute
  2
Departement_001
 70
     0
  0
ATTRIB
  5
26D
102
{ACAD_XDICTIONARY
360
D11
102
}
330
259
100
AcDbEntity
  8
Symbols(ISO)
 62
     7
100
AcDbText
 10
184.0771779136287
 20
321.6210289622143
 30
0.0
 40
14.28571449858801
  1
FSI-Marketing
  7
Text Style40
100
AcDbAttribute
  2
Departement_001
 70
     0
  0
SEQEND
  5
25A
330
259
100
AcDbEntity
  8
0
  0
INSERT
  5
279
330
77
100
AcDbEntity
  8
0
100
AcDbBlockReference
  2
Borders Verkauf Border_85x80
 10
0.0
 20
0.0
 30
0.0
 41
7.142857142857142
 42
7.142857142857142
 43
7.142857142857142
  0
ARC
  5
27A
330
77
100
AcDbEntity
  8
MaVisibleEdge
100
AcDbCircle
 10
446.7970907803698
 20
1298.796789543679
 30
0.0
 40
54.99999999999978
100
AcDbArc
 50
251.2970353850002
 51
288.7029646149995
  0
POLYLINE
  5
27B
330
77
100
AcDbEntity
  8
MaVisibleEdge thinFlag
100
AcDb2dPolyline
 66
     1
 10
0.0
 20
0.0
 30
0.0
 70
   128
  0
VERTEX
  5
27C
330
27B
100
AcDbEntity
  8
MaVisibleEdge thinFlag
100
AcDbVertex
100
AcDb2dVertex
 10
222.7050607767032
 20
1508.503653662256
 30
0.0
  0
VERTEX
  5
27D
330
27B
100
AcDbEntity
  8
MaVisibleEdge thinFlag
100
AcDbVertex
100
AcDb2dVertex
 10
222.7050957199262
 20
1508.503604786447
 30
0.0
  0
VERTEX
  5
27F
330
27B
100
AcDbEntity
  8
MaVisibleEdge thinFlag
100
AcDbVertex
100
AcDb2dVertex
 10
222.7051307376549
 20
1508.503557102731
 30
0.0
  0
VERTEX
  5
280
330
27B
100
AcDbEntity
  8
MaVisibleEdge thinFlag
100
AcDbVertex
100
AcDb2dVertex
 10
222.705165680878
 20
1508.503510611108
 30
0.0
  0
VERTEX
  5
281
330
27B
100
AcDbEntity
  8
MaVisibleEdge thinFlag
100
AcDbVertex
100
AcDb2dVertex
 10
222.7052006241009
 20
1508.503466503671
 30
0.0
  0
VERTEX
  5
282
330
27B
100
AcDbEntity
  8
MaVisibleEdge thinFlag
100
AcDbVertex
100
AcDb2dVertex
 10
222.7052355673239
 20
1508.503422396234
 30
0.0
  0
VERTEX
  5
283
330
27B
100
AcDbEntity
  8
MaVisibleEdge thinFlag
100
AcDbVertex
100
AcDb2dVertex
 10
222.7052705850528
 20
1508.503380672982
 30
0.0
  0
VERTEX
  5
284
330
27B
100
AcDbEntity
  8
MaVisibleEdge thinFlag
100
AcDbVertex
100
AcDb2dVertex
 10
222.7053055282758
 20
1508.503340141824
 30
0.0
  0
VERTEX
  5
285
330
27B
100
AcDbEntity
  8
MaVisibleEdge thinFlag
100
AcDbVertex
100
AcDb2dVertex
 10
222.7053405460046
 20
1508.503300802758
 30
0.0
  0
VERTEX
  5
286
330
27B
100
AcDbEntity
  8
MaVisibleEdge thinFlag
100
AcDbVertex
100
AcDb2dVertex
 10
222.7053754892276
 20
1508.503263847878
 30
0.0
  0
VERTEX
  5
287
330
27B
100
AcDbEntity
  8
MaVisibleEdge thinFlag
100
AcDbVertex
100
AcDb2dVertex
 10
222.7054105069564
 20
1508.503226892998
 30
0.0
  0
VERTEX
  5
288
330
27B
100
AcDbEntity
  8
MaVisibleEdge thinFlag
100
AcDbVertex
100
AcDb2dVertex
 10
222.7054455246852
 20
1508.503192322305
 30
0.0
  0
VERTEX
  5
289
330
27B
100
AcDbEntity
  8
MaVisibleEdge thinFlag
100
AcDbVertex
100
AcDb2dVertex
 10
222.7054804679081
 20
1508.503158943704
 30
0.0
  0
VERTEX
  5
28A
330
27B
100
AcDbEntity
  8
MaVisibleEdge thinFlag
100
AcDbVertex
100
AcDb2dVertex
 10
222.705515485637
 20
1508.503126757196
 30
0.0
  0
VERTEX
  5
28B
330
27B
100
AcDbEntity
  8
MaVisibleEdge thinFlag
100
AcDbVertex
100
AcDb2dVertex
 10
222.7055505033658
 20
1508.50309576278
 30
0.0
  0
VERTEX
  5
28C
330
27B
100
AcDbEntity
  8
MaVisibleEdge thinFlag
100
AcDbVertex
100
AcDb2dVertex
 10
222.7055855210946
 20
1508.503067152551
 30
0.0
  0
VERTEX
  5
28D
330
27B
100
AcDbEntity
  8
MaVisibleEdge thinFlag
100
AcDbVertex
100
AcDb2dVertex
 10
222.7056205388234
 20
1508.503039734414
 30
0.0
  0
VERTEX
  5
28E
330
27B
100
AcDbEntity
  8
MaVisibleEdge thinFlag
100
AcDbVertex
100
AcDb2dVertex
 10
222.7056555565522
 20
1508.503012316278
 30
0.0
  0
VERTEX
  5
28F
330
27B
100
AcDbEntity
  8
MaVisibleEdge thinFlag
100
AcDbVertex
100
AcDb2dVertex
 10
222.705690574281
 20
1508.502987282327
 30
0.0
  0
VERTEX
  5
290
330
27B
100
AcDbEntity
  8
MaVisibleEdge thinFlag
100
AcDbVertex
100
AcDb2dVertex
 10
222.7057256665156
 20
1508.502964632562
 30
0.0
  0
VERTEX
  5
291
330
27B
100
AcDbEntity
  8
MaVisibleEdge thinFlag
100
AcDbVertex
100
AcDb2dVertex
 10
222.7057606842445
 20
1508.502941982797
 30
0.0
  0
VERTEX
  5
292
330
27B
100
AcDbEntity
  8
MaVisibleEdge thinFlag
100
AcDbVertex
100
AcDb2dVertex
 10
222.7057957019732
 20
1508.502921717217
 30
0.0
  0
VERTEX
  5
293
330
27B
100
AcDbEntity
  8
MaVisibleEdge thinFlag
100
AcDbVertex
100
AcDb2dVertex
 10
222.7058307942078
 20
1508.502902643731
 30
0.0
  0
VERTEX
  5
294
330
27B
100
AcDbEntity
  8
MaVisibleEdge thinFlag
100
AcDbVertex
100
AcDb2dVertex
 10
222.7058658119366
 20
1508.502884762338
 30
0.0
  0
VERTEX
  5
295
330
27B
100
AcDbEntity
  8
MaVisibleEdge thinFlag
100
AcDbVertex
100
AcDb2dVertex
 10
222.7059009041712
 20
1508.502868073037
 30
0.0
  0
SEQEND
  5
27E
330
27B
100
AcDbEntity
  8
MaVisibleEdge thinFlag
  0
POLYLINE
  5
296
330
77
100
AcDbEntity
  8
MaVisibleEdge thinFlag
100
AcDb2dPolyline
 66
     1
 10
0.0
 20
0.0
 30
0.0
 70
   128
  0
VERTEX
  5
297
330
296
100
AcDbEntity
  8
MaVisibleEdge thinFlag
100
AcDbVertex
100
AcDb2dVertex
 10
670.8882773038074
 20
1508.502868073037
 30
0.0
  0
VERTEX
  5
298
330
296
100
AcDbEntity
  8
MaVisibleEdge thinFlag
100
AcDbVertex
100
AcDb2dVertex
 10
670.8883154507803
 20
1508.502884762338
 30
0.0
  0
VERTEX
  5
29A
330
296
100
AcDbEntity
  8
MaVisibleEdge thinFlag
100
AcDbVertex
100
AcDb2dVertex
 10
670.8883535977527
 20
1508.502902643731
 30
0.0
  0
VERTEX
  5
29B
330
296
100
AcDbEntity
  8
MaVisibleEdge thinFlag
100
AcDbVertex
100
AcDb2dVertex
 10
670.8883917447255
 20
1508.502921717217
 30
0.0
  0
VERTEX
  5
29C
330
296
100
AcDbEntity
  8
MaVisibleEdge thinFlag
100
AcDbVertex
100
AcDb2dVertex
 10
670.8884298916981
 20
1508.502941982797
 30
0.0
  0
VERTEX
  5
29D
330
296
100
AcDbEntity
  8
MaVisibleEdge thinFlag
100
AcDbVertex
100
AcDb2dVertex
 10
670.8884680386707
 20
1508.502964632562
 30
0.0
  0
VERTEX
  5
29E
330
296
100
AcDbEntity
  8
MaVisibleEdge thinFlag
100
AcDbVertex
100
AcDb2dVertex
 10
670.8885061856435
 20
1508.502987282327
 30
0.0
  0
VERTEX
  5
29F
330
296
100
AcDbEntity
  8
MaVisibleEdge thinFlag
100
AcDbVertex
100
AcDb2dVertex
 10
670.888544332616
 20
1508.503012316278
 30
0.0
  0
VERTEX
  5
2A0
330
296
100
AcDbEntity
  8
MaVisibleEdge thinFlag
100
AcDbVertex
100
AcDb2dVertex
 10
670.888544332616
 20
1508.503039734414
 30
0.0
  0
VERTEX
  5
2A1
330
296
100
AcDbEntity
  8
MaVisibleEdge thinFlag
100
AcDbVertex
100
AcDb2dVertex
 10
670.8885824795888
 20
1508.503067152551
 30
0.0
  0
VERTEX
  5
2A2
330
296
100
AcDbEntity
  8
MaVisibleEdge thinFlag
100
AcDbVertex
100
AcDb2dVertex
 10
670.8886206265613
 20
1508.50309576278
 30
0.0
  0
VERTEX
  5
2A3
330
296
100
AcDbEntity
  8
MaVisibleEdge thinFlag
100
AcDbVertex
100
AcDb2dVertex
 10
670.888658773534
 20
1508.503126757196
 30
0.0
  0
VERTEX
  5
2A4
330
296
100
AcDbEntity
  8
MaVisibleEdge thinFlag
100
AcDbVertex
100
AcDb2dVertex
 10
670.8886969205066
 20
1508.503158943704
 30
0.0
  0
VERTEX
  5
2A5
330
296
100
AcDbEntity
  8
MaVisibleEdge thinFlag
100
AcDbVertex
100
AcDb2dVertex
 10
670.8887350674793
 20
1508.503192322305
 30
0.0
  0
VERTEX
  5
2A6
330
296
100
AcDbEntity
  8
MaVisibleEdge thinFlag
100
AcDbVertex
100
AcDb2dVertex
 10
670.8887732144519
 20
1508.503226892998
 30
0.0
  0
VERTEX
  5
2A7
330
296
100
AcDbEntity
  8
MaVisibleEdge thinFlag
100
AcDbVertex
100
AcDb2dVertex
 10
670.8888113614245
 20
1508.503263847878
 30
0.0
  0
VERTEX
  5
2A8
330
296
100
AcDbEntity
  8
MaVisibleEdge thinFlag
100
AcDbVertex
100
AcDb2dVertex
 10
670.8888495083972
 20
1508.503300802758
 30
0.0
  0
VERTEX
  5
2A9
330
296
100
AcDbEntity
  8
MaVisibleEdge thinFlag
100
AcDbVertex
100
AcDb2dVertex
 10
670.88888765537
 20
1508.503340141824
 30
0.0
  0
VERTEX
  5
2AA
330
296
100
AcDbEntity
  8
MaVisibleEdge thinFlag
100
AcDbVertex
100
AcDb2dVertex
 10
670.8889258023425
 20
1508.503380672982
 30
0.0
  0
VERTEX
  5
2AB
330
296
100
AcDbEntity
  8
MaVisibleEdge thinFlag
100
AcDbVertex
100
AcDb2dVertex
 10
670.888963949315
 20
1508.503422396234
 30
0.0
  0
VERTEX
  5
2AC
330
296
100
AcDbEntity
  8
MaVisibleEdge thinFlag
100
AcDbVertex
100
AcDb2dVertex
 10
670.888963949315
 20
1508.503466503671
 30
0.0
  0
VERTEX
  5
2AD
330
296
100
AcDbEntity
  8
MaVisibleEdge thinFlag
100
AcDbVertex
100
AcDb2dVertex
 10
670.8890020962878
 20
1508.503510611108
 30
0.0
  0
VERTEX
  5
2AE
330
296
100
AcDbEntity
  8
MaVisibleEdge thinFlag
100
AcDbVertex
100
AcDb2dVertex
 10
670.8890402432606
 20
1508.503557102731
 30
0.0
  0
VERTEX
  5
2AF
330
296
100
AcDbEntity
  8
MaVisibleEdge thinFlag
100
AcDbVertex
100
AcDb2dVertex
 10
670.8890783902331
 20
1508.503604786447
 30
0.0
  0
VERTEX
  5
2B0
330
296
100
AcDbEntity
  8
MaVisibleEdge thinFlag
100
AcDbVertex
100
AcDb2dVertex
 10
670.8891165372058
 20
1508.503653662256
 30
0.0
  0
SEQEND
  5
299
330
296
100
AcDbEntity
  8
MaVisibleEdge thinFlag
  0
ARC
  5
2B1
330
77
100
AcDbEntity
  8
MaVisibleEdge
100
AcDbCircle
 10
666.79709078037
 20
1511.376855915605
 30
0.0
 40
4.999999999999928
100
AcDbArc
 50
324.9255446322724
 51
0.0
  0
ELLIPSE
  5
2B2
330
77
100
AcDbEntity
  8
MaVisibleEdge thinFlag
100
AcDbEllipse
 10
666.7970907803692
 20
1511.377257011903
 30
0.0
 11
5.000000000000639
 21
-0.000000000083522
 31
0.0
210
0.0
220
0.0
230
1.0
 40
0.9999967753692295
 41
5.670728252867847
 42
6.283185307196237
  0
ELLIPSE
  5
2B3
330
77
100
AcDbEntity
  8
MaVisibleEdge thinFlag
100
AcDbEllipse
 10
226.79709078037
 20
1511.377257011902
 30
0.0
 11
-4.999999999999988
 21
-0.0000000000000044
 31
0.0
210
0.0
220
0.0
230
1.0
 40
0.9999967753692301
 41
0.0
 42
0.6124570543284698
  0
ARC
  5
2B4
330
77
100
AcDbEntity
  8
MaVisibleEdge
100
AcDbCircle
 10
226.79709078037
 20
1511.376855915605
 30
0.0
 40
4.999999999999968
100
AcDbArc
 50
180.0
 51
215.0744553677244
  0
LINE
  5
2B5
330
77
100
AcDbEntity
  8
MaVisibleEdge
100
AcDbLine
 10
385.3970907803699
 20
1276.796789543679
 30
0.0
 11
222.7050608040658
 21
1508.503653751985
 31
0.0
  0
LINE
  5
2B6
330
77
100
AcDbEntity
  8
MaVisibleEdge
100
AcDbLine
 10
508.1970846768544
 20
1276.796797173074
 30
0.0
 11
670.8891165372058
 21
1508.503653662256
 31
0.0
  0
LINE
  5
2B7
330
77
100
AcDbEntity
  8
MaVisibleEdge
100
AcDbLine
 10
385.3970907803699
 20
1276.796789543679
 30
0.0
 11
386.1229857373504
 21
1275.762966041378
 31
0.0
  0
LINE
  5
2B8
330
77
100
AcDbEntity
  8
MaVisibleEdge
100
AcDbLine
 10
508.1970907803698
 20
1276.796789543679
 30
0.0
 11
507.4711958233893
 21
1275.762966041378
 31
0.0
  0
LINE
  5
2B9
330
77
100
AcDbEntity
  8
MaVisibleEdge
100
AcDbLine
 10
447.0312368985339
 20
1244.796789543679
 30
0.0
 11
447.8912413235828
 21
1244.796789543679
 31
0.0
  0
LINE
  5
2BA
330
77
100
AcDbEntity
  8
MaVisibleEdge
100
AcDbLine
 10
446.5629446622059
 20
1244.796789543679
 30
0.0
 11
447.0312368985339
 21
1244.796789543679
 31
0.0
  0
LINE
  5
2BB
330
77
100
AcDbEntity
  8
MaVisibleEdge
100
AcDbLine
 10
445.7029402371571
 20
1244.796789543679
 30
0.0
 11
446.5629446622059
 21
1244.796789543679
 31
0.0
  0
ARC
  5
2BC
330
77
100
AcDbEntity
  8
MaVisibleEdge
100
AcDbCircle
 10
447.8912393684009
 20
1317.596789543679
 30
0.0
 40
72.80000000000002
100
AcDbArc
 50
270.0
 51
324.9255446322738
  0
ARC
  5
2BD
330
77
100
AcDbEntity
  8
MaVisibleEdge
100
AcDbCircle
 10
445.7029421923388
 20
1317.596789543679
 30
0.0
 40
72.7999999999999
100
AcDbArc
 50
215.0744553677261
 51
270.0000000000001
  0
ARC
  5
2BE
330
77
100
AcDbEntity
  8
MaVisibleEdge
100
AcDbCircle
 10
234.79709078037
 20
1511.796789543679
 30
0.0
 40
13.0
100
AcDbArc
 50
90.0
 51
180.0
  0
LINE
  5
2BF
330
77
100
AcDbEntity
  8
MaVisibleEdge thinFlag
100
AcDbLine
 10
401.7970907803698
 20
1511.796789543679
 30
0.0
 11
221.79709078037
 21
1511.796789543679
 31
0.0
  0
LINE
  5
2C0
330
77
100
AcDbEntity
  8
MaVisibleEdge
100
AcDbLine
 10
234.79709078037
 20
1524.796789543679
 30
0.0
 11
401.7970907803698
 21
1524.796789543679
 31
0.0
  0
LINE
  5
2C1
330
77
100
AcDbEntity
  8
MaVisibleEdge thinFlag
100
AcDbLine
 10
401.7970907803698
 20
1511.796789543679
 30
0.0
 11
491.7970907803699
 21
1511.796789543679
 31
0.0
  0
LINE
  5
2C2
330
77
100
AcDbEntity
  8
MaVisibleEdge
100
AcDbLine
 10
491.7970907803699
 20
1524.796789543679
 30
0.0
 11
401.7970907803698
 21
1524.796789543679
 31
0.0
  0
ARC
  5
2C3
330
77
100
AcDbEntity
  8
MaVisibleEdge
100
AcDbCircle
 10
658.7970907803696
 20
1511.796789543679
 30
0.0
 40
13.00000000000011
100
AcDbArc
 50
0.0
 51
89.99999999999888
  0
LINE
  5
2C4
330
77
100
AcDbEntity
  8
MaVisibleEdge
100
AcDbLine
 10
491.7970907803699
 20
1524.796789543679
 30
0.0
 11
658.79709078037
 21
1524.796789543679
 31
0.0
  0
LINE
  5
2C5
330
77
100
AcDbEntity
  8
MaVisibleEdge thinFlag
100
AcDbLine
 10
671.7970907803699
 20
1511.796789543679
 30
0.0
 11
491.7970907803699
 21
1511.796789543679
 31
0.0
  0
LINE
  5
2C6
330
77
100
AcDbEntity
  8
MaVisibleEdge
100
AcDbLine
 10
671.7970907803699
 20
1511.796789543679
 30
0.0
 11
671.7970907803699
 21
1511.377257011902
 31
0.0
  0
LINE
  5
2C7
330
77
100
AcDbEntity
  8
MaVisibleEdge
100
AcDbLine
 10
221.79709078037
 20
1511.796789543679
 30
0.0
 11
221.79709078037
 21
1511.377257011902
 31
0.0
  0
LINE
  5
2C8
330
77
100
AcDbEntity
  8
MaVisibleEdge
100
AcDbLine
 10
817.3658390927043
 20
1278.889312255568
 30
0.0
 11
817.3658390927068
 21
1273.981834967456
 31
0.0
  0
LINE
  5
2C9
330
77
100
AcDbEntity
  8
MaVisibleEdge
100
AcDbLine
 10
824.5658390927065
 20
1273.981834967456
 30
0.0
 11
817.3658390927068
 21
1273.981834967456
 31
0.0
  0
LINE
  5
2CA
330
77
100
AcDbEntity
  8
MaVisibleEdge
100
AcDbLine
 10
824.5658390927044
 20
1278.889312255568
 30
0.0
 11
817.3658390927043
 21
1278.889312255568
 31
0.0
  0
LINE
  5
2CB
330
77
100
AcDbEntity
  8
MaVisibleEdge
100
AcDbLine
 10
824.5658390927065
 20
1293.611744119903
 30
0.0
 11
817.3658390927068
 21
1293.611744119903
 31
0.0
  0
LINE
  5
2CC
330
77
100
AcDbEntity
  8
MaVisibleEdge
100
AcDbLine
 10
817.3658390927068
 20
1293.611744119903
 30
0.0
 11
817.3658390927043
 21
1288.704266831791
 31
0.0
  0
LINE
  5
2CD
330
77
100
AcDbEntity
  8
MaVisibleEdge
100
AcDbLine
 10
824.5658390927044
 20
1288.704266831791
 30
0.0
 11
817.3658390927043
 21
1288.704266831791
 31
0.0
  0
LINE
  5
2CE
330
77
100
AcDbEntity
  8
MaVisibleEdge
100
AcDbLine
 10
817.3658390927043
 20
1288.704266831791
 30
0.0
 11
817.3658390927043
 21
1278.889312255568
 31
0.0
  0
LINE
  5
2CF
330
77
100
AcDbEntity
  8
MaVisibleEdge
100
AcDbLine
 10
817.3658390926611
 20
1478.889312255567
 30
0.0
 11
817.3658390926636
 21
1473.981834967456
 31
0.0
  0
LINE
  5
2D0
330
77
100
AcDbEntity
  8
MaVisibleEdge
100
AcDbLine
 10
824.5658390926635
 20
1473.981834967456
 30
0.0
 11
817.3658390926636
 21
1473.981834967456
 31
0.0
  0
LINE
  5
2D1
330
77
100
AcDbEntity
  8
MaVisibleEdge
100
AcDbLine
 10
824.565839092661
 20
1478.889312255567
 30
0.0
 11
817.3658390926611
 21
1478.889312255567
 31
0.0
  0
LINE
  5
2D2
330
77
100
AcDbEntity
  8
MaVisibleEdge
100
AcDbLine
 10
824.5658390926635
 20
1493.611744119903
 30
0.0
 11
817.3658390926636
 21
1493.611744119903
 31
0.0
  0
LINE
  5
2D3
330
77
100
AcDbEntity
  8
MaVisibleEdge
100
AcDbLine
 10
817.3658390926636
 20
1493.611744119903
 30
0.0
 11
817.3658390926611
 21
1488.704266831791
 31
0.0
  0
LINE
  5
2D4
330
77
100
AcDbEntity
  8
MaVisibleEdge
100
AcDbLine
 10
824.565839092661
 20
1488.704266831791
 30
0.0
 11
817.3658390926611
 21
1488.704266831791
 31
0.0
  0
LINE
  5
2D5
330
77
100
AcDbEntity
  8
MaVisibleEdge
100
AcDbLine
 10
817.3658390926611
 20
1488.704266831791
 30
0.0
 11
817.3658390926611
 21
1478.889312255567
 31
0.0
  0
LINE
  5
2D6
330
77
100
AcDbEntity
  8
MaVisibleEdge
100
AcDbLine
 10
824.5658390927065
 20
1266.296789543679
 30
0.0
 11
824.5658390927065
 21
1301.296789543679
 31
0.0
  0
LINE
  5
2D7
330
77
100
AcDbEntity
  8
MaVisibleEdge
100
AcDbLine
 10
824.5658390926635
 20
1466.296789543679
 30
0.0
 11
824.5658390926635
 21
1501.296789543679
 31
0.0
  0
LINE
  5
2D8
330
77
100
AcDbEntity
  8
MaVisibleEdge
100
AcDbLine
 10
825.7658390927064
 20
1266.296789543679
 30
0.0
 11
824.5658390927065
 21
1266.296789543679
 31
0.0
  0
LINE
  5
2D9
330
77
100
AcDbEntity
  8
MaVisibleEdge
100
AcDbLine
 10
825.7658390927064
 20
1301.296789543679
 30
0.0
 11
824.5658390927065
 21
1301.296789543679
 31
0.0
  0
LINE
  5
2DA
330
77
100
AcDbEntity
  8
MaVisibleEdge
100
AcDbLine
 10
825.7658390926636
 20
1466.296789543679
 30
0.0
 11
824.5658390926635
 21
1466.296789543679
 31
0.0
  0
LINE
  5
2DB
330
77
100
AcDbEntity
  8
MaVisibleEdge
100
AcDbLine
 10
825.7658390926636
 20
1501.296789543679
 30
0.0
 11
824.5658390926635
 21
1501.296789543679
 31
0.0
  0
LINE
  5
2DC
330
77
100
AcDbEntity
  8
MaVisibleEdge
100
AcDbLine
 10
827.2658390926462
 20
1523.796789543679
 30
0.0
 11
827.2658390926443
 21
1512.112993552416
 31
0.0
  0
LINE
  5
2DD
330
77
100
AcDbEntity
  8
MaVisibleEdge
100
AcDbLine
 10
827.2658390926462
 20
1523.796789543679
 30
0.0
 11
825.7658390926462
 21
1523.796789543679
 31
0.0
  0
LINE
  5
2DE
330
77
100
AcDbEntity
  8
MaVisibleEdge
100
AcDbLine
 10
825.7658390926442
 20
1512.112993552416
 30
0.0
 11
825.7658390926462
 21
1523.796789543679
 31
0.0
  0
LINE
  5
2DF
330
77
100
AcDbEntity
  8
MaVisibleEdge
100
AcDbLine
 10
827.2658390926929
 20
1268.11561894108
 30
0.0
 11
827.2658390926443
 21
1512.112993552416
 31
0.0
  0
LINE
  5
2E0
330
77
100
AcDbEntity
  8
MaVisibleEdge
100
AcDbLine
 10
827.2658390926929
 20
1268.11561894108
 30
0.0
 11
827.2658390927066
 21
1243.796789543679
 31
0.0
  0
LINE
  5
2E1
330
77
100
AcDbEntity
  8
MaVisibleEdge
100
AcDbLine
 10
825.765839092693
 20
1268.11561894108
 30
0.0
 11
825.7658390927064
 21
1243.796789543679
 31
0.0
  0
LINE
  5
2E2
330
77
100
AcDbEntity
  8
MaVisibleEdge
100
AcDbLine
 10
825.765839092693
 20
1268.11561894108
 30
0.0
 11
825.7658390926444
 21
1512.112993552416
 31
0.0
  0
LINE
  5
2E3
330
77
100
AcDbEntity
  8
MaVisibleEdge
100
AcDbLine
 10
825.7658390927064
 20
1243.796789543679
 30
0.0
 11
827.2658390927066
 21
1243.796789543679
 31
0.0
  0
LINE
  5
2E4
330
77
100
AcDbEntity
  8
MaVisibleEdge
100
AcDbLine
 10
813.7658390926635
 20
1478.796789543679
 30
0.0
 11
813.7658390926635
 21
1488.796789543679
 31
0.0
  0
LINE
  5
2E5
330
77
100
AcDbEntity
  8
MaVisibleEdge
100
AcDbLine
 10
813.7658390927066
 20
1278.796789543679
 30
0.0
 11
813.7658390927066
 21
1288.796789543679
 31
0.0
  0
LINE
  5
2E6
330
77
100
AcDbEntity
  8
MaVisibleEdge
100
AcDbLine
 10
813.7658390926635
 20
1488.796789543679
 30
0.0
 11
817.3658390926636
 21
1488.796789543679
 31
0.0
  0
LINE
  5
2E7
330
77
100
AcDbEntity
  8
MaVisibleEdge
100
AcDbLine
 10
827.2658390926634
 20
1488.796789543679
 30
0.0
 11
945.7658390926635
 21
1488.796789543679
 31
0.0
  0
LINE
  5
2E8
330
77
100
AcDbEntity
  8
MaVisibleEdge
100
AcDbLine
 10
813.7658390926635
 20
1478.796789543679
 30
0.0
 11
817.3658390926636
 21
1478.796789543679
 31
0.0
  0
LINE
  5
2E9
330
77
100
AcDbEntity
  8
MaVisibleEdge
100
AcDbLine
 10
827.2658390926634
 20
1478.796789543679
 30
0.0
 11
945.7658390926635
 21
1478.796789543679
 31
0.0
  0
LINE
  5
2EA
330
77
100
AcDbEntity
  8
MaVisibleEdge
100
AcDbLine
 10
813.7658390927066
 20
1288.796789543679
 30
0.0
 11
817.3658390927068
 21
1288.796789543679
 31
0.0
  0
LINE
  5
2EB
330
77
100
AcDbEntity
  8
MaVisibleEdge
100
AcDbLine
 10
827.2658390927063
 20
1288.796789543679
 30
0.0
 11
945.7658390927067
 21
1288.796789543679
 31
0.0
  0
LINE
  5
2EC
330
77
100
AcDbEntity
  8
MaVisibleEdge
100
AcDbLine
 10
813.7658390927066
 20
1278.796789543679
 30
0.0
 11
817.3658390927068
 21
1278.796789543679
 31
0.0
  0
LINE
  5
2ED
330
77
100
AcDbEntity
  8
MaVisibleEdge
100
AcDbLine
 10
827.2658390927063
 20
1278.796789543679
 30
0.0
 11
945.7658390927067
 21
1278.796789543679
 31
0.0
  0
LINE
  5
2EE
330
77
100
AcDbEntity
  8
MaVisibleEdge
100
AcDbLine
 10
945.76583909264
 20
1508.503653751985
 30
0.0
 11
945.76583909264
 21
1511.376855915605
 31
0.0
  0
LINE
  5
2EF
330
77
100
AcDbEntity
  8
MaVisibleEdge thinFlag
100
AcDbLine
 10
1344.747498579583
 20
1508.455888884118
 30
0.0
 11
1344.74785091754
 21
1508.456139223626
 31
0.0
  0
LINE
  5
2F0
330
77
100
AcDbEntity
  8
MaVisibleEdge thinFlag
100
AcDbLine
 10
1344.74785091754
 20
1508.456139223626
 30
0.0
 11
1344.759616054867
 21
1508.460933821252
 31
0.0
  0
ARC
  5
2F1
330
77
100
AcDbEntity
  8
MaVisibleEdge thinFlag
100
AcDbCircle
 10
1340.765839092693
 20
1511.479974249574
 30
0.0
 40
5.000000000000013
100
AcDbArc
 50
322.7879163846601
 51
0.0
  0
ELLIPSE
  5
2F2
330
77
100
AcDbEntity
  8
MaVisibleEdge thinFlag
100
AcDbEllipse
 10
1340.765839092693
 20
1511.480183050491
 30
0.0
 11
3.981659491179691
 21
-3.024294737294356
 31
0.0
210
0.0
220
0.0
230
0.9999999999999998
 40
0.9999995741127783
 41
0.000000000000012
 42
0.6495899335741325
  0
ARC
  5
2F3
330
77
100
AcDbEntity
  8
MaVisibleEdge
100
AcDbCircle
 10
1340.765839092706
 20
1511.469213079458
 30
0.0
 40
5.000000000000028
100
AcDbArc
 50
323.0114142259925
 51
0.0
  0
LINE
  5
2F4
330
77
100
AcDbEntity
  8
MaVisibleEdge
100
AcDbLine
 10
945.7658390926395
 20
1511.796789543679
 30
0.0
 11
945.7658390926395
 21
1511.376855915605
 31
0.0
  0
LINE
  5
2F5
330
77
100
AcDbEntity
  8
MaVisibleEdge
100
AcDbLine
 10
1345.765839092693
 20
1511.796789543679
 30
0.0
 11
1345.765839092693
 21
1511.480183050491
 31
0.0
  0
LINE
  5
2F6
330
77
100
AcDbEntity
  8
MaVisibleEdge
100
AcDbLine
 10
945.76583909264
 20
1511.796789543679
 30
0.0
 11
945.7658390926438
 21
1524.796789543679
 31
0.0
  0
LINE
  5
2F7
330
77
100
AcDbEntity
  8
MaVisibleEdge thinFlag
100
AcDbLine
 10
945.7658390926395
 20
1511.796789543679
 30
0.0
 11
1165.76583909264
 21
1511.796789543679
 31
0.0
  0
LINE
  5
2F8
330
77
100
AcDbEntity
  8
MaVisibleEdge
100
AcDbLine
 10
1165.765839092643
 20
1524.796789543679
 30
0.0
 11
945.7658390926436
 21
1524.796789543679
 31
0.0
  0
LINE
  5
2F9
330
77
100
AcDbEntity
  8
MaVisibleEdge thinFlag
100
AcDbLine
 10
1345.765839092693
 20
1511.796789543679
 30
0.0
 11
1165.76583909264
 21
1511.796789543679
 31
0.0
  0
ARC
  5
2FA
330
77
100
AcDbEntity
  8
MaVisibleEdge
100
AcDbCircle
 10
1332.765839092693
 20
1511.796789543679
 30
0.0
 40
13.0
100
AcDbArc
 50
0.0
 51
90.0
  0
LINE
  5
2FB
330
77
100
AcDbEntity
  8
MaVisibleEdge
100
AcDbLine
 10
1165.765839092644
 20
1524.796789543679
 30
0.0
 11
1332.765839092693
 21
1524.796789543679
 31
0.0
  0
LINE
  5
2FC
330
77
100
AcDbEntity
  8
MaVisibleEdge
100
AcDbLine
 10
945.7658390927063
 20
1244.796789543679
 30
0.0
 11
945.7658390926887
 21
1275.762966041378
 31
0.0
  0
LINE
  5
2FD
330
77
100
AcDbEntity
  8
MaVisibleEdge thinFlag
100
AcDbLine
 10
1169.540043346857
 20
1275.76295699363
 30
0.0
 11
1168.134270184011
 21
1275.76295699363
 31
0.0
  0
LINE
  5
2FE
330
77
100
AcDbEntity
  8
MaVisibleEdge
100
AcDbLine
 10
1108.86583375213
 20
1244.796789543679
 30
0.0
 11
1109.934635632013
 21
1244.796789543679
 31
0.0
  0
LINE
  5
2FF
330
77
100
AcDbEntity
  8
MaVisibleEdge
100
AcDbLine
 10
945.7658390927063
 20
1244.796789543679
 30
0.0
 11
1108.865839092706
 21
1244.796789543679
 31
0.0
  0
ELLIPSE
  5
300
330
77
100
AcDbEntity
  8
MaVisibleEdge thinFlag
100
AcDbEllipse
 10
1109.934638773609
 20
1317.596789543679
 30
0.0
 11
0.0000000000000711
 21
-72.80000000000002
 31
0.0
210
0.0
220
0.0
230
1.0
 40
0.9768322991912498
 41
0.0000000000000031
 42
0.9586315972842783
  0
ARC
  5
301
330
77
100
AcDbEntity
  8
MaVisibleEdge
100
AcDbCircle
 10
1109.959987680737
 20
1317.59678954368
 30
0.0
 40
72.80000000000081
100
AcDbArc
 50
270.0000000000002
 51
324.9255446322735
  0
LINE
  5
302
330
77
100
AcDbEntity
  8
MaVisibleEdge
100
AcDbLine
 10
945.7658390926887
 20
1275.762966041378
 30
0.0
 11
945.76583909264
 21
1508.503653751985
 31
0.0
  0
LINE
  5
303
330
77
100
AcDbEntity
  8
MaVisibleEdge thinFlag
100
AcDbLine
 10
1168.843346111746
 20
1276.796797173074
 30
0.0
 11
1344.74785091754
 21
1508.456139223626
 31
0.0
  0
LINE
  5
304
330
77
100
AcDbEntity
  8
MaVisibleEdge
100
AcDbLine
 10
1344.759616054867
 20
1508.460933821252
 30
0.0
 11
1170.265846722101
 21
1276.796797173074
 31
0.0
  0
LINE
  5
305
330
77
100
AcDbEntity
  8
MaVisibleEdge thinFlag
100
AcDbLine
 10
1168.843342263049
 20
1276.796789543679
 30
0.0
 11
1168.134264623251
 21
1275.762966041378
 31
0.0
  0
LINE
  5
306
330
77
100
AcDbEntity
  8
MaVisibleEdge
100
AcDbLine
 10
1170.265839092706
 20
1276.796789543679
 30
0.0
 11
1169.539944135726
 21
1275.762966041378
 31
0.0
  0
LINE
  5
307
330
77
100
AcDbEntity
  8
MaVisibleEdge
100
AcDbLine
 10
221.7970907800321
 20
912.6810976856296
 30
0.0
 11
234.7970907800321
 21
912.6810976856333
 31
0.0
  0
LINE
  5
308
330
77
100
AcDbEntity
  8
MaVisibleEdge
100
AcDbLine
 10
658.7970907800322
 20
912.6810976856337
 30
0.0
 11
671.7970907800321
 21
912.6810976856296
 31
0.0
  0
LINE
  5
309
330
77
100
AcDbEntity
  8
MaVisibleEdge
100
AcDbLine
 10
221.7970907800321
 20
912.6810976856296
 30
0.0
 11
221.7970907800323
 21
692.6810976856294
 31
0.0
  0
ARC
  5
30A
330
77
100
AcDbEntity
  8
MaVisibleEdge
100
AcDbCircle
 10
401.7970907800322
 20
692.6810976856295
 30
0.0
 40
180.0
100
AcDbArc
 50
180.0
 51
270.0
  0
LINE
  5
30B
330
77
100
AcDbEntity
  8
MaVisibleEdge
100
AcDbLine
 10
401.7970907800322
 20
512.6810976856297
 30
0.0
 11
491.7970907800322
 21
512.6810976856297
 31
0.0
  0
LINE
  5
30C
330
77
100
AcDbEntity
  8
MaVisibleEdge
100
AcDbLine
 10
671.7970907800321
 20
692.6810976856295
 30
0.0
 11
671.7970907800321
 21
912.6810976856296
 31
0.0
  0
ARC
  5
30D
330
77
100
AcDbEntity
  8
MaVisibleEdge
100
AcDbCircle
 10
491.7970907800319
 20
692.6810976856297
 30
0.0
 40
180.0000000000001
100
AcDbArc
 50
270.0
 51
0.0
  0
LINE
  5
30E
330
77
100
AcDbEntity
  8
MaVisibleEdge
100
AcDbLine
 10
234.7970907800321
 20
912.6810976856337
 30
0.0
 11
658.7970907800321
 21
912.6810976856337
 31
0.0
  0
ARC
  5
30F
330
77
100
AcDbEntity
  8
MaVisibleEdge
100
AcDbCircle
 10
491.7970907800319
 20
692.6810976856289
 30
0.0
 40
135.0000000000001
100
AcDbArc
 50
43.99359254624307
 51
90.00000000000005
  0
ARC
  5
310
330
77
100
AcDbEntity
  8
MaVisibleEdge
100
AcDbCircle
 10
491.7970907800319
 20
692.6810976856293
 30
0.0
 40
135.0
100
AcDbArc
 50
270.0000000000001
 51
43.99359254624298
  0
LINE
  5
311
330
77
100
AcDbEntity
  8
MaVisibleEdge
100
AcDbLine
 10
491.7970907800318
 20
827.6810976856292
 30
0.0
 11
401.7970907800321
 21
827.6810976856291
 31
0.0
  0
ARC
  5
312
330
77
100
AcDbEntity
  8
MaVisibleEdge
100
AcDbCircle
 10
401.7970907800322
 20
692.6810976856293
 30
0.0
 40
134.9999999999999
100
AcDbArc
 50
136.0064074537561
 51
270.0000000000001
  0
ARC
  5
313
330
77
100
AcDbEntity
  8
MaVisibleEdge
100
AcDbCircle
 10
401.7970907800321
 20
692.6810976856293
 30
0.0
 40
134.9999999999998
100
AcDbArc
 50
90.00000000000005
 51
136.0064074537562
  0
LINE
  5
314
330
77
100
AcDbEntity
  8
MaVisibleEdge
100
AcDbLine
 10
401.7970907800323
 20
557.6810976856291
 30
0.0
 11
491.7970907800322
 21
557.6810976856291
 31
0.0
  0
LINE
  5
315
330
77
100
AcDbEntity
  8
MaVisibleEdge thinFlag
100
AcDbLine
 10
588.9184506198622
 20
786.4491170891668
 30
0.0
 11
590.1645182475865
 21
787.6521613390337
 31
0.0
  0
LINE
  5
316
330
77
100
AcDbEntity
  8
MaVisibleEdge thinFlag
100
AcDbLine
 10
303.4296633124792
 20
787.6521613390352
 30
0.0
 11
304.6757309402033
 21
786.4491170891678
 31
0.0
  0
ARC
  5
317
330
77
100
AcDbEntity
  8
MaVisibleEdge
100
AcDbCircle
 10
446.0478908308114
 20
757.6810976855889
 30
0.0
 40
34.99999999999998
100
AcDbArc
 50
288.1913687997579
 51
71.80863120024206
  0
ARC
  5
318
330
77
100
AcDbEntity
  8
MaVisibleEdge
100
AcDbCircle
 10
446.0478908308113
 20
757.6810976855889
 30
0.0
 40
35.0
100
AcDbArc
 50
71.808631200242
 51
108.191368799758
  0
ARC
  5
319
330
77
100
AcDbEntity
  8
MaVisibleEdge
100
AcDbCircle
 10
446.0478908308114
 20
757.6810976855889
 30
0.0
 40
35.00000000000002
100
AcDbArc
 50
108.1913687997582
 51
251.8086312002419
  0
ARC
  5
31A
330
77
100
AcDbEntity
  8
MaVisibleEdge
100
AcDbCircle
 10
446.0478908308114
 20
757.6810976855893
 30
0.0
 40
35.00000000000023
100
AcDbArc
 50
251.8086312002421
 51
288.1913687997579
  0
POLYLINE
  5
31B
330
77
100
AcDbEntity
  8
MaVisibleEdge thinFlag
100
AcDb2dPolyline
 66
     1
 10
0.0
 20
0.0
 30
0.0
 70
   128
  0
VERTEX
  5
31C
330
31B
100
AcDbEntity
  8
MaVisibleEdge thinFlag
100
AcDbVertex
100
AcDb2dVertex
 10
249.8516404740935
 20
692.5814005725964
 30
0.0
  0
VERTEX
  5
31D
330
31B
100
AcDbEntity
  8
MaVisibleEdge thinFlag
100
AcDbVertex
100
AcDb2dVertex
 10
249.8995602243072
 20
688.9543101184947
 30
0.0
  0
VERTEX
  5
31F
330
31B
100
AcDbEntity
  8
MaVisibleEdge thinFlag
100
AcDbVertex
100
AcDb2dVertex
 10
250.0331533067352
 20
685.3301188343151
 30
0.0
  0
VERTEX
  5
320
330
31B
100
AcDbEntity
  8
MaVisibleEdge thinFlag
100
AcDbVertex
100
AcDb2dVertex
 10
250.2521979920989
 20
681.7109629505259
 30
0.0
  0
VERTEX
  5
321
330
31B
100
AcDbEntity
  8
MaVisibleEdge thinFlag
100
AcDbVertex
100
AcDb2dVertex
 10
250.5564749353057
 20
678.0989405506237
 30
0.0
  0
VERTEX
  5
322
330
31B
100
AcDbEntity
  8
MaVisibleEdge thinFlag
100
AcDbVertex
100
AcDb2dVertex
 10
250.9457647912627
 20
674.4961878650769
 30
0.0
  0
VERTEX
  5
323
330
31B
100
AcDbEntity
  8
MaVisibleEdge thinFlag
100
AcDbVertex
100
AcDb2dVertex
 10
251.4198458306914
 20
670.9047648304089
 30
0.0
  0
VERTEX
  5
324
330
31B
100
AcDbEntity
  8
MaVisibleEdge thinFlag
100
AcDbVertex
100
AcDb2dVertex
 10
251.9784987084991
 20
667.3268267505749
 30
0.0
  0
VERTEX
  5
325
330
31B
100
AcDbEntity
  8
MaVisibleEdge thinFlag
100
AcDbVertex
100
AcDb2dVertex
 10
252.621501695407
 20
663.7644621723278
 30
0.0
  0
VERTEX
  5
326
330
31B
100
AcDbEntity
  8
MaVisibleEdge thinFlag
100
AcDbVertex
100
AcDb2dVertex
 10
253.3486354463225
 20
660.2197977893934
 30
0.0
  0
VERTEX
  5
327
330
31B
100
AcDbEntity
  8
MaVisibleEdge thinFlag
100
AcDbVertex
100
AcDb2dVertex
 10
254.1596830003387
 20
656.6949316852674
 30
0.0
  0
VERTEX
  5
328
330
31B
100
AcDbEntity
  8
MaVisibleEdge thinFlag
100
AcDbVertex
100
AcDb2dVertex
 10
255.054420243991
 20
653.1919810169322
 30
0.0
  0
VERTEX
  5
329
330
31B
100
AcDbEntity
  8
MaVisibleEdge thinFlag
100
AcDbVertex
100
AcDb2dVertex
 10
256.0326278321868
 20
649.7130629413708
 30
0.0
  0
VERTEX
  5
32A
330
31B
100
AcDbEntity
  8
MaVisibleEdge thinFlag
100
AcDbVertex
100
AcDb2dVertex
 10
257.0940840356475
 20
646.2602755420788
 30
0.0
  0
VERTEX
  5
32B
330
31B
100
AcDbEntity
  8
MaVisibleEdge thinFlag
100
AcDbVertex
100
AcDb2dVertex
 10
258.2385790460234
 20
642.8351637714489
 30
0.0
  0
VERTEX
  5
32C
330
31B
100
AcDbEntity
  8
MaVisibleEdge thinFlag
100
AcDbVertex
100
AcDb2dVertex
 10
259.4653689973479
 20
639.4387480609997
 30
0.0
  0
VERTEX
  5
32D
330
31B
100
AcDbEntity
  8
MaVisibleEdge thinFlag
100
AcDbVertex
100
AcDb2dVertex
 10
260.7733285539275
 20
636.0727831714732
 30
0.0
  0
VERTEX
  5
32E
330
31B
100
AcDbEntity
  8
MaVisibleEdge thinFlag
100
AcDbVertex
100
AcDb2dVertex
 10
262.1613371484404
 20
632.7390429370982
 30
0.0
  0
VERTEX
  5
32F
330
31B
100
AcDbEntity
  8
MaVisibleEdge thinFlag
100
AcDbVertex
100
AcDb2dVertex
 10
263.628274213565
 20
629.4393011921032
 30
0.0
  0
VERTEX
  5
330
330
31B
100
AcDbEntity
  8
MaVisibleEdge thinFlag
100
AcDbVertex
100
AcDb2dVertex
 10
265.173021566165
 20
626.1753126972301
 30
0.0
  0
VERTEX
  5
331
330
31B
100
AcDbEntity
  8
MaVisibleEdge thinFlag
100
AcDbVertex
100
AcDb2dVertex
 10
266.7944443338042
 20
622.9488512867077
 30
0.0
  0
VERTEX
  5
332
330
31B
100
AcDbEntity
  8
MaVisibleEdge thinFlag
100
AcDbVertex
100
AcDb2dVertex
 10
268.4914314859038
 20
619.7616907947645
 30
0.0
  0
VERTEX
  5
333
330
31B
100
AcDbEntity
  8
MaVisibleEdge thinFlag
100
AcDbVertex
100
AcDb2dVertex
 10
270.2628576867705
 20
616.6155955188854
 30
0.0
  0
VERTEX
  5
334
330
31B
100
AcDbEntity
  8
MaVisibleEdge thinFlag
100
AcDbVertex
100
AcDb2dVertex
 10
272.107597600711
 20
613.5123202198132
 30
0.0
  0
VERTEX
  5
335
330
31B
100
AcDbEntity
  8
MaVisibleEdge thinFlag
100
AcDbVertex
100
AcDb2dVertex
 10
274.0245354287749
 20
610.4536578052622
 30
0.0
  0
VERTEX
  5
336
330
31B
100
AcDbEntity
  8
MaVisibleEdge thinFlag
100
AcDbVertex
100
AcDb2dVertex
 10
276.0125410668975
 20
607.4413630359753
 30
0.0
  0
VERTEX
  5
337
330
31B
100
AcDbEntity
  8
MaVisibleEdge thinFlag
100
AcDbVertex
100
AcDb2dVertex
 10
278.0704939477569
 20
604.4772002094372
 30
0.0
  0
VERTEX
  5
338
330
31B
100
AcDbEntity
  8
MaVisibleEdge thinFlag
100
AcDbVertex
100
AcDb2dVertex
 10
280.1972735040313
 20
601.5629526966197
 30
0.0
  0
VERTEX
  5
339
330
31B
100
AcDbEntity
  8
MaVisibleEdge thinFlag
100
AcDbVertex
100
AcDb2dVertex
 10
282.391759168399
 20
598.7003657215222
 30
0.0
  0
VERTEX
  5
33A
330
31B
100
AcDbEntity
  8
MaVisibleEdge thinFlag
100
AcDbVertex
100
AcDb2dVertex
 10
284.6528256051665
 20
595.8912321918591
 30
0.0
  0
VERTEX
  5
33B
330
31B
100
AcDbEntity
  8
MaVisibleEdge thinFlag
100
AcDbVertex
100
AcDb2dVertex
 10
286.9793474786407
 20
593.1373068683727
 30
0.0
  0
VERTEX
  5
33C
330
31B
100
AcDbEntity
  8
MaVisibleEdge thinFlag
100
AcDbVertex
100
AcDb2dVertex
 10
289.3702089898711
 20
590.4403540485485
 30
0.0
  0
VERTEX
  5
33D
330
31B
100
AcDbEntity
  8
MaVisibleEdge thinFlag
100
AcDbVertex
100
AcDb2dVertex
 10
291.8242895715362
 20
587.8021523349866
 30
0.0
  0
VERTEX
  5
33E
330
31B
100
AcDbEntity
  8
MaVisibleEdge thinFlag
100
AcDbVertex
100
AcDb2dVertex
 10
294.3404543511992
 20
585.2244612568006
 30
0.0
  0
SEQEND
  5
31E
330
31B
100
AcDbEntity
  8
MaVisibleEdge thinFlag
  0
LINE
  5
33F
330
77
100
AcDbEntity
  8
MaVisibleEdge thinFlag
100
AcDbLine
 10
249.8304612329367
 20
857.6810976856334
 30
0.0
 11
249.8304612329365
 21
692.6810976856335
 31
0.0
  0
POLYLINE
  5
340
330
77
100
AcDbEntity
  8
MaVisibleEdge thinFlag
100
AcDb2dPolyline
 66
     1
 10
0.0
 20
0.0
 30
0.0
 70
   128
  0
VERTEX
  5
341
330
340
100
AcDbEntity
  8
MaVisibleEdge thinFlag
100
AcDbVertex
100
AcDb2dVertex
 10
276.7991173379546
 20
884.6407458179577
 30
0.0
  0
VERTEX
  5
342
330
340
100
AcDbEntity
  8
MaVisibleEdge thinFlag
100
AcDbVertex
100
AcDb2dVertex
 10
275.0327837579376
 20
884.589209257899
 30
0.0
  0
VERTEX
  5
344
330
340
100
AcDbEntity
  8
MaVisibleEdge thinFlag
100
AcDbVertex
100
AcDb2dVertex
 10
273.2714617364532
 20
884.4156786792861
 30
0.0
  0
VERTEX
  5
345
330
340
100
AcDbEntity
  8
MaVisibleEdge thinFlag
100
AcDbVertex
100
AcDb2dVertex
 10
271.5268290155059
 20
884.1237398975478
 30
0.0
  0
VERTEX
  5
346
330
340
100
AcDbEntity
  8
MaVisibleEdge thinFlag
100
AcDbVertex
100
AcDb2dVertex
 10
269.8062622659331
 20
883.7170931690318
 30
0.0
  0
VERTEX
  5
347
330
340
100
AcDbEntity
  8
MaVisibleEdge thinFlag
100
AcDbVertex
100
AcDb2dVertex
 10
268.1164658181792
 20
883.1990572803599
 30
0.0
  0
VERTEX
  5
348
330
340
100
AcDbEntity
  8
MaVisibleEdge thinFlag
100
AcDbVertex
100
AcDb2dVertex
 10
266.4641487710601
 20
882.5729510181529
 30
0.0
  0
VERTEX
  5
349
330
340
100
AcDbEntity
  8
MaVisibleEdge thinFlag
100
AcDbVertex
100
AcDb2dVertex
 10
264.85601545502
 20
881.8420931690319
 30
0.0
  0
VERTEX
  5
34A
330
340
100
AcDbEntity
  8
MaVisibleEdge thinFlag
100
AcDbVertex
100
AcDb2dVertex
 10
263.2987702005034
 20
881.0098406665906
 30
0.0
  0
VERTEX
  5
34B
330
340
100
AcDbEntity
  8
MaVisibleEdge thinFlag
100
AcDbVertex
100
AcDb2dVertex
 10
261.7991221063262
 20
880.0795122974498
 30
0.0
  0
VERTEX
  5
34C
330
340
100
AcDbEntity
  8
MaVisibleEdge thinFlag
100
AcDbVertex
100
AcDb2dVertex
 10
260.363770734561
 20
879.0544268482312
 30
0.0
  0
VERTEX
  5
34D
330
340
100
AcDbEntity
  8
MaVisibleEdge thinFlag
100
AcDbVertex
100
AcDb2dVertex
 10
258.999425184024
 20
877.937941252528
 30
0.0
  0
VERTEX
  5
34E
330
340
100
AcDbEntity
  8
MaVisibleEdge thinFlag
100
AcDbVertex
100
AcDb2dVertex
 10
257.712792169345
 20
876.7333742969618
 30
0.0
  0
VERTEX
  5
34F
330
340
100
AcDbEntity
  8
MaVisibleEdge thinFlag
100
AcDbVertex
100
AcDb2dVertex
 10
256.5091359727508
 20
875.4444262378795
 30
0.0
  0
VERTEX
  5
350
330
340
100
AcDbEntity
  8
MaVisibleEdge thinFlag
100
AcDbVertex
100
AcDb2dVertex
 10
255.3920042626983
 20
874.0774676197155
 30
0.0
  0
VERTEX
  5
351
330
340
100
AcDbEntity
  8
MaVisibleEdge thinFlag
100
AcDbVertex
100
AcDb2dVertex
 10
254.365636121524
 20
872.6395937793837
 30
0.0
  0
VERTEX
  5
352
330
340
100
AcDbEntity
  8
MaVisibleEdge thinFlag
100
AcDbVertex
100
AcDb2dVertex
 10
253.4342825524932
 20
871.1380144947154
 30
0.0
  0
VERTEX
  5
353
330
340
100
AcDbEntity
  8
MaVisibleEdge thinFlag
100
AcDbVertex
100
AcDb2dVertex
 10
252.6021826379424
 20
869.5798632495984
 30
0.0
  0
VERTEX
  5
354
330
340
100
AcDbEntity
  8
MaVisibleEdge thinFlag
100
AcDbVertex
100
AcDb2dVertex
 10
251.8735849969512
 20
867.9722735279185
 30
0.0
  0
VERTEX
  5
355
330
340
100
AcDbEntity
  8
MaVisibleEdge thinFlag
100
AcDbVertex
100
AcDb2dVertex
 10
251.2527334802276
 20
866.3224551075087
 30
0.0
  0
VERTEX
  5
356
330
340
100
AcDbEntity
  8
MaVisibleEdge thinFlag
100
AcDbVertex
100
AcDb2dVertex
 10
250.7432353608733
 20
864.6371981495006
 30
0.0
  0
VERTEX
  5
357
330
340
100
AcDbEntity
  8
MaVisibleEdge thinFlag
100
AcDbVertex
100
AcDb2dVertex
 10
250.3453791253692
 20
862.9226061695204
 30
0.0
  0
VERTEX
  5
358
330
340
100
AcDbEntity
  8
MaVisibleEdge thinFlag
100
AcDbVertex
100
AcDb2dVertex
 10
250.0599730126983
 20
861.1864611499889
 30
0.0
  0
VERTEX
  5
359
330
340
100
AcDbEntity
  8
MaVisibleEdge thinFlag
100
AcDbVertex
100
AcDb2dVertex
 10
249.8880040757781
 20
859.4366213672744
 30
0.0
  0
VERTEX
  5
35A
330
340
100
AcDbEntity
  8
MaVisibleEdge thinFlag
100
AcDbVertex
100
AcDb2dVertex
 10
249.830461751712
 20
857.6810976856334
 30
0.0
  0
SEQEND
  5
343
330
340
100
AcDbEntity
  8
MaVisibleEdge thinFlag
  0
LINE
  5
35B
330
77
100
AcDbEntity
  8
MaVisibleEdge thinFlag
100
AcDbLine
 10
616.7970907800321
 20
884.6477272327291
 30
0.0
 11
276.7970907800322
 21
884.6477272327289
 31
0.0
  0
POLYLINE
  5
35C
330
77
100
AcDbEntity
  8
MaVisibleEdge thinFlag
100
AcDb2dPolyline
 66
     1
 10
0.0
 20
0.0
 30
0.0
 70
   128
  0
VERTEX
  5
35D
330
35C
100
AcDbEntity
  8
MaVisibleEdge thinFlag
100
AcDbVertex
100
AcDb2dVertex
 10
643.7567389123564
 20
857.6790758960827
 30
0.0
  0
VERTEX
  5
35E
330
35C
100
AcDbEntity
  8
MaVisibleEdge thinFlag
100
AcDbVertex
100
AcDb2dVertex
 10
643.7052023522977
 20
859.445395170985
 30
0.0
  0
VERTEX
  5
360
330
35C
100
AcDbEntity
  8
MaVisibleEdge thinFlag
100
AcDbVertex
100
AcDb2dVertex
 10
643.5316717736846
 20
861.2067171924692
 30
0.0
  0
VERTEX
  5
361
330
35C
100
AcDbEntity
  8
MaVisibleEdge thinFlag
100
AcDbVertex
100
AcDb2dVertex
 10
643.2397329919463
 20
862.951368986903
 30
0.0
  0
VERTEX
  5
362
330
35C
100
AcDbEntity
  8
MaVisibleEdge thinFlag
100
AcDbVertex
100
AcDb2dVertex
 10
642.8330862634306
 20
864.6719118946178
 30
0.0
  0
VERTEX
  5
363
330
35C
100
AcDbEntity
  8
MaVisibleEdge thinFlag
100
AcDbVertex
100
AcDb2dVertex
 10
642.3150503747588
 20
866.3617083423718
 30
0.0
  0
VERTEX
  5
364
330
35C
100
AcDbEntity
  8
MaVisibleEdge thinFlag
100
AcDbVertex
100
AcDb2dVertex
 10
641.6889441125516
 20
868.0140444629772
 30
0.0
  0
VERTEX
  5
365
330
35C
100
AcDbEntity
  8
MaVisibleEdge thinFlag
100
AcDbVertex
100
AcDb2dVertex
 10
640.9580862634308
 20
869.6221682422743
 30
0.0
  0
VERTEX
  5
366
330
35C
100
AcDbEntity
  8
MaVisibleEdge thinFlag
100
AcDbVertex
100
AcDb2dVertex
 10
640.1258337609893
 20
871.1794039600475
 30
0.0
  0
VERTEX
  5
367
330
35C
100
AcDbEntity
  8
MaVisibleEdge thinFlag
100
AcDbVertex
100
AcDb2dVertex
 10
639.1955053918486
 20
872.6790758960827
 30
0.0
  0
VERTEX
  5
368
330
35C
100
AcDbEntity
  8
MaVisibleEdge thinFlag
100
AcDbVertex
100
AcDb2dVertex
 10
638.1704199426299
 20
874.1144320362192
 30
0.0
  0
VERTEX
  5
369
330
35C
100
AcDbEntity
  8
MaVisibleEdge thinFlag
100
AcDbVertex
100
AcDb2dVertex
 10
637.0539343469268
 20
875.4787585132701
 30
0.0
  0
VERTEX
  5
36A
330
35C
100
AcDbEntity
  8
MaVisibleEdge thinFlag
100
AcDbVertex
100
AcDb2dVertex
 10
635.8493673913604
 20
876.7653796070202
 30
0.0
  0
VERTEX
  5
36B
330
35C
100
AcDbEntity
  8
MaVisibleEdge thinFlag
100
AcDbVertex
100
AcDb2dVertex
 10
634.5604193322782
 20
877.9690691822155
 30
0.0
  0
VERTEX
  5
36C
330
35C
100
AcDbEntity
  8
MaVisibleEdge thinFlag
100
AcDbVertex
100
AcDb2dVertex
 10
633.1934607141143
 20
879.0862032764536
 30
0.0
  0
VERTEX
  5
36D
330
35C
100
AcDbEntity
  8
MaVisibleEdge thinFlag
100
AcDbVertex
100
AcDb2dVertex
 10
631.7555868737822
 20
880.11254757577
 30
0.0
  0
VERTEX
  5
36E
330
35C
100
AcDbEntity
  8
MaVisibleEdge thinFlag
100
AcDbVertex
100
AcDb2dVertex
 10
630.2540075891142
 20
881.0439059131727
 30
0.0
  0
VERTEX
  5
36F
330
35C
100
AcDbEntity
  8
MaVisibleEdge thinFlag
100
AcDbVertex
100
AcDb2dVertex
 10
628.6958563439971
 20
881.8760058277232
 30
0.0
  0
VERTEX
  5
370
330
35C
100
AcDbEntity
  8
MaVisibleEdge thinFlag
100
AcDbVertex
100
AcDb2dVertex
 10
627.0882666223172
 20
882.6046130054576
 30
0.0
  0
VERTEX
  5
371
330
35C
100
AcDbEntity
  8
MaVisibleEdge thinFlag
100
AcDbVertex
100
AcDb2dVertex
 10
625.4384482019072
 20
883.2254549854381
 30
0.0
  0
VERTEX
  5
372
330
35C
100
AcDbEntity
  8
MaVisibleEdge thinFlag
100
AcDbVertex
100
AcDb2dVertex
 10
623.7531912438992
 20
883.734945952235
 30
0.0
  0
VERTEX
  5
373
330
35C
100
AcDbEntity
  8
MaVisibleEdge thinFlag
100
AcDbVertex
100
AcDb2dVertex
 10
622.0385992639188
 20
884.1328188770397
 30
0.0
  0
VERTEX
  5
374
330
35C
100
AcDbEntity
  8
MaVisibleEdge thinFlag
100
AcDbVertex
100
AcDb2dVertex
 10
620.3024542443877
 20
884.4182345264536
 30
0.0
  0
VERTEX
  5
375
330
35C
100
AcDbEntity
  8
MaVisibleEdge thinFlag
100
AcDbVertex
100
AcDb2dVertex
 10
618.5526144616727
 20
884.5902010791881
 30
0.0
  0
VERTEX
  5
376
330
35C
100
AcDbEntity
  8
MaVisibleEdge thinFlag
100
AcDbVertex
100
AcDb2dVertex
 10
616.7970907800321
 20
884.6477267139539
 30
0.0
  0
SEQEND
  5
35F
330
35C
100
AcDbEntity
  8
MaVisibleEdge thinFlag
  0
LINE
  5
377
330
77
100
AcDbEntity
  8
MaVisibleEdge thinFlag
100
AcDbLine
 10
643.7637203271279
 20
692.6810976856337
 30
0.0
 11
643.7637203271279
 21
857.6810976856334
 31
0.0
  0
POLYLINE
  5
378
330
77
100
AcDbEntity
  8
MaVisibleEdge thinFlag
100
AcDb2dPolyline
 66
     1
 10
0.0
 20
0.0
 30
0.0
 70
   128
  0
VERTEX
  5
379
330
378
100
AcDbEntity
  8
MaVisibleEdge thinFlag
100
AcDbVertex
100
AcDb2dVertex
 10
491.7970907800322
 20
540.7144686573132
 30
0.0
  0
VERTEX
  5
37A
330
378
100
AcDbEntity
  8
MaVisibleEdge thinFlag
100
AcDbVertex
100
AcDb2dVertex
 10
495.3949034326201
 20
540.7578966014965
 30
0.0
  0
VERTEX
  5
37C
330
378
100
AcDbEntity
  8
MaVisibleEdge thinFlag
100
AcDbVertex
100
AcDb2dVertex
 10
498.9979803674344
 20
540.8879634731396
 30
0.0
  0
VERTEX
  5
37D
330
378
100
AcDbEntity
  8
MaVisibleEdge thinFlag
100
AcDbVertex
100
AcDb2dVertex
 10
502.6032889001493
 20
541.1043402546032
 30
0.0
  0
VERTEX
  5
37E
330
378
100
AcDbEntity
  8
MaVisibleEdge thinFlag
100
AcDbVertex
100
AcDb2dVertex
 10
506.2077391259795
 20
541.4066907756908
 30
0.0
  0
VERTEX
  5
37F
330
378
100
AcDbEntity
  8
MaVisibleEdge thinFlag
100
AcDbVertex
100
AcDb2dVertex
 10
509.8082983605985
 20
541.794690787135
 30
0.0
  0
VERTEX
  5
380
330
378
100
AcDbEntity
  8
MaVisibleEdge thinFlag
100
AcDbVertex
100
AcDb2dVertex
 10
513.4019148461943
 20
542.2680065029246
 30
0.0
  0
VERTEX
  5
381
330
378
100
AcDbEntity
  8
MaVisibleEdge thinFlag
100
AcDbVertex
100
AcDb2dVertex
 10
516.9855177514676
 20
542.8263065212353
 30
0.0
  0
VERTEX
  5
382
330
378
100
AcDbEntity
  8
MaVisibleEdge thinFlag
100
AcDbVertex
100
AcDb2dVertex
 10
520.5560553186065
 20
543.4692642086132
 30
0.0
  0
VERTEX
  5
383
330
378
100
AcDbEntity
  8
MaVisibleEdge thinFlag
100
AcDbVertex
100
AcDb2dVertex
 10
524.1104757897979
 20
544.1965457790478
 30
0.0
  0
VERTEX
  5
384
330
378
100
AcDbEntity
  8
MaVisibleEdge thinFlag
100
AcDbVertex
100
AcDb2dVertex
 10
527.6457464807158
 20
545.0078222148999
 30
0.0
  0
VERTEX
  5
385
330
378
100
AcDbEntity
  8
MaVisibleEdge thinFlag
100
AcDbVertex
100
AcDb2dVertex
 10
531.1587774865752
 20
545.9027621143444
 30
0.0
  0
VERTEX
  5
386
330
378
100
AcDbEntity
  8
MaVisibleEdge thinFlag
100
AcDbVertex
100
AcDb2dVertex
 10
534.6465170495633
 20
546.8810340755566
 30
0.0
  0
VERTEX
  5
387
330
378
100
AcDbEntity
  8
MaVisibleEdge thinFlag
100
AcDbVertex
100
AcDb2dVertex
 10
538.1061804406766
 20
547.9423853748425
 30
0.0
  0
VERTEX
  5
388
330
378
100
AcDbEntity
  8
MaVisibleEdge thinFlag
100
AcDbVertex
100
AcDb2dVertex
 10
541.5386068933135
 20
549.0873023861033
 30
0.0
  0
VERTEX
  5
389
330
378
100
AcDbEntity
  8
MaVisibleEdge thinFlag
100
AcDbVertex
100
AcDb2dVertex
 10
544.9429571740751
 20
550.3150197857006
 30
0.0
  0
VERTEX
  5
38A
330
378
100
AcDbEntity
  8
MaVisibleEdge thinFlag
100
AcDbVertex
100
AcDb2dVertex
 10
548.3173620813016
 20
551.6243574016674
 30
0.0
  0
VERTEX
  5
38B
330
378
100
AcDbEntity
  8
MaVisibleEdge thinFlag
100
AcDbVertex
100
AcDb2dVertex
 10
551.6599142663603
 20
553.0141398304087
 30
0.0
  0
VERTEX
  5
38C
330
378
100
AcDbEntity
  8
MaVisibleEdge thinFlag
100
AcDbVertex
100
AcDb2dVertex
 10
554.9686682336455
 20
554.4831797474009
 30
0.0
  0
VERTEX
  5
38D
330
378
100
AcDbEntity
  8
MaVisibleEdge thinFlag
100
AcDbVertex
100
AcDb2dVertex
 10
558.2417547814969
 20
556.030301749049
 30
0.0
  0
VERTEX
  5
38E
330
378
100
AcDbEntity
  8
MaVisibleEdge thinFlag
100
AcDbVertex
100
AcDb2dVertex
 10
561.4772665612822
 20
557.654328047572
 30
0.0
  0
VERTEX
  5
38F
330
378
100
AcDbEntity
  8
MaVisibleEdge thinFlag
100
AcDbVertex
100
AcDb2dVertex
 10
564.6732962243683
 20
559.3540808551892
 30
0.0
  0
VERTEX
  5
390
330
378
100
AcDbEntity
  8
MaVisibleEdge thinFlag
100
AcDbVertex
100
AcDb2dVertex
 10
567.8279745690947
 20
561.1283728473766
 30
0.0
  0
VERTEX
  5
391
330
378
100
AcDbEntity
  8
MaVisibleEdge thinFlag
100
AcDbVertex
100
AcDb2dVertex
 10
570.9393560998563
 20
562.9760262363537
 30
0.0
  0
VERTEX
  5
392
330
378
100
AcDbEntity
  8
MaVisibleEdge thinFlag
100
AcDbVertex
100
AcDb2dVertex
 10
574.0055716149932
 20
564.8958680027111
 30
0.0
  0
VERTEX
  5
393
330
378
100
AcDbEntity
  8
MaVisibleEdge thinFlag
100
AcDbVertex
100
AcDb2dVertex
 10
577.0247137658721
 20
566.8867155902968
 30
0.0
  0
VERTEX
  5
394
330
378
100
AcDbEntity
  8
MaVisibleEdge thinFlag
100
AcDbVertex
100
AcDb2dVertex
 10
579.9948752038602
 20
568.9473816745862
 30
0.0
  0
VERTEX
  5
395
330
378
100
AcDbEntity
  8
MaVisibleEdge thinFlag
100
AcDbVertex
100
AcDb2dVertex
 10
582.9141104333525
 20
571.0766980045422
 30
0.0
  0
VERTEX
  5
396
330
378
100
AcDbEntity
  8
MaVisibleEdge thinFlag
100
AcDbVertex
100
AcDb2dVertex
 10
585.7805883996611
 20
573.2734820240124
 30
0.0
  0
VERTEX
  5
397
330
378
100
AcDbEntity
  8
MaVisibleEdge thinFlag
100
AcDbVertex
100
AcDb2dVertex
 10
588.5924017541532
 20
575.5365464084729
 30
0.0
  0
VERTEX
  5
398
330
378
100
AcDbEntity
  8
MaVisibleEdge thinFlag
100
AcDbVertex
100
AcDb2dVertex
 10
591.3476050012235
 20
577.8647229068859
 30
0.0
  0
VERTEX
  5
399
330
378
100
AcDbEntity
  8
MaVisibleEdge thinFlag
100
AcDbVertex
100
AcDb2dVertex
 10
594.0442907922393
 20
580.2568241947277
 30
0.0
  0
VERTEX
  5
39A
330
378
100
AcDbEntity
  8
MaVisibleEdge thinFlag
100
AcDbVertex
100
AcDb2dVertex
 10
596.6808188073757
 20
582.7118918293104
 30
0.0
  0
VERTEX
  5
39B
330
378
100
AcDbEntity
  8
MaVisibleEdge thinFlag
100
AcDbVertex
100
AcDb2dVertex
 10
599.25871492554
 20
585.2322146289927
 30
0.0
  0
VERTEX
  5
39C
330
378
100
AcDbEntity
  8
MaVisibleEdge thinFlag
100
AcDbVertex
100
AcDb2dVertex
 10
601.7777121179229
 20
587.8170678012951
 30
0.0
  0
VERTEX
  5
39D
330
378
100
AcDbEntity
  8
MaVisibleEdge thinFlag
100
AcDbVertex
100
AcDb2dVertex
 10
604.2363607995635
 20
590.4643008106336
 30
0.0
  0
VERTEX
  5
39E
330
378
100
AcDbEntity
  8
MaVisibleEdge thinFlag
100
AcDbVertex
100
AcDb2dVertex
 10
606.6331732385282
 20
593.1717440479381
 30
0.0
  0
VERTEX
  5
39F
330
378
100
AcDbEntity
  8
MaVisibleEdge thinFlag
100
AcDbVertex
100
AcDb2dVertex
 10
608.9666617028838
 20
595.9372660511121
 30
0.0
  0
VERTEX
  5
3A0
330
378
100
AcDbEntity
  8
MaVisibleEdge thinFlag
100
AcDbVertex
100
AcDb2dVertex
 10
611.2354147546416
 20
598.7586829059705
 30
0.0
  0
VERTEX
  5
3A1
330
378
100
AcDbEntity
  8
MaVisibleEdge thinFlag
100
AcDbVertex
100
AcDb2dVertex
 10
613.4379065148955
 20
601.6338488453015
 30
0.0
  0
VERTEX
  5
3A2
330
378
100
AcDbEntity
  8
MaVisibleEdge thinFlag
100
AcDbVertex
100
AcDb2dVertex
 10
615.5726873986846
 20
604.5606085651501
 30
0.0
  0
VERTEX
  5
3A3
330
378
100
AcDbEntity
  8
MaVisibleEdge thinFlag
100
AcDbVertex
100
AcDb2dVertex
 10
617.6383078210477
 20
607.5368067615612
 30
0.0
  0
VERTEX
  5
3A4
330
378
100
AcDbEntity
  8
MaVisibleEdge thinFlag
100
AcDbVertex
100
AcDb2dVertex
 10
619.6332800500518
 20
610.5602881305798
 30
0.0
  0
VERTEX
  5
3A5
330
378
100
AcDbEntity
  8
MaVisibleEdge thinFlag
100
AcDbVertex
100
AcDb2dVertex
 10
621.5561545007354
 20
613.6288878315075
 30
0.0
  0
VERTEX
  5
3A6
330
378
100
AcDbEntity
  8
MaVisibleEdge thinFlag
100
AcDbVertex
100
AcDb2dVertex
 10
623.4054434411651
 20
616.7404600971325
 30
0.0
  0
VERTEX
  5
3A7
330
378
100
AcDbEntity
  8
MaVisibleEdge thinFlag
100
AcDbVertex
100
AcDb2dVertex
 10
625.1796972863798
 20
619.8928400867565
 30
0.0
  0
VERTEX
  5
3A8
330
378
100
AcDbEntity
  8
MaVisibleEdge thinFlag
100
AcDbVertex
100
AcDb2dVertex
 10
626.8774664514189
 20
623.0838724964246
 30
0.0
  0
VERTEX
  5
3A9
330
378
100
AcDbEntity
  8
MaVisibleEdge thinFlag
100
AcDbVertex
100
AcDb2dVertex
 10
628.4972250573758
 20
626.3114115589246
 30
0.0
  0
VERTEX
  5
3AA
330
378
100
AcDbEntity
  8
MaVisibleEdge thinFlag
100
AcDbVertex
100
AcDb2dVertex
 10
630.03752351929
 20
629.5732828968152
 30
0.0
  0
VERTEX
  5
3AB
330
378
100
AcDbEntity
  8
MaVisibleEdge thinFlag
100
AcDbVertex
100
AcDb2dVertex
 10
631.4969503991727
 20
632.8673407428843
 30
0.0
  0
VERTEX
  5
3AC
330
378
100
AcDbEntity
  8
MaVisibleEdge thinFlag
100
AcDbVertex
100
AcDb2dVertex
 10
632.8743231408719
 20
636.1921355121714
 30
0.0
  0
VERTEX
  5
3AD
330
378
100
AcDbEntity
  8
MaVisibleEdge thinFlag
100
AcDbVertex
100
AcDb2dVertex
 10
634.1713202111844
 20
639.5508810871229
 30
0.0
  0
VERTEX
  5
3AE
330
378
100
AcDbEntity
  8
MaVisibleEdge thinFlag
100
AcDbVertex
100
AcDb2dVertex
 10
635.3880179040555
 20
642.9424807422741
 30
0.0
  0
VERTEX
  5
3AF
330
378
100
AcDbEntity
  8
MaVisibleEdge thinFlag
100
AcDbVertex
100
AcDb2dVertex
 10
636.5239584558135
 20
646.3647505634411
 30
0.0
  0
VERTEX
  5
3B0
330
378
100
AcDbEntity
  8
MaVisibleEdge thinFlag
100
AcDbVertex
100
AcDb2dVertex
 10
637.5787603967315
 20
649.8154780262097
 30
0.0
  0
VERTEX
  5
3B1
330
378
100
AcDbEntity
  8
MaVisibleEdge thinFlag
100
AcDbVertex
100
AcDb2dVertex
 10
638.5520041101102
 20
653.292469679652
 30
0.0
  0
VERTEX
  5
3B2
330
378
100
AcDbEntity
  8
MaVisibleEdge thinFlag
100
AcDbVertex
100
AcDb2dVertex
 10
639.4432318322782
 20
656.7935320728405
 30
0.0
  0
VERTEX
  5
3B3
330
378
100
AcDbEntity
  8
MaVisibleEdge thinFlag
100
AcDbVertex
100
AcDb2dVertex
 10
640.2521002404815
 20
660.3164622181042
 30
0.0
  0
VERTEX
  5
3B4
330
378
100
AcDbEntity
  8
MaVisibleEdge thinFlag
100
AcDbVertex
100
AcDb2dVertex
 10
640.9781134240752
 20
663.8590571277721
 30
0.0
  0
VERTEX
  5
3B5
330
378
100
AcDbEntity
  8
MaVisibleEdge thinFlag
100
AcDbVertex
100
AcDb2dVertex
 10
641.620889913333
 20
667.4191233509167
 30
0.0
  0
VERTEX
  5
3B6
330
378
100
AcDbEntity
  8
MaVisibleEdge thinFlag
100
AcDbVertex
100
AcDb2dVertex
 10
642.1800100915556
 20
670.9944578998669
 30
0.0
  0
VERTEX
  5
3B7
330
378
100
AcDbEntity
  8
MaVisibleEdge thinFlag
100
AcDbVertex
100
AcDb2dVertex
 10
642.6550543420439
 20
674.5828768604382
 30
0.0
  0
VERTEX
  5
3B8
330
378
100
AcDbEntity
  8
MaVisibleEdge thinFlag
100
AcDbVertex
100
AcDb2dVertex
 10
643.0456030480987
 20
678.1821581714734
 30
0.0
  0
VERTEX
  5
3B9
330
378
100
AcDbEntity
  8
MaVisibleEdge thinFlag
100
AcDbVertex
100
AcDb2dVertex
 10
643.3511984460477
 20
681.7901179187877
 30
0.0
  0
VERTEX
  5
3BA
330
378
100
AcDbEntity
  8
MaVisibleEdge thinFlag
100
AcDbVertex
100
AcDb2dVertex
 10
643.5714590661651
 20
685.4045435779673
 30
0.0
  0
VERTEX
  5
3BB
330
378
100
AcDbEntity
  8
MaVisibleEdge thinFlag
100
AcDbVertex
100
AcDb2dVertex
 10
643.7059652917509
 20
689.0232607715709
 30
0.0
  0
VERTEX
  5
3BC
330
378
100
AcDbEntity
  8
MaVisibleEdge thinFlag
100
AcDbVertex
100
AcDb2dVertex
 10
643.7542975061063
 20
692.6440379016979
 30
0.0
  0
SEQEND
  5
37B
330
378
100
AcDbEntity
  8
MaVisibleEdge thinFlag
  0
LINE
  5
3BD
330
77
100
AcDbEntity
  8
MaVisibleEdge thinFlag
100
AcDbLine
 10
401.7970907800322
 20
540.7144681385378
 30
0.0
 11
491.7970907800322
 21
540.7144681385378
 31
0.0
  0
POLYLINE
  5
3BE
330
77
100
AcDbEntity
  8
MaVisibleEdge thinFlag
100
AcDb2dPolyline
 66
     1
 10
0.0
 20
0.0
 30
0.0
 70
   128
  0
VERTEX
  5
3BF
330
3BE
100
AcDbEntity
  8
MaVisibleEdge thinFlag
100
AcDbVertex
100
AcDb2dVertex
 10
294.3404543511992
 20
585.2244612568006
 30
0.0
  0
VERTEX
  5
3C0
330
3BE
100
AcDbEntity
  8
MaVisibleEdge thinFlag
100
AcDbVertex
100
AcDb2dVertex
 10
296.9152081124907
 20
582.7111288898571
 30
0.0
  0
VERTEX
  5
3C2
330
3BE
100
AcDbEntity
  8
MaVisibleEdge thinFlag
100
AcDbVertex
100
AcDb2dVertex
 10
299.5549500100738
 20
580.2553316944226
 30
0.0
  0
VERTEX
  5
3C3
330
3BE
100
AcDbEntity
  8
MaVisibleEdge thinFlag
100
AcDbVertex
100
AcDb2dVertex
 10
302.2572863214141
 20
577.8589960926161
 30
0.0
  0
VERTEX
  5
3C4
330
3BE
100
AcDbEntity
  8
MaVisibleEdge thinFlag
100
AcDbVertex
100
AcDb2dVertex
 10
305.0198233239776
 20
575.5240485065562
 30
0.0
  0
VERTEX
  5
3C5
330
3BE
100
AcDbEntity
  8
MaVisibleEdge thinFlag
100
AcDbVertex
100
AcDb2dVertex
 10
307.8401720636016
 20
573.2524201267348
 30
0.0
  0
VERTEX
  5
3C6
330
3BE
100
AcDbEntity
  8
MaVisibleEdge thinFlag
100
AcDbVertex
100
AcDb2dVertex
 10
310.7159292810089
 20
571.0460373752697
 30
0.0
  0
VERTEX
  5
3C7
330
3BE
100
AcDbEntity
  8
MaVisibleEdge thinFlag
100
AcDbVertex
100
AcDb2dVertex
 10
313.6447012536651
 20
568.9068219059095
 30
0.0
  0
VERTEX
  5
3C8
330
3BE
100
AcDbEntity
  8
MaVisibleEdge thinFlag
100
AcDbVertex
100
AcDb2dVertex
 10
316.6241037957793
 20
566.8367001407728
 30
0.0
  0
VERTEX
  5
3C9
330
3BE
100
AcDbEntity
  8
MaVisibleEdge thinFlag
100
AcDbVertex
100
AcDb2dVertex
 10
319.6517431848174
 20
564.8376032703502
 30
0.0
  0
VERTEX
  5
3CA
330
3BE
100
AcDbEntity
  8
MaVisibleEdge thinFlag
100
AcDbVertex
100
AcDb2dVertex
 10
322.725216161502
 20
562.9114529483898
 30
0.0
  0
VERTEX
  5
3CB
330
3BE
100
AcDbEntity
  8
MaVisibleEdge thinFlag
100
AcDbVertex
100
AcDb2dVertex
 10
325.8421290032988
 20
561.060180365382
 30
0.0
  0
VERTEX
  5
3CC
330
3BE
100
AcDbEntity
  8
MaVisibleEdge thinFlag
100
AcDbVertex
100
AcDb2dVertex
 10
329.0000975244171
 20
559.2857071750744
 30
0.0
  0
VERTEX
  5
3CD
330
3BE
100
AcDbEntity
  8
MaVisibleEdge thinFlag
100
AcDbVertex
100
AcDb2dVertex
 10
332.1969473474151
 20
557.5898453586681
 30
0.0
  0
VERTEX
  5
3CE
330
3BE
100
AcDbEntity
  8
MaVisibleEdge thinFlag
100
AcDbVertex
100
AcDb2dVertex
 10
335.4336226098662
 20
555.9723278873548
 30
0.0
  0
VERTEX
  5
3CF
330
3BE
100
AcDbEntity
  8
MaVisibleEdge thinFlag
100
AcDbVertex
100
AcDb2dVertex
 10
338.7090075128203
 20
554.4332072132212
 30
0.0
  0
VERTEX
  5
3D0
330
3BE
100
AcDbEntity
  8
MaVisibleEdge thinFlag
100
AcDbVertex
100
AcDb2dVertex
 10
342.0209181420928
 20
552.9729887836558
 30
0.0
  0
VERTEX
  5
3D1
330
3BE
100
AcDbEntity
  8
MaVisibleEdge thinFlag
100
AcDbVertex
100
AcDb2dVertex
 10
345.3671801202422
 20
551.5921875827891
 30
0.0
  0
VERTEX
  5
3D2
330
3BE
100
AcDbEntity
  8
MaVisibleEdge thinFlag
100
AcDbVertex
100
AcDb2dVertex
 10
348.7455999963409
 20
550.2913114421946
 30
0.0
  0
VERTEX
  5
3D3
330
3BE
100
AcDbEntity
  8
MaVisibleEdge thinFlag
100
AcDbVertex
100
AcDb2dVertex
 10
352.1540224664336
 20
549.070868193446
 30
0.0
  0
VERTEX
  5
3D4
330
3BE
100
AcDbEntity
  8
MaVisibleEdge thinFlag
100
AcDbVertex
100
AcDb2dVertex
 10
355.5902445428496
 20
547.9313728206737
 30
0.0
  0
VERTEX
  5
3D5
330
3BE
100
AcDbEntity
  8
MaVisibleEdge thinFlag
100
AcDbVertex
100
AcDb2dVertex
 10
359.0521013848907
 20
546.8733331554516
 30
0.0
  0
VERTEX
  5
3D6
330
3BE
100
AcDbEntity
  8
MaVisibleEdge thinFlag
100
AcDbVertex
100
AcDb2dVertex
 10
362.5374186151153
 20
545.8972641819103
 30
0.0
  0
VERTEX
  5
3D7
330
3BE
100
AcDbEntity
  8
MaVisibleEdge thinFlag
100
AcDbVertex
100
AcDb2dVertex
 10
366.0440027825958
 20
545.0036713474377
 30
0.0
  0
VERTEX
  5
3D8
330
3BE
100
AcDbEntity
  8
MaVisibleEdge thinFlag
100
AcDbVertex
100
AcDb2dVertex
 10
369.5696890466338
 20
544.1930672519788
 30
0.0
  0
VERTEX
  5
3D9
330
3BE
100
AcDbEntity
  8
MaVisibleEdge thinFlag
100
AcDbVertex
100
AcDb2dVertex
 10
373.1122839563018
 20
543.4659621112928
 30
0.0
  0
VERTEX
  5
3DA
330
3BE
100
AcDbEntity
  8
MaVisibleEdge thinFlag
100
AcDbVertex
100
AcDb2dVertex
 10
376.6696226709014
 20
542.8228661411388
 30
0.0
  0
VERTEX
  5
3DB
330
3BE
100
AcDbEntity
  8
MaVisibleEdge thinFlag
100
AcDbVertex
100
AcDb2dVertex
 10
380.2395117395048
 20
542.2642943256481
 30
0.0
  0
VERTEX
  5
3DC
330
3BE
100
AcDbEntity
  8
MaVisibleEdge thinFlag
100
AcDbVertex
100
AcDb2dVertex
 10
383.8197958581572
 20
541.7907497280224
 30
0.0
  0
VERTEX
  5
3DD
330
3BE
100
AcDbEntity
  8
MaVisibleEdge thinFlag
100
AcDbVertex
100
AcDb2dVertex
 10
387.4082625024444
 20
541.4027497165783
 30
0.0
  0
VERTEX
  5
3DE
330
3BE
100
AcDbEntity
  8
MaVisibleEdge thinFlag
100
AcDbVertex
100
AcDb2dVertex
 10
391.0027563684112
 20
541.1008021228894
 30
0.0
  0
VERTEX
  5
3DF
330
3BE
100
AcDbEntity
  8
MaVisibleEdge thinFlag
100
AcDbVertex
100
AcDb2dVertex
 10
394.6011030786162
 20
540.8854171627146
 30
0.0
  0
VERTEX
  5
3E0
330
3BE
100
AcDbEntity
  8
MaVisibleEdge thinFlag
100
AcDbVertex
100
AcDb2dVertex
 10
398.2014143579131
 20
540.7571217411144
 30
0.0
  0
VERTEX
  5
3E1
330
3BE
100
AcDbEntity
  8
MaVisibleEdge thinFlag
100
AcDbVertex
100
AcDb2dVertex
 10
401.8063986413603
 20
540.7164117687329
 30
0.0
  0
SEQEND
  5
3C1
330
3BE
100
AcDbEntity
  8
MaVisibleEdge thinFlag
  0
ARC
  5
3E2
330
77
100
AcDbEntity
  8
MaVisibleEdge
100
AcDbCircle
 10
446.0478908308113
 20
757.6810976855889
 30
0.0
 40
17.50000000000008
100
AcDbArc
 50
34.42435579429666
 51
85.57564420570363
  0
LINE
  5
3E3
330
77
100
AcDbEntity
  8
MaVisibleEdge
100
AcDbLine
 10
447.3978908308113
 20
763.0128422406105
 30
0.0
 11
447.3978908308113
 21
775.1289485561117
 31
0.0
  0
ARC
  5
3E4
330
77
100
AcDbEntity
  8
MaVisibleEdge
100
AcDbCircle
 10
446.0478908308113
 20
757.6810976855887
 30
0.0
 40
5.50000000000031
100
AcDbArc
 50
44.20869753470696
 51
75.7913024652942
  0
LINE
  5
3E5
330
77
100
AcDbEntity
  8
MaVisibleEdge
100
AcDbLine
 10
460.4831729261264
 20
767.5741574159594
 30
0.0
 11
449.9903170619491
 21
761.5161042582087
 31
0.0
  0
ARC
  5
3E6
330
77
100
AcDbEntity
  8
MaVisibleEdge
100
AcDbCircle
 10
446.0478908308116
 20
757.6810976855887
 30
0.0
 40
5.500000000000523
100
AcDbArc
 50
104.2086975347086
 51
135.7913024652934
  0
LINE
  5
3E7
330
77
100
AcDbEntity
  8
MaVisibleEdge
100
AcDbLine
 10
444.6978908308113
 20
775.1289485561117
 30
0.0
 11
444.6978908308113
 21
763.0128422406105
 31
0.0
  0
ARC
  5
3E8
330
77
100
AcDbEntity
  8
MaVisibleEdge
100
AcDbCircle
 10
446.0478908308114
 20
757.6810976855889
 30
0.0
 40
17.50000000000007
100
AcDbArc
 50
94.42435579429654
 51
145.5756442057035
  0
LINE
  5
3E9
330
77
100
AcDbEntity
  8
MaVisibleEdge
100
AcDbLine
 10
442.1054645996734
 20
761.5161042582087
 30
0.0
 11
431.6126087354962
 21
767.5741574159594
 31
0.0
  0
ARC
  5
3EA
330
77
100
AcDbEntity
  8
MaVisibleEdge
100
AcDbCircle
 10
446.0478908308119
 20
757.6810976855889
 30
0.0
 40
5.500000000000619
100
AcDbArc
 50
164.2086975347064
 51
195.791302465291
  0
LINE
  5
3EB
330
77
100
AcDbEntity
  8
MaVisibleEdge
100
AcDbLine
 10
430.2626087354963
 20
765.2358888257414
 30
0.0
 11
440.7554645996734
 21
759.1778356679907
 31
0.0
  0
ARC
  5
3EC
330
77
100
AcDbEntity
  8
MaVisibleEdge
100
AcDbCircle
 10
446.0478908308114
 20
757.6810976855889
 30
0.0
 40
17.49999999999996
100
AcDbArc
 50
154.4243557942961
 51
205.5756442057035
  0
LINE
  5
3ED
330
77
100
AcDbEntity
  8
MaVisibleEdge
100
AcDbLine
 10
440.7554645996734
 20
756.1843597031874
 30
0.0
 11
430.2626087354963
 21
750.1263065454367
 31
0.0
  0
ARC
  5
3EE
330
77
100
AcDbEntity
  8
MaVisibleEdge
100
AcDbCircle
 10
446.0478908308115
 20
757.6810976855893
 30
0.0
 40
5.50000000000031
100
AcDbArc
 50
224.2086975347069
 51
255.7913024652942
  0
LINE
  5
3EF
330
77
100
AcDbEntity
  8
MaVisibleEdge
100
AcDbLine
 10
431.6126087354962
 20
747.7880379552187
 30
0.0
 11
442.1054645996734
 21
753.8460911129694
 31
0.0
  0
ARC
  5
3F0
330
77
100
AcDbEntity
  8
MaVisibleEdge
100
AcDbCircle
 10
446.0478908308114
 20
757.6810976855893
 30
0.0
 40
17.50000000000008
100
AcDbArc
 50
214.4243557942966
 51
265.5756442057036
  0
LINE
  5
3F1
330
77
100
AcDbEntity
  8
MaVisibleEdge
100
AcDbLine
 10
444.6978908308113
 20
752.3493531305677
 30
0.0
 11
444.6978908308113
 21
740.2332468150664
 31
0.0
  0
ARC
  5
3F2
330
77
100
AcDbEntity
  8
MaVisibleEdge
100
AcDbCircle
 10
446.047890830811
 20
757.6810976855896
 30
0.0
 40
5.500000000000523
100
AcDbArc
 50
284.2086975347086
 51
315.7913024652935
  0
LINE
  5
3F3
330
77
100
AcDbEntity
  8
MaVisibleEdge
100
AcDbLine
 10
447.3978908308113
 20
740.2332468150664
 30
0.0
 11
447.3978908308113
 21
752.3493531305677
 31
0.0
  0
ARC
  5
3F4
330
77
100
AcDbEntity
  8
MaVisibleEdge
100
AcDbCircle
 10
446.0478908308114
 20
757.6810976855893
 30
0.0
 40
17.50000000000007
100
AcDbArc
 50
274.4243557942966
 51
325.5756442057034
  0
LINE
  5
3F5
330
77
100
AcDbEntity
  8
MaVisibleEdge
100
AcDbLine
 10
449.9903170619491
 20
753.8460911129694
 30
0.0
 11
460.4831729261264
 21
747.7880379552187
 31
0.0
  0
ARC
  5
3F6
330
77
100
AcDbEntity
  8
MaVisibleEdge
100
AcDbCircle
 10
446.0478908308108
 20
757.6810976855893
 30
0.0
 40
5.500000000000619
100
AcDbArc
 50
344.2086975347065
 51
15.79130246529106
  0
LINE
  5
3F7
330
77
100
AcDbEntity
  8
MaVisibleEdge
100
AcDbLine
 10
461.8331729261266
 20
750.1263065454367
 30
0.0
 11
451.3403170619493
 21
756.1843597031874
 31
0.0
  0
ARC
  5
3F8
330
77
100
AcDbEntity
  8
MaVisibleEdge
100
AcDbCircle
 10
446.0478908308115
 20
757.6810976855889
 30
0.0
 40
17.49999999999992
100
AcDbArc
 50
334.4243557942964
 51
25.5756442057035
  0
LINE
  5
3F9
330
77
100
AcDbEntity
  8
MaVisibleEdge
100
AcDbLine
 10
451.3403170619493
 20
759.1778356679907
 30
0.0
 11
461.8331729261266
 21
765.2358888257414
 31
0.0
  0
LINE
  5
3FA
330
77
100
AcDbEntity
  8
MaCenterline
  6
Continuous
100
AcDbLine
 10
795.9086962355208
 20
1483.796789543679
 30
0.0
 11
973.6229819498063
 21
1483.796789543679
 31
0.0
  0
LINE
  5
3FB
330
77
100
AcDbEntity
  8
MaCenterline
  6
Continuous
100
AcDbLine
 10
795.9086962355638
 20
1283.796789543679
 30
0.0
 11
973.6229819498497
 21
1283.796789543679
 31
0.0
  0
DIMENSION
  5
3FC
330
77
100
AcDbEntity
  8
Bemaßungen(DIN)
  6
Continuous
 62
     7
370
    30
100
AcDbDimension
  2
*D11
 10
945.7658390926438
 20
1577.744318909374
 30
0.0
 11
1060.21908619699
 21
1577.744318909374
 31
0.0
 70
   160
  1
 \fArial|b0|i0;\H28.5714; 280 max
 71
     4
 42
118.4999999999985
  3
MarketingDrawing
100
AcDbAlignedDimension
 13
827.2658390926451
 23
1523.796789543679
 33
0.0
 14
945.7658390926438
 24
1524.796789543679
 34
0.0
 50
180.0
100
AcDbRotatedDimension
1001
ACAD
1000
DSTYLE
1002
{
1070
   289
1070
     2
1070
    73
1070
     0
1070
    74
1070
     0
1070
   271
1070
     0
1070
   272
1070
     4
1070
    48
1040
0.0
1070
    47
1040
0.0
1002
}
  0
DIMENSION
  5
4E7
330
77
100
AcDbEntity
  8
Bemaßungen(DIN)
  6
Continuous
 62
     7
370
    30
100
AcDbDimension
  2
*D12
 10
671.7970907800321
 20
990.1498760155387
 30
0.0
 11
446.7970907800322
 21
990.1498760155387
 31
0.0
 70
   160
  1
<>
 71
     4
 42
450.0
  3
MarketingDrawing
100
AcDbAlignedDimension
 13
221.7970907800321
 23
912.6810976856296
 33
0.0
 14
671.7970907800321
 24
912.6810976856296
 34
0.0
 50
180.0
100
AcDbRotatedDimension
1001
ACAD
1000
DSTYLE
1002
{
1070
   289
1070
     1
1070
    73
1070
     0
1070
    74
1070
     0
1070
   271
1070
     0
1070
   272
1070
     4
1070
    48
1040
0.0
1070
    47
1040
0.0
1002
}
  0
DIMENSION
  5
5D1
330
77
100
AcDbEntity
  8
Bemaßungen(DIN)
  6
Continuous
 62
     7
370
    30
100
AcDbDimension
  2
*D13
 10
187.9808815796654
 20
1244.796789543679
 30
0.0
 11
187.9808815796652
 21
1384.796789543679
 31
0.0
 70
   160
  1
<>
 71
     4
 42
280.0000000000002
  3
MarketingDrawing
100
AcDbAlignedDimension
 13
234.79709078037
 23
1524.796789543679
 33
0.0
 14
446.5629361844482
 24
1244.796789543679
 34
0.0
 50
90.0
100
AcDbRotatedDimension
1001
ACAD
1000
DSTYLE
1002
{
1070
   289
1070
     1
1070
   271
1070
     0
1070
   272
1070
     4
1070
    48
1040
0.0
1070
    47
1040
0.0
1002
}
  0
DIMENSION
  5
6C1
330
77
100
AcDbEntity
  8
Bemaßungen(DIN)
  6
Continuous
 62
     7
370
    30
100
AcDbDimension
  2
*D14
 10
183.1854480481146
 20
512.6810976856297
 30
0.0
 11
183.1854480481146
 21
712.6810976856305
 31
0.0
 70
   160
  1
<>
 71
     4
 42
400.0000000000015
  3
MarketingDrawing
100
AcDbAlignedDimension
 13
221.7970907800321
 23
912.6810976856315
 33
0.0
 14
401.7970907800322
 24
512.6810976856297
 34
0.0
 50
270.0
100
AcDbRotatedDimension
1001
ACAD
1000
DSTYLE
1002
{
1070
   289
1070
     1
1070
   271
1070
     0
1070
   272
1070
     4
1070
    48
1040
0.0
1070
    47
1040
0.0
1002
}
  0
LINE
  5
7B1
330
77
100
AcDbEntity
  8
MaCenterline
  6
Continuous
100
AcDbLine
 10
324.6542336375128
 20
1483.796789543679
 30
0.0
 11
278.939947923227
 21
1483.796789543679
 31
0.0
  0
LINE
  5
7B2
330
77
100
AcDbEntity
  8
MaCenterline
  6
Continuous
100
AcDbLine
 10
301.7970907803698
 20
1506.653932400822
 30
0.0
 11
301.7970907803698
 21
1460.939646686536
 31
0.0
  0
LINE
  5
7B3
330
77
100
AcDbEntity
  8
MaCenterline
  6
Continuous
100
AcDbLine
 10
614.6542336375127
 20
1483.796789543679
 30
0.0
 11
568.939947923227
 21
1483.796789543679
 31
0.0
  0
LINE
  5
7B4
330
77
100
AcDbEntity
  8
MaCenterline
  6
Continuous
100
AcDbLine
 10
591.7970907803699
 20
1506.653932400822
 30
0.0
 11
591.7970907803699
 21
1460.939646686536
 31
0.0
  0
LINE
  5
7B5
330
77
100
AcDbEntity
  8
MaCenterline
  6
Continuous
100
AcDbLine
 10
469.6542336375126
 20
1283.796789543679
 30
0.0
 11
423.939947923227
 21
1283.796789543679
 31
0.0
  0
LINE
  5
7B6
330
77
100
AcDbEntity
  8
MaCenterline
  6
Continuous
100
AcDbLine
 10
446.7970907803698
 20
1306.653932400822
 30
0.0
 11
446.7970907803698
 21
1260.939646686536
 31
0.0
  0
DIMENSION
  5
7B7
330
77
100
AcDbEntity
  8
Bemaßungen(DIN)
  6
Continuous
 62
     7
370
    30
100
AcDbDimension
  2
*D15
 10
591.7970907803699
 20
1583.277507652327
 30
0.0
 11
446.7970907803698
 21
1583.277507652327
 31
0.0
 70
   160
  1
<>
 71
     4
 42
290.0000000000001
  3
MarketingDrawing
100
AcDbAlignedDimension
 13
301.7970907803698
 23
1506.653932400822
 33
0.0
 14
591.7970907803699
 24
1506.653932400822
 34
0.0
 50
180.0
100
AcDbRotatedDimension
1001
ACAD
1000
DSTYLE
1002
{
1070
   289
1070
     1
1070
    73
1070
     0
1070
    74
1070
     0
1070
   271
1070
     0
1070
   272
1070
     4
1070
    48
1040
0.0
1070
    47
1040
0.0
1002
}
  0
DIMENSION
  5
8A1
330
77
100
AcDbEntity
  8
Bemaßungen(DIN)
  6
Continuous
 62
     7
370
    30
100
AcDbDimension
  2
*D16
 10
686.0828050660842
 20
1283.796789543679
 30
0.0
 11
686.0828050660841
 21
1383.796789543679
 31
0.0
 70
   160
  1
<>
 71
     4
 42
200.0000000000002
  3
MarketingDrawing
100
AcDbAlignedDimension
 13
614.6542336375127
 23
1483.796789543679
 33
0.0
 14
469.6542336375126
 24
1283.796789543679
 34
0.0
 50
90.0
100
AcDbRotatedDimension
1001
ACAD
1000
DSTYLE
1002
{
1070
   289
1070
     1
1070
   271
1070
     0
1070
   272
1070
     4
1070
    48
1040
0.0
1070
    47
1040
0.0
1002
}
  0
DIMENSION
  5
991
330
77
100
AcDbEntity
  8
Bemaßungen(DIN)
  6
Continuous
 62
     7
370
    30
100
AcDbDimension
  2
*D17
 10
631.4774654768751
 20
1524.796789543679
 30
0.0
 11
686.0828050660841
 21
1586.424281360138
 31
0.0
 70
   160
  1
<>
 71
     4
 42
40.0000000000001
  3
MarketingDrawing
100
AcDbAlignedDimension
 13
614.6542336375127
 23
1483.796789543679
 33
0.0
 14
658.7970907803699
 24
1524.796789543679
 34
0.0
 50
90.0
100
AcDbRotatedDimension
1001
ACAD
1000
DSTYLE
1002
{
1070
   289
1070
     1
1070
   271
1070
     0
1070
   144
1040
0.9756097560975584
1070
   272
1070
     4
1070
    48
1040
0.0
1070
    47
1040
0.0
1002
}
  0
LINE
  5
A9C
330
77
100
AcDbEntity
  8
Sketch Geometry(DIN)
  6
Continuous
370
    20
100
AcDbLine
 10
1008.579023307145
 20
1357.796789543679
 30
0.0
 11
961.3658390927067
 21
1357.796789543679
 31
0.0
  0
LINE
  5
A9D
330
77
100
AcDbEntity
  8
Sketch Geometry(DIN)
  6
Continuous
370
    20
100
AcDbLine
 10
961.3658390927067
 20
1357.796789543679
 30
0.0
 11
961.3658390927067
 21
1321.796789543679
 31
0.0
  0
LINE
  5
A9E
330
77
100
AcDbEntity
  8
Sketch Geometry(DIN)
  6
Continuous
370
    20
100
AcDbLine
 10
961.3658390927067
 20
1321.796789543679
 30
0.0
 11
1008.579023307145
 21
1321.796789543679
 31
0.0
  0
LINE
  5
A9F
330
77
100
AcDbEntity
  8
MaCenterline
  6
Continuous
100
AcDbLine
 10
1026.436166164288
 20
1339.796789543679
 30
0.0
 11
931.7620056554888
 21
1339.796789543679
 31
0.0
  0
DIMENSION
  5
AA0
330
77
100
AcDbEntity
  8
Bemaßungen(DIN)
  6
Continuous
 62
     7
370
    30
100
AcDbDimension
  2
*D18
 10
770.5326848509787
 20
1524.796789543679
 30
0.0
 11
770.5326848509787
 21
1432.296789543679
 31
0.0
 70
   160
  1
<>
 71
     4
 42
185.0
  3
MarketingDrawing
100
AcDbAlignedDimension
 13
931.7620056554888
 23
1339.796789543679
 33
0.0
 14
945.7658390926438
 24
1524.796789543679
 34
0.0
 50
90.0
100
AcDbRotatedDimension
1001
ACAD
1000
DSTYLE
1002
{
1070
   289
1070
     1
1070
   271
1070
     0
1070
   272
1070
     4
1070
    48
1040
0.0
1070
    47
1040
0.0
1002
}
  0
DIMENSION
  5
B90
330
77
100
AcDbEntity
  8
Bemaßungen(DIN)
  6
Continuous
 62
     7
370
    30
100
AcDbDimension
  2
*D19
 10
821.2251806722148
 20
1321.796789543679
 30
0.0
 11
889.9372676641354
 21
1426.170253717272
 31
0.0
 70
   160
  1
{\fAIGDT|b0|i0;\H28.4807;n\fArial|b0|i0;\H28.4807;}<>
 71
     4
 42
35.99999999999977
  3
MarketingDrawing
100
AcDbAlignedDimension
 13
961.3658390927067
 23
1357.796789543679
 33
0.0
 14
961.3658390927067
 24
1321.796789543679
 34
0.0
 50
90.0
100
AcDbRotatedDimension
1001
ACAD
1000
DSTYLE
1002
{
1070
   289
1070
     1
1070
   271
1070
     0
1070
   272
1070
     4
1070
    48
1040
0.0
1070
    47
1040
0.0
1002
}
  0
LINE
  5
C8F
330
77
100
AcDbEntity
  8
MaCenterline
  6
Continuous
100
AcDbLine
 10
446.7970907803699
 20
1230.961570099357
 30
0.0
 11
446.7970907803699
 21
1551.919513882667
 31
0.0
  0
LINE
  5
C90
330
77
100
AcDbEntity
  8
MaCenterline
  6
Continuous
100
AcDbLine
 10
446.7970907800321
 20
930.5382405427726
 30
0.0
 11
446.7970907800321
 21
496.9447073601353
 31
0.0
  0
MTEXT
  5
C91
102
{ACAD_REACTORS
330
C92
102
}
330
77
100
AcDbEntity
  8
Symbole(DIN)
 62
     7
100
AcDbMText
 10
591.8896054336844
 20
1204.088974079444
 30
0.0
 40
28.57142899717603
 41
225.5661998476301
 71
     4
 72
     1
  1
{M10 x 300 LG}
  7
Text__4.0mm
 73
     1
 44
1.0
  0
LEADER
  5
C92
330
77
100
AcDbEntity
  8
Symbole(DIN)
  6
Continuous
 62
     7
370
    25
100
AcDbLeader
  3
MarketingDrawing$7
 73
     0
 75
     1
 40
29.56538730471763
 41
220.7289001898001
 76
     3
 10
870.5842467971594
 20
1278.796789543679
 30
0.0
 10
860.3129481384572
 20
1204.088974079444
 30
0.0
 10
824.5986624241716
 20
1204.088974079444
 30
0.0
340
C91
213
225.5661998476301
223
0.0
233
0.0
1001
ACAD
1000
DSTYLE
1002
{
1070
    77
1070
     0
1002
}
  0
ENDSEC
  0
SECTION
  2
OBJECTS
  0
DICTIONARY
  5
C
330
0
100
AcDbDictionary
281
     1
  3
ACAD_COLOR
350
6E
  3
ACAD_GROUP
350
D
  3
ACAD_LAYOUT
350
6D
  3
ACAD_MATERIAL
350
10
  3
ACAD_MLEADERSTYLE
350
71
  3
ACAD_MLINESTYLE
350
6A
  3
ACAD_PLOTSETTINGS
350
6C
  3
ACAD_PLOTSTYLENAME
350
E
  3
ACAD_SCALELIST
350
3D
  3
ACAD_TABLESTYLE
350
6F
  3
ACAD_VISUALSTYLE
350
29
  3
ACDB_RECOMPOSE_DATA
350
E3C
  3
AcDbVariableDictionary
350
C93
  3
AcmDictionary
350
DA3
  3
AMG
350
D83
  3
AMGSNAPSETTINGS
350
DE3
  0
DICTIONARY
  5
C9E
330
104
100
AcDbDictionary
280
     1
281
     1
  3
ACAD_MLATT
360
DEE
  3
ACAD_XREC_ROUNDTRIP
360
DED
  0
DICTIONARY
  5
CA2
330
243
100
AcDbDictionary
280
     1
281
     1
  3
ACAD_MLATT
360
DF1
  3
ACAD_XREC_ROUNDTRIP
360
DF0
  0
DICTIONARY
  5
CA5
330
245
100
AcDbDictionary
280
     1
281
     1
  3
ACAD_MLATT
360
DF3
  3
ACAD_XREC_ROUNDTRIP
360
DF2
  0
DICTIONARY
  5
CA8
330
246
100
AcDbDictionary
280
     1
281
     1
  3
ACAD_MLATT
360
DF5
  3
ACAD_XREC_ROUNDTRIP
360
DF4
  0
DICTIONARY
  5
CAB
330
248
100
AcDbDictionary
280
     1
281
     1
  3
ACAD_MLATT
360
DF7
  3
ACAD_XREC_ROUNDTRIP
360
DF6
  0
DICTIONARY
  5
CAE
330
249
100
AcDbDictionary
280
     1
281
     1
  3
ACAD_MLATT
360
DF9
  3
ACAD_XREC_ROUNDTRIP
360
DF8
  0
DICTIONARY
  5
CB1
330
24B
100
AcDbDictionary
280
     1
281
     1
  3
ACAD_MLATT
360
DFB
  3
ACAD_XREC_ROUNDTRIP
360
DFA
  0
DICTIONARY
  5
CB4
330
24C
100
AcDbDictionary
280
     1
281
     1
  3
ACAD_MLATT
360
DFD
  3
ACAD_XREC_ROUNDTRIP
360
DFC
  0
DICTIONARY
  5
CB7
330
24D
100
AcDbDictionary
280
     1
281
     1
  3
ACAD_MLATT
360
DFF
  3
ACAD_XREC_ROUNDTRIP
360
DFE
  0
DICTIONARY
  5
CBA
330
24E
100
AcDbDictionary
280
     1
281
     1
  3
ACAD_MLATT
360
E01
  3
ACAD_XREC_ROUNDTRIP
360
E00
  0
DICTIONARY
  5
CBD
330
24F
100
AcDbDictionary
280
     1
281
     1
  3
ACAD_MLATT
360
E03
  3
ACAD_XREC_ROUNDTRIP
360
E02
  0
DICTIONARY
  5
CC0
330
250
100
AcDbDictionary
280
     1
281
     1
  3
ACAD_MLATT
360
E05
  3
ACAD_XREC_ROUNDTRIP
360
E04
  0
DICTIONARY
  5
CC3
330
251
100
AcDbDictionary
280
     1
281
     1
  3
ACAD_MLATT
360
E07
  3
ACAD_XREC_ROUNDTRIP
360
E06
  0
DICTIONARY
  5
CC6
330
252
100
AcDbDictionary
280
     1
281
     1
  3
ACAD_MLATT
360
E09
  3
ACAD_XREC_ROUNDTRIP
360
E08
  0
DICTIONARY
  5
CC9
330
253
100
AcDbDictionary
280
     1
281
     1
  3
ACAD_MLATT
360
E0B
  3
ACAD_XREC_ROUNDTRIP
360
E0A
  0
DICTIONARY
  5
CCC
330
254
100
AcDbDictionary
280
     1
281
     1
  3
ACAD_MLATT
360
E0D
  3
ACAD_XREC_ROUNDTRIP
360
E0C
  0
DICTIONARY
  5
CCF
330
255
100
AcDbDictionary
280
     1
281
     1
  3
ACAD_MLATT
360
E0F
  3
ACAD_XREC_ROUNDTRIP
360
E0E
  0
DICTIONARY
  5
CD2
330
256
100
AcDbDictionary
280
     1
281
     1
  3
ACAD_MLATT
360
E11
  3
ACAD_XREC_ROUNDTRIP
360
E10
  0
DICTIONARY
  5
CD5
330
257
100
AcDbDictionary
280
     1
281
     1
  3
ACAD_MLATT
360
E13
  3
ACAD_XREC_ROUNDTRIP
360
E12
  0
DICTIONARY
  5
CD8
330
258
100
AcDbDictionary
280
     1
281
     1
  3
ACAD_MLATT
360
E15
  3
ACAD_XREC_ROUNDTRIP
360
E14
  0
DICTIONARY
  5
CDB
330
25B
100
AcDbDictionary
280
     1
281
     1
  3
ACAD_MLATT
360
E17
  3
ACAD_XREC_ROUNDTRIP
360
E16
  0
DICTIONARY
  5
CDE
330
25C
100
AcDbDictionary
280
     1
281
     1
  3
ACAD_MLATT
360
E19
  3
ACAD_XREC_ROUNDTRIP
360
E18
  0
DICTIONARY
  5
CE1
330
25D
100
AcDbDictionary
280
     1
281
     1
  3
ACAD_MLATT
360
E1B
  3
ACAD_XREC_ROUNDTRIP
360
E1A
  0
DICTIONARY
  5
CE4
330
25E
100
AcDbDictionary
280
     1
281
     1
  3
ACAD_MLATT
360
E1D
  3
ACAD_XREC_ROUNDTRIP
360
E1C
  0
DICTIONARY
  5
CE7
330
25F
100
AcDbDictionary
280
     1
281
     1
  3
ACAD_MLATT
360
E1F
  3
ACAD_XREC_ROUNDTRIP
360
E1E
  0
DICTIONARY
  5
CEA
330
260
100
AcDbDictionary
280
     1
281
     1
  3
ACAD_MLATT
360
E21
  3
ACAD_XREC_ROUNDTRIP
360
E20
  0
DICTIONARY
  5
CED
330
261
100
AcDbDictionary
280
     1
281
     1
  3
ACAD_MLATT
360
E23
  3
ACAD_XREC_ROUNDTRIP
360
E22
  0
DICTIONARY
  5
CF0
330
262
100
AcDbDictionary
280
     1
281
     1
  3
ACAD_MLATT
360
E25
  3
ACAD_XREC_ROUNDTRIP
360
E24
  0
DICTIONARY
  5
CF3
330
263
100
AcDbDictionary
280
     1
281
     1
  3
ACAD_MLATT
360
E27
  3
ACAD_XREC_ROUNDTRIP
360
E26
  0
DICTIONARY
  5
CF6
330
264
100
AcDbDictionary
280
     1
281
     1
  3
ACAD_MLATT
360
E29
  3
ACAD_XREC_ROUNDTRIP
360
E28
  0
DICTIONARY
  5
CF9
330
265
100
AcDbDictionary
280
     1
281
     1
  3
ACAD_MLATT
360
E2B
  3
ACAD_XREC_ROUNDTRIP
360
E2A
  0
DICTIONARY
  5
CFC
330
266
100
AcDbDictionary
280
     1
281
     1
  3
ACAD_MLATT
360
E2D
  3
ACAD_XREC_ROUNDTRIP
360
E2C
  0
DICTIONARY
  5
CFF
330
267
100
AcDbDictionary
280
     1
281
     1
  3
ACAD_MLATT
360
E2F
  3
ACAD_XREC_ROUNDTRIP
360
E2E
  0
DICTIONARY
  5
D02
330
268
100
AcDbDictionary
280
     1
281
     1
  3
ACAD_MLATT
360
E31
  3
ACAD_XREC_ROUNDTRIP
360
E30
  0
DICTIONARY
  5
D05
330
269
100
AcDbDictionary
280
     1
281
     1
  3
ACAD_MLATT
360
E33
  3
ACAD_XREC_ROUNDTRIP
360
E32
  0
DICTIONARY
  5
D08
330
26A
100
AcDbDictionary
280
     1
281
     1
  3
ACAD_MLATT
360
E35
  3
ACAD_XREC_ROUNDTRIP
360
E34
  0
DICTIONARY
  5
D0B
330
26B
100
AcDbDictionary
280
     1
281
     1
  3
ACAD_MLATT
360
E37
  3
ACAD_XREC_ROUNDTRIP
360
E36
  0
DICTIONARY
  5
D0E
330
26C
100
AcDbDictionary
280
     1
281
     1
  3
ACAD_MLATT
360
E39
  3
ACAD_XREC_ROUNDTRIP
360
E38
  0
DICTIONARY
  5
D11
330
26D
100
AcDbDictionary
280
     1
281
     1
  3
ACAD_MLATT
360
E3B
  3
ACAD_XREC_ROUNDTRIP
360
E3A
  0
DICTIONARY
  5
6E
102
{ACAD_REACTORS
330
C
102
}
330
C
100
AcDbDictionary
281
     1
  0
DICTIONARY
  5
D
102
{ACAD_REACTORS
330
C
102
}
330
C
100
AcDbDictionary
281
     1
  0
DICTIONARY
  5
6D
102
{ACAD_REACTORS
330
C
102
}
330
C
100
AcDbDictionary
281
     1
  3
Layout1
350
76
  3
Layout2
350
7E
  3
Model
350
7A
  0
DICTIONARY
  5
10
102
{ACAD_REACTORS
330
C
102
}
330
C
100
AcDbDictionary
281
     1
  3
ByBlock
350
19
  3
ByLayer
350
11
  3
Global
350
21
  0
DICTIONARY
  5
71
102
{ACAD_REACTORS
330
C
102
}
330
C
100
AcDbDictionary
281
     1
  3
Standard
350
72
  0
DICTIONARY
  5
6A
102
{ACAD_REACTORS
330
C
102
}
330
C
100
AcDbDictionary
281
     1
  3
Standard
350
6B
  0
DICTIONARY
  5
6C
102
{ACAD_REACTORS
330
C
102
}
330
C
100
AcDbDictionary
281
     1
  0
ACDBDICTIONARYWDFLT
  5
E
102
{ACAD_REACTORS
330
C
102
}
330
C
100
AcDbDictionary
281
     1
  3
Normal
350
F
100
AcDbDictionaryWithDefault
340
F
  0
DICTIONARY
  5
3D
102
{ACAD_REACTORS
330
C
102
}
330
C
100
AcDbDictionary
281
     1
  3
A0
350
3E
  3
A1
350
3F
  3
A2
350
40
  3
A3
350
41
  3
A4
350
42
  3
A5
350
43
  3
A6
350
44
  3
A7
350
45
  3
A8
350
46
  3
A9
350
47
  3
B0
350
48
  3
B1
350
49
  3
B2
350
4A
  3
B3
350
4B
  3
B4
350
4C
  3
B5
350
4D
  3
B6
350
4E
  3
B7
350
4F
  3
B8
350
50
  3
B9
350
51
  3
C0
350
52
  3
C1
350
53
  3
C2
350
54
  3
C3
350
55
  3
C4
350
56
  3
C5
350
57
  3
C6
350
58
  3
C7
350
59
  3
C8
350
5A
  3
C9
350
5B
  3
D0
350
5C
  3
D1
350
5D
  3
D2
350
5E
  0
DICTIONARY
  5
6F
102
{ACAD_REACTORS
330
C
102
}
330
C
100
AcDbDictionary
281
     1
  3
Standard
350
70
  0
DICTIONARY
  5
29
102
{ACAD_REACTORS
330
C
102
}
330
C
100
AcDbDictionary
281
     1
  3
2dWireframe
350
2F
  3
3D Hidden
350
31
  3
3dWireframe
350
30
  3
Basic
350
2E
  3
Brighten
350
35
  3
ColorChange
350
39
  3
Conceptual
350
32
  3
Dim
350
34
  3
EdgeColorOff
350
3C
  3
Facepattern
350
38
  3
Flat
350
2A
  3
FlatWithEdges
350
2B
  3
Gouraud
350
2C
  3
GouraudWithEdges
350
2D
  3
JitterOff
350
3A
  3
Linepattern
350
37
  3
OverhangOff
350
3B
  3
Realistic
350
33
  3
Thicken
350
36
  0
XRECORD
  5
E3C
102
{ACAD_REACTORS
330
C
102
}
330
C
100
AcDbXrecord
280
     1
 90
        1
330
70
330
104
330
243
330
245
330
246
330
248
330
249
330
24B
330
24C
330
24D
330
24E
330
24F
330
250
330
251
330
252
330
253
330
254
330
255
330
256
330
257
330
258
330
25B
330
25C
330
25D
330
25E
330
25F
330
260
330
261
330
262
330
263
330
264
330
265
330
266
330
267
330
268
330
269
330
26A
330
26B
330
26C
330
26D
  0
DICTIONARY
  5
C93
102
{ACAD_REACTORS
330
C
102
}
330
C
100
AcDbDictionary
281
     1
  3
CANNOSCALE
350
C97
  3
CMLEADERSTYLE
350
C95
  3
CTABLESTYLE
350
C94
  3
LAYEREVAL
350
C99
  3
LAYERNOTIFY
350
C9A
  3
LIGHTINGUNITS
350
C98
  3
MSLTSCALE
350
C96
  3
XCLIPFRAME
350
DEB
  0
DICTIONARY
  5
DA3
102
{ACAD_REACTORS
330
C
102
}
330
C
100
AcDbDictionary
281
     1
  3
AcmStdDictionary
350
DAD
  0
DICTIONARY
  5
D83
102
{ACAD_REACTORS
330
C
102
}
330
C
100
AcDbDictionary
281
     1
  0
DICTIONARY
  5
DE3
102
{ACAD_REACTORS
330
C
102
}
330
C
100
AcDbDictionary
281
     1
  0
XRECORD
  5
DEE
102
{ACAD_REACTORS
330
C9E
102
}
330
C9E
100
AcDbXrecord
280
     1
 70
     4
 70
     0
 70
     0
 40
1.0
  2
<Enter_Prompt_for_Field>
  1
Embedded Object
 10
0.0
 20
0.0
 30
0.0
 40
2.5
 41
0.0
 46
0.0
 71
     5
 72
     5
  1
\W0.9000;
  7
Text Style49
 73
     1
 44
1.0
  0
XRECORD
  5
DED
102
{ACAD_REACTORS
330
C9E
102
}
330
C9E
100
AcDbXrecord
280
     1
102
ACAD_MATT_HEIGHT
140
2.5
  0
XRECORD
  5
DF1
102
{ACAD_REACTORS
330
CA2
102
}
330
CA2
100
AcDbXrecord
280
     1
 70
     4
 70
     0
 70
     0
 40
1.0
  2
Title
  1
Embedded Object
 10
206.6
 20
126.0241925130958
 30
0.0
 40
5.0
 41
89.14362202638884
 46
0.0
 71
     4
 72
     5
  1
Guardian WHB
  7
Text Style20
 73
     1
 44
1.0
  0
XRECORD
  5
DF0
102
{ACAD_REACTORS
330
CA2
102
}
330
CA2
100
AcDbXrecord
280
     1
102
ACAD_MATT_HEIGHT
140
5.0
  0
XRECORD
  5
DF3
102
{ACAD_REACTORS
330
CA5
102
}
330
CA5
100
AcDbXrecord
280
     1
 70
     4
 70
     0
 70
     0
 40
1.0
  2
Auxiliary_Remark1
  1
Embedded Object
 10
206.6000000000001
 20
119.5241925130958
 30
0.0
 40
3.499999940395355
 41
88.8588638187849
 46
0.0
 71
     4
 72
     5
  1
No Tapholes
  7
Text Style9
 73
     1
 44
1.0
  0
XRECORD
  5
DF2
102
{ACAD_REACTORS
330
CA5
102
}
330
CA5
100
AcDbXrecord
280
     1
102
ACAD_MATT_HEIGHT
140
3.499999940395355
  0
XRECORD
  5
DF5
102
{ACAD_REACTORS
330
CA8
102
}
330
CA8
100
AcDbXrecord
280
     1
 70
     4
 70
     0
 70
     0
 40
1.0
  2
Auxiliary_Remark2
  1
Embedded Object
 10
206.6
 20
113.0241925130958
 30
0.0
 40
3.499999940395355
 41
88.50560020660971
 46
0.0
 71
     4
 72
     5
  1

  7
Text Style9
 73
     1
 44
1.0
  0
XRECORD
  5
DF4
102
{ACAD_REACTORS
330
CA8
102
}
330
CA8
100
AcDbXrecord
280
     1
102
ACAD_MATT_HEIGHT
140
3.499999940395355
  0
XRECORD
  5
DF7
102
{ACAD_REACTORS
330
CAB
102
}
330
CAB
100
AcDbXrecord
280
     1
 70
     4
 70
     0
 70
     0
 40
1.0
  2
Part_number
  1
Embedded Object
 10
248.1
 20
141.0241925130958
 30
0.0
 40
2.5
 41
35.7212232739224
 46
0.0
 71
     4
 72
     5
  1
HDTX450
  7
Text Style38
 73
     1
 44
1.0
  0
XRECORD
  5
DF6
102
{ACAD_REACTORS
330
CAB
102
}
330
CAB
100
AcDbXrecord
280
     1
102
ACAD_MATT_HEIGHT
140
2.5
  0
XRECORD
  5
DF9
102
{ACAD_REACTORS
330
CAE
102
}
330
CAE
100
AcDbXrecord
280
     1
 70
     4
 70
     0
 70
     0
 40
1.0
  2
Document_Number
  1
Embedded Object
 10
218.1
 20
104.2741925130957
 30
0.0
 40
5.0
 41
45.26060067066413
 46
0.0
 71
     4
 72
     5
  1
0093-123073
  7
Text Style20
 73
     1
 44
1.0
  0
XRECORD
  5
DF8
102
{ACAD_REACTORS
330
CAE
102
}
330
CAE
100
AcDbXrecord
280
     1
102
ACAD_MATT_HEIGHT
140
5.0
  0
XRECORD
  5
DFB
102
{ACAD_REACTORS
330
CB1
102
}
330
CB1
100
AcDbXrecord
280
     1
 70
     4
 70
     0
 70
     0
 40
1.0
  2
Revision_Memo_1
  1
Embedded Object
 10
155.6
 20
138.0241925130958
 30
0.0
 40
2.000000029802321
 41
46.75017271010267
 46
0.0
 71
     1
 72
     5
  1

  7
Text Style40
 73
     1
 44
1.0
  0
XRECORD
  5
DFA
102
{ACAD_REACTORS
330
CB1
102
}
330
CB1
100
AcDbXrecord
280
     1
102
ACAD_MATT_HEIGHT
140
2.000000029802321
  0
XRECORD
  5
DFD
102
{ACAD_REACTORS
330
CB4
102
}
330
CB4
100
AcDbXrecord
280
     1
 70
     4
 70
     0
 70
     0
 40
1.0
  2
Revision_Index_1
  1
Embedded Object
 10
264.6
 20
104.2741925130957
 30
0.0
 40
5.0
 41
11.14714749717635
 46
0.0
 71
     4
 72
     5
  1
C
  7
Text Style20
 73
     1
 44
1.0
  0
XRECORD
  5
DFC
102
{ACAD_REACTORS
330
CB4
102
}
330
CB4
100
AcDbXrecord
280
     1
102
ACAD_MATT_HEIGHT
140
5.0
  0
XRECORD
  5
DFF
102
{ACAD_REACTORS
330
CB7
102
}
330
CB7
100
AcDbXrecord
280
     1
 70
     4
 70
     0
 70
     0
 40
1.0
  2
Sheet_Size
  1
Embedded Object
 10
205.6
 20
104.2741925130957
 30
0.0
 40
5.0
 41
44.17438307011514
 46
0.0
 71
     4
 72
     5
  1
A4
  7
Text Style20
 73
     1
 44
1.0
  0
XRECORD
  5
DFE
102
{ACAD_REACTORS
330
CB7
102
}
330
CB7
100
AcDbXrecord
280
     1
102
ACAD_MATT_HEIGHT
140
5.0
  0
XRECORD
  5
E01
102
{ACAD_REACTORS
330
CBA
102
}
330
CBA
100
AcDbXrecord
280
     1
 70
     4
 70
     0
 70
     0
 40
1.0
  2
Drawn_By
  1
Embedded Object
 10
90.6
 20
141.0241925130958
 30
0.0
 40
2.000000029802321
 41
14.31996733840145
 46
0.0
 71
     4
 72
     5
  1
CJ036
  7
Text Style40
 73
     1
 44
1.0
  0
XRECORD
  5
E00
102
{ACAD_REACTORS
330
CBA
102
}
330
CBA
100
AcDbXrecord
280
     1
102
ACAD_MATT_HEIGHT
140
2.000000029802321
  0
XRECORD
  5
E03
102
{ACAD_REACTORS
330
CBD
102
}
330
CBD
100
AcDbXrecord
280
     1
 70
     4
 70
     0
 70
     0
 40
1.0
  2
Modified_By
  1
Embedded Object
 10
90.6
 20
133.5241925130958
 30
0.0
 40
2.000000029802321
 41
13.91658797675633
 46
0.0
 71
     4
 72
     5
  1
CJ036
  7
Text Style40
 73
     1
 44
1.0
  0
XRECORD
  5
E02
102
{ACAD_REACTORS
330
CBD
102
}
330
CBD
100
AcDbXrecord
280
     1
102
ACAD_MATT_HEIGHT
140
2.000000029802321
  0
XRECORD
  5
E05
102
{ACAD_REACTORS
330
CC0
102
}
330
CC0
100
AcDbXrecord
280
     1
 70
     4
 70
     0
 70
     0
 40
1.0
  2
Drawn_Date
  1
Embedded Object
 10
135.6
 20
141.0241925130958
 30
0.0
 40
2.000000029802321
 41
20.97572680554579
 46
0.0
 71
     4
 72
     5
  1
16/02/2010
  7
Text Style40
 73
     1
 44
1.0
  0
XRECORD
  5
E04
102
{ACAD_REACTORS
330
CC0
102
}
330
CC0
100
AcDbXrecord
280
     1
102
ACAD_MATT_HEIGHT
140
2.000000029802321
  0
XRECORD
  5
E07
102
{ACAD_REACTORS
330
CC3
102
}
330
CC3
100
AcDbXrecord
280
     1
 70
     4
 70
     0
 70
     0
 40
1.0
  2
Modified_Date
  1
Embedded Object
 10
135.6
 20
133.5241925130958
 30
0.0
 40
2.000000029802321
 41
20.16896808225555
 46
0.0
 71
     4
 72
     5
  1
27/05/2011
  7
Text Style40
 73
     1
 44
1.0
  0
XRECORD
  5
E06
102
{ACAD_REACTORS
330
CC3
102
}
330
CC3
100
AcDbXrecord
280
     1
102
ACAD_MATT_HEIGHT
140
2.000000029802321
  0
XRECORD
  5
E09
102
{ACAD_REACTORS
330
CC6
102
}
330
CC6
100
AcDbXrecord
280
     1
 70
     4
 70
     0
 70
     0
 40
1.0
  2
Revision_Titel_1
  1
Embedded Object
 10
155.6
 20
141.0241925130958
 30
0.0
 40
2.000000029802321
 41
52.8572926113155
 46
0.0
 71
     4
 72
     5
  1

  7
Text Style40
 73
     1
 44
1.0
  0
XRECORD
  5
E08
102
{ACAD_REACTORS
330
CC6
102
}
330
CC6
100
AcDbXrecord
280
     1
102
ACAD_MATT_HEIGHT
140
2.000000029802321
  0
XRECORD
  5
E0B
102
{ACAD_REACTORS
330
CC9
102
}
330
CC9
100
AcDbXrecord
280
     1
 70
     4
 70
     0
 70
     0
 40
1.0
  2
Sheet_number
  1
Embedded Object
 10
278.35
 20
104.2741925130957
 30
0.0
 40
5.0
 41
0.0
 46
0.0
 71
     5
 72
     5
  1
\W0.9000;1 
  7
Text__5.0mm
 73
     1
 44
1.0
  0
XRECORD
  5
E0A
102
{ACAD_REACTORS
330
CC9
102
}
330
CC9
100
AcDbXrecord
280
     1
102
ACAD_MATT_HEIGHT
140
5.0
  0
XRECORD
  5
E0D
102
{ACAD_REACTORS
330
CCC
102
}
330
CCC
100
AcDbXrecord
280
     1
 70
     4
 70
     0
 70
     0
 40
1.0
  2
Number_of_sheets
  1
Embedded Object
 10
285.85
 20
104.2741925130957
 30
0.0
 40
5.0
 41
0.0
 46
0.0
 71
     5
 72
     5
  1
\W0.9000;4 
  7
Text__5.0mm
 73
     1
 44
1.0
  0
XRECORD
  5
E0C
102
{ACAD_REACTORS
330
CCC
102
}
330
CCC
100
AcDbXrecord
280
     1
102
ACAD_MATT_HEIGHT
140
5.0
  0
XRECORD
  5
E0F
102
{ACAD_REACTORS
330
CCF
102
}
330
CCF
100
AcDbXrecord
280
     1
 70
     4
 70
     0
 70
     0
 40
1.0
  2
FUN
  1
Embedded Object
 10
205.6
 20
133.5241925130958
 30
0.0
 40
2.5
 41
35.7212232739224
 46
0.0
 71
     4
 72
     5
  1

  7
Text Style38
 73
     1
 44
1.0
  0
XRECORD
  5
E0E
102
{ACAD_REACTORS
330
CCF
102
}
330
CCF
100
AcDbXrecord
280
     1
102
ACAD_MATT_HEIGHT
140
2.5
  0
XRECORD
  5
E11
102
{ACAD_REACTORS
330
CD2
102
}
330
CD2
100
AcDbXrecord
280
     1
 70
     4
 70
     0
 70
     0
 40
1.0
  2
EAN
  1
Embedded Object
 10
248.1
 20
133.5241925130958
 30
0.0
 40
2.5
 41
35.7212232739224
 46
0.0
 71
     4
 72
     5
  1
7612210016790
  7
Text Style38
 73
     1
 44
1.0
  0
XRECORD
  5
E10
102
{ACAD_REACTORS
330
CD2
102
}
330
CD2
100
AcDbXrecord
280
     1
102
ACAD_MATT_HEIGHT
140
2.5
  0
XRECORD
  5
E13
102
{ACAD_REACTORS
330
CD5
102
}
330
CD5
100
AcDbXrecord
280
     1
 70
     4
 70
     0
 70
     0
 40
1.0
  2
Departement
  1
Embedded Object
 10
110.6
 20
133.5241925130958
 30
0.0
 40
2.000000029802321
 41
17.55611008168829
 46
0.0
 71
     4
 72
     5
  1
FSI-Marketing
  7
Text Style40
 73
     1
 44
1.0
  0
XRECORD
  5
E12
102
{ACAD_REACTORS
330
CD5
102
}
330
CD5
100
AcDbXrecord
280
     1
102
ACAD_MATT_HEIGHT
140
2.000000029802321
  0
XRECORD
  5
E15
102
{ACAD_REACTORS
330
CD8
102
}
330
CD8
100
AcDbXrecord
280
     1
 70
     4
 70
     0
 70
     0
 40
1.0
  2
Departement
  1
Embedded Object
 10
110.6
 20
141.0241925130958
 30
0.0
 40
2.000000029802321
 41
18.45803981954006
 46
0.0
 71
     4
 72
     5
  1
FSI-Marketing
  7
Text Style40
 73
     1
 44
1.0
  0
XRECORD
  5
E14
102
{ACAD_REACTORS
330
CD8
102
}
330
CD8
100
AcDbXrecord
280
     1
102
ACAD_MATT_HEIGHT
140
2.000000029802321
  0
XRECORD
  5
E17
102
{ACAD_REACTORS
330
CDB
102
}
330
CDB
100
AcDbXrecord
280
     1
 70
     2
 70
     0
 70
     0
 40
1.0
  2
Title
  1
Embedded Object
 10
871.4285714285711
 20
219.6428571428576
 30
0.0
 40
35.71428571428572
 41
636.7401573313487
 46
0.0
 71
     4
 72
     5
  1
Guardian WHB
  7
Text Style20
 73
     1
 44
1.0
  0
XRECORD
  5
E16
102
{ACAD_REACTORS
330
CDB
102
}
330
CDB
100
AcDbXrecord
280
     1
102
ACAD_MATT_HEIGHT
140
35.71428571428572
  0
XRECORD
  5
E19
102
{ACAD_REACTORS
330
CDE
102
}
330
CDE
100
AcDbXrecord
280
     1
 70
     2
 70
     0
 70
     0
 40
1.0
  2
Auxiliary_Remark1
  1
Embedded Object
 10
871.4285714285718
 20
173.2142857142861
 30
0.0
 40
24.99999957425254
 41
634.7061701341776
 46
0.0
 71
     4
 72
     5
  1
No Tapholes
  7
Text Style9
 73
     1
 44
1.0
  0
XRECORD
  5
E18
102
{ACAD_REACTORS
330
CDE
102
}
330
CDE
100
AcDbXrecord
280
     1
102
ACAD_MATT_HEIGHT
140
24.99999957425254
  0
XRECORD
  5
E1B
102
{ACAD_REACTORS
330
CE1
102
}
330
CE1
100
AcDbXrecord
280
     1
 70
     2
 70
     0
 70
     0
 40
1.0
  2
Auxiliary_Remark2
  1
Embedded Object
 10
871.4285714285711
 20
126.7857142857148
 30
0.0
 40
24.99999957425254
 41
632.1828586186406
 46
0.0
 71
     4
 72
     5
  1

  7
Text Style9
 73
     1
 44
1.0
  0
XRECORD
  5
E1A
102
{ACAD_REACTORS
330
CE1
102
}
330
CE1
100
AcDbXrecord
280
     1
102
ACAD_MATT_HEIGHT
140
24.99999957425254
  0
XRECORD
  5
E1D
102
{ACAD_REACTORS
330
CE4
102
}
330
CE4
100
AcDbXrecord
280
     1
 70
     2
 70
     0
 70
     0
 40
1.0
  2
Part_number
  1
Embedded Object
 10
1167.857142857143
 20
326.7857142857147
 30
0.0
 40
17.85714285714285
 41
255.1515948137314
 46
0.0
 71
     4
 72
     5
  1
HDTX450
  7
Text Style38
 73
     1
 44
1.0
  0
XRECORD
  5
E1C
102
{ACAD_REACTORS
330
CE4
102
}
330
CE4
100
AcDbXrecord
280
     1
102
ACAD_MATT_HEIGHT
140
17.85714285714285
  0
XRECORD
  5
E1F
102
{ACAD_REACTORS
330
CE7
102
}
330
CE7
100
AcDbXrecord
280
     1
 70
     2
 70
     0
 70
     0
 40
1.0
  2
Document_Number
  1
Embedded Object
 10
953.5714285714282
 20
64.28571428571429
 30
0.0
 40
35.71428571428572
 41
323.2900047904581
 46
0.0
 71
     4
 72
     5
  1
0093-123073
  7
Text Style20
 73
     1
 44
1.0
  0
XRECORD
  5
E1E
102
{ACAD_REACTORS
330
CE7
102
}
330
CE7
100
AcDbXrecord
280
     1
102
ACAD_MATT_HEIGHT
140
35.71428571428572
  0
XRECORD
  5
E21
102
{ACAD_REACTORS
330
CEA
102
}
330
CEA
100
AcDbXrecord
280
     1
 70
     2
 70
     0
 70
     0
 40
1.0
  2
Revision_Memo_1
  1
Embedded Object
 10
507.1428571428571
 20
305.3571428571431
 30
0.0
 40
14.28571449858801
 41
333.9298050721619
 46
0.0
 71
     1
 72
     5
  1

  7
Text Style40
 73
     1
 44
1.0
  0
XRECORD
  5
E20
102
{ACAD_REACTORS
330
CEA
102
}
330
CEA
100
AcDbXrecord
280
     1
102
ACAD_MATT_HEIGHT
140
14.28571449858801
  0
XRECORD
  5
E23
102
{ACAD_REACTORS
330
CED
102
}
330
CED
100
AcDbXrecord
280
     1
 70
     2
 70
     0
 70
     0
 40
1.0
  2
Revision_Index_1
  1
Embedded Object
 10
1285.714285714285
 20
64.28571428571392
 30
0.0
 40
35.71428571428572
 41
79.62248212268821
 46
0.0
 71
     4
 72
     5
  1
C
  7
Text Style20
 73
     1
 44
1.0
  0
XRECORD
  5
E22
102
{ACAD_REACTORS
330
CED
102
}
330
CED
100
AcDbXrecord
280
     1
102
ACAD_MATT_HEIGHT
140
35.71428571428572
  0
XRECORD
  5
E25
102
{ACAD_REACTORS
330
CF0
102
}
330
CF0
100
AcDbXrecord
280
     1
 70
     2
 70
     0
 70
     0
 40
1.0
  2
Sheet_Size
  1
Embedded Object
 10
864.2857142857144
 20
64.28571428571429
 30
0.0
 40
35.71428571428572
 41
315.5313076436797
 46
0.0
 71
     4
 72
     5
  1
A4
  7
Text Style20
 73
     1
 44
1.0
  0
XRECORD
  5
E24
102
{ACAD_REACTORS
330
CF0
102
}
330
CF0
100
AcDbXrecord
280
     1
102
ACAD_MATT_HEIGHT
140
35.71428571428572
  0
XRECORD
  5
E27
102
{ACAD_REACTORS
330
CF3
102
}
330
CF3
100
AcDbXrecord
280
     1
 70
     2
 70
     0
 70
     0
 40
1.0
  2
Drawn_By
  1
Embedded Object
 10
42.85714285714269
 20
326.7857142857147
 30
0.0
 40
14.28571449858801
 41
102.2854809885818
 46
0.0
 71
     4
 72
     5
  1
CJ036
  7
Text Style40
 73
     1
 44
1.0
  0
XRECORD
  5
E26
102
{ACAD_REACTORS
330
CF3
102
}
330
CF3
100
AcDbXrecord
280
     1
102
ACAD_MATT_HEIGHT
140
14.28571449858801
  0
XRECORD
  5
E29
102
{ACAD_REACTORS
330
CF6
102
}
330
CF6
100
AcDbXrecord
280
     1
 70
     2
 70
     0
 70
     0
 40
1.0
  2
Modified_By
  1
Embedded Object
 10
42.85714285714269
 20
273.2142857142862
 30
0.0
 40
14.28571449858801
 41
99.40419983397385
 46
0.0
 71
     4
 72
     5
  1
CJ036
  7
Text Style40
 73
     1
 44
1.0
  0
XRECORD
  5
E28
102
{ACAD_REACTORS
330
CF6
102
}
330
CF6
100
AcDbXrecord
280
     1
102
ACAD_MATT_HEIGHT
140
14.28571449858801
  0
XRECORD
  5
E2B
102
{ACAD_REACTORS
330
CF9
102
}
330
CF9
100
AcDbXrecord
280
     1
 70
     2
 70
     0
 70
     0
 40
1.0
  2
Drawn_Date
  1
Embedded Object
 10
364.2857142857142
 20
326.7857142857147
 30
0.0
 40
14.28571449858801
 41
149.8266200396128
 46
0.0
 71
     4
 72
     5
  1
16/02/2010
  7
Text Style40
 73
     1
 44
1.0
  0
XRECORD
  5
E2A
102
{ACAD_REACTORS
330
CF9
102
}
330
CF9
100
AcDbXrecord
280
     1
102
ACAD_MATT_HEIGHT
140
14.28571449858801
  0
XRECORD
  5
E2D
102
{ACAD_REACTORS
330
CFC
102
}
330
CFC
100
AcDbXrecord
280
     1
 70
     2
 70
     0
 70
     0
 40
1.0
  2
Modified_Date
  1
Embedded Object
 10
364.2857142857142
 20
273.2142857142862
 30
0.0
 40
14.28571449858801
 41
144.0640577303966
 46
0.0
 71
     4
 72
     5
  1
27/05/2011
  7
Text Style40
 73
     1
 44
1.0
  0
XRECORD
  5
E2C
102
{ACAD_REACTORS
330
CFC
102
}
330
CFC
100
AcDbXrecord
280
     1
102
ACAD_MATT_HEIGHT
140
14.28571449858801
  0
XRECORD
  5
E2F
102
{ACAD_REACTORS
330
CFF
102
}
330
CFF
100
AcDbXrecord
280
     1
 70
     2
 70
     0
 70
     0
 40
1.0
  2
Revision_Titel_1
  1
Embedded Object
 10
507.1428571428571
 20
326.7857142857145
 30
0.0
 40
14.28571449858801
 41
377.5520900808251
 46
0.0
 71
     4
 72
     5
  1

  7
Text Style40
 73
     1
 44
1.0
  0
XRECORD
  5
E2E
102
{ACAD_REACTORS
330
CFF
102
}
330
CFF
100
AcDbXrecord
280
     1
102
ACAD_MATT_HEIGHT
140
14.28571449858801
  0
XRECORD
  5
E31
102
{ACAD_REACTORS
330
D02
102
}
330
D02
100
AcDbXrecord
280
     1
 70
     2
 70
     0
 70
     0
 40
1.0
  2
Sheet_number
  1
Embedded Object
 10
1383.928571428571
 20
64.28571428571392
 30
0.0
 40
35.71428571428572
 41
0.0
 46
0.0
 71
     5
 72
     5
  1
\W0.9000;1 
  7
Text__5.0mm
 73
     1
 44
1.0
  0
XRECORD
  5
E30
102
{ACAD_REACTORS
330
D02
102
}
330
D02
100
AcDbXrecord
280
     1
102
ACAD_MATT_HEIGHT
140
35.71428571428572
  0
XRECORD
  5
E33
102
{ACAD_REACTORS
330
D05
102
}
330
D05
100
AcDbXrecord
280
     1
 70
     2
 70
     0
 70
     0
 40
1.0
  2
Number_of_sheets
  1
Embedded Object
 10
1437.5
 20
64.28571428571392
 30
0.0
 40
35.71428571428572
 41
0.0
 46
0.0
 71
     5
 72
     5
  1
\W0.9000;4 
  7
Text__5.0mm
 73
     1
 44
1.0
  0
XRECORD
  5
E32
102
{ACAD_REACTORS
330
D05
102
}
330
D05
100
AcDbXrecord
280
     1
102
ACAD_MATT_HEIGHT
140
35.71428571428572
  0
XRECORD
  5
E35
102
{ACAD_REACTORS
330
D08
102
}
330
D08
100
AcDbXrecord
280
     1
 70
     2
 70
     0
 70
     0
 40
1.0
  2
FUN
  1
Embedded Object
 10
864.2857142857144
 20
273.2142857142862
 30
0.0
 40
17.85714285714285
 41
255.1515948137314
 46
0.0
 71
     4
 72
     5
  1

  7
Text Style38
 73
     1
 44
1.0
  0
XRECORD
  5
E34
102
{ACAD_REACTORS
330
D08
102
}
330
D08
100
AcDbXrecord
280
     1
102
ACAD_MATT_HEIGHT
140
17.85714285714285
  0
XRECORD
  5
E37
102
{ACAD_REACTORS
330
D0B
102
}
330
D0B
100
AcDbXrecord
280
     1
 70
     2
 70
     0
 70
     0
 40
1.0
  2
EAN
  1
Embedded Object
 10
1167.857142857143
 20
273.2142857142862
 30
0.0
 40
17.85714285714285
 41
255.1515948137314
 46
0.0
 71
     4
 72
     5
  1
7612210016790
  7
Text Style38
 73
     1
 44
1.0
  0
XRECORD
  5
E36
102
{ACAD_REACTORS
330
D0B
102
}
330
D0B
100
AcDbXrecord
280
     1
102
ACAD_MATT_HEIGHT
140
17.85714285714285
  0
XRECORD
  5
E39
102
{ACAD_REACTORS
330
D0E
102
}
330
D0E
100
AcDbXrecord
280
     1
 70
     2
 70
     0
 70
     0
 40
1.0
  2
Departement
  1
Embedded Object
 10
185.7142857142855
 20
273.2142857142862
 30
0.0
 40
14.28571449858801
 41
125.4007862977735
 46
0.0
 71
     4
 72
     5
  1
FSI-Marketing
  7
Text Style40
 73
     1
 44
1.0
  0
XRECORD
  5
E38
102
{ACAD_REACTORS
330
D0E
102
}
330
D0E
100
AcDbXrecord
280
     1
102
ACAD_MATT_HEIGHT
140
14.28571449858801
  0
XRECORD
  5
E3B
102
{ACAD_REACTORS
330
D11
102
}
330
D11
100
AcDbXrecord
280
     1
 70
     2
 70
     0
 70
     0
 40
1.0
  2
Departement
  1
Embedded Object
 10
185.7142857142855
 20
326.7857142857147
 30
0.0
 40
14.28571449858801
 41
131.8431415681433
 46
0.0
 71
     4
 72
     5
  1
FSI-Marketing
  7
Text Style40
 73
     1
 44
1.0
  0
XRECORD
  5
E3A
102
{ACAD_REACTORS
330
D11
102
}
330
D11
100
AcDbXrecord
280
     1
102
ACAD_MATT_HEIGHT
140
14.28571449858801
  0
LAYOUT
  5
76
102
{ACAD_REACTORS
330
6D
102
}
330
6D
100
AcDbPlotSettings
  1

  2

  4

  6

 40
0.0
 41
0.0
 42
0.0
 43
0.0
 44
0.0
 45
0.0
 46
0.0
 47
0.0
 48
0.0
 49
0.0
140
0.0
141
0.0
142
1.0
143
1.0
 70
   688
 72
     0
 73
     0
 74
     5
  7

 75
    16
147
1.0
 76
     0
 77
     2
 78
   300
148
0.0
149
0.0
100
AcDbLayout
  1
Layout1
 70
     1
 71
     1
 10
0.0
 20
0.0
 11
1500.0
 21
2121.428571428571
 12
0.0
 22
0.0
 32
0.0
 14
0.0
 24
0.0
 34
0.0
 15
1500.0
 25
2121.428571428571
 35
0.0
146
0.0
 13
0.0
 23
0.0
 33
0.0
 16
1.0
 26
0.0
 36
0.0
 17
0.0
 27
1.0
 37
0.0
 76
     0
330
73
  0
LAYOUT
  5
7E
102
{ACAD_REACTORS
330
6D
102
}
330
6D
100
AcDbPlotSettings
  1

  2

  4

  6

 40
0.0
 41
0.0
 42
0.0
 43
0.0
 44
0.0
 45
0.0
 46
0.0
 47
0.0
 48
0.0
 49
0.0
140
0.0
141
0.0
142
1.0
143
1.0
 70
   688
 72
     0
 73
     0
 74
     5
  7

 75
    16
147
1.0
 76
     0
 77
     2
 78
   300
148
0.0
149
0.0
100
AcDbLayout
  1
Layout2
 70
     1
 71
     2
 10
0.0
 20
0.0
 11
12.0
 21
9.0
 12
0.0
 22
0.0
 32
0.0
 14
0.0
 24
0.0
 34
0.0
 15
0.0
 25
0.0
 35
0.0
146
0.0
 13
0.0
 23
0.0
 33
0.0
 16
1.0
 26
0.0
 36
0.0
 17
0.0
 27
1.0
 37
0.0
 76
     0
330
7B
  0
LAYOUT
  5
7A
102
{ACAD_REACTORS
330
6D
102
}
330
6D
100
AcDbPlotSettings
  1

  2

  4

  6

 40
0.0
 41
0.0
 42
0.0
 43
0.0
 44
0.0
 45
0.0
 46
0.0
 47
0.0
 48
0.0
 49
0.0
140
0.0
141
0.0
142
1.0
143
1.0
 70
  1712
 72
     0
 73
     0
 74
     0
  7

 75
     0
147
1.0
 76
     0
 77
     2
 78
   300
148
0.0
149
0.0
100
AcDbLayout
  1
Model
 70
     1
 71
     0
 10
0.0
 20
0.0
 11
12.0
 21
9.0
 12
0.0
 22
0.0
 32
0.0
 14
0.0
 24
0.0
 34
0.0
 15
0.0
 25
0.0
 35
0.0
146
0.0
 13
0.0
 23
0.0
 33
0.0
 16
1.0
 26
0.0
 36
0.0
 17
0.0
 27
1.0
 37
0.0
 76
     0
330
77
331
62
  0
MATERIAL
  5
19
102
{ACAD_XDICTIONARY
360
1A
102
}
102
{ACAD_REACTORS
330
10
102
}
330
10
100
AcDbMaterial
  1
ByBlock
 72
     0
 43
0.0208333333333333
 43
0.0
 43
0.0
 43
0.0
 43
0.0
 43
0.0208333333333333
 43
0.0
 43
0.0
 43
0.0
 43
0.0
 43
1.0
 43
0.0
 43
0.0
 43
0.0
 43
0.0
 43
1.0
 77
     0
 47
0.0208333333333333
 47
0.0
 47
0.0
 47
0.0
 47
0.0
 47
0.0208333333333333
 47
0.0
 47
0.0
 47
0.0
 47
0.0
 47
1.0
 47
0.0
 47
0.0
 47
0.0
 47
0.0
 47
1.0
171
     0
 49
0.0208333333333333
 49
0.0
 49
0.0
 49
0.0
 49
0.0
 49
0.0208333333333333
 49
0.0
 49
0.0
 49
0.0
 49
0.0
 49
1.0
 49
0.0
 49
0.0
 49
0.0
 49
0.0
 49
1.0
175
     0
142
0.0208333333333333
142
0.0
142
0.0
142
0.0
142
0.0
142
0.0208333333333333
142
0.0
142
0.0
142
0.0
142
0.0
142
1.0
142
0.0
142
0.0
142
0.0
142
0.0
142
1.0
179
     0
144
0.0208333333333333
144
0.0
144
0.0
144
0.0
144
0.0
144
0.0208333333333333
144
0.0
144
0.0
144
0.0
144
0.0
144
1.0
144
0.0
144
0.0
144
0.0
144
0.0
144
1.0
147
0.0208333333333333
147
0.0
147
0.0
147
0.0
147
0.0
147
0.0208333333333333
147
0.0
147
0.0
147
0.0
147
0.0
147
1.0
147
0.0
147
0.0
147
0.0
147
0.0
147
1.0
  0
MATERIAL
  5
11
102
{ACAD_XDICTIONARY
360
12
102
}
102
{ACAD_REACTORS
330
10
102
}
330
10
100
AcDbMaterial
  1
ByLayer
 72
     0
 43
0.0208333333333333
 43
0.0
 43
0.0
 43
0.0
 43
0.0
 43
0.0208333333333333
 43
0.0
 43
0.0
 43
0.0
 43
0.0
 43
1.0
 43
0.0
 43
0.0
 43
0.0
 43
0.0
 43
1.0
 77
     0
 47
0.0208333333333333
 47
0.0
 47
0.0
 47
0.0
 47
0.0
 47
0.0208333333333333
 47
0.0
 47
0.0
 47
0.0
 47
0.0
 47
1.0
 47
0.0
 47
0.0
 47
0.0
 47
0.0
 47
1.0
171
     0
 49
0.0208333333333333
 49
0.0
 49
0.0
 49
0.0
 49
0.0
 49
0.0208333333333333
 49
0.0
 49
0.0
 49
0.0
 49
0.0
 49
1.0
 49
0.0
 49
0.0
 49
0.0
 49
0.0
 49
1.0
175
     0
142
0.0208333333333333
142
0.0
142
0.0
142
0.0
142
0.0
142
0.0208333333333333
142
0.0
142
0.0
142
0.0
142
0.0
142
1.0
142
0.0
142
0.0
142
0.0
142
0.0
142
1.0
179
     0
144
0.0208333333333333
144
0.0
144
0.0
144
0.0
144
0.0
144
0.0208333333333333
144
0.0
144
0.0
144
0.0
144
0.0
144
1.0
144
0.0
144
0.0
144
0.0
144
0.0
144
1.0
147
0.0208333333333333
147
0.0
147
0.0
147
0.0
147
0.0
147
0.0208333333333333
147
0.0
147
0.0
147
0.0
147
0.0
147
1.0
147
0.0
147
0.0
147
0.0
147
0.0
147
1.0
  0
MATERIAL
  5
21
102
{ACAD_XDICTIONARY
360
22
102
}
102
{ACAD_REACTORS
330
10
102
}
330
10
100
AcDbMaterial
  1
Global
 72
     0
 43
0.0208333333333333
 43
0.0
 43
0.0
 43
0.0
 43
0.0
 43
0.0208333333333333
 43
0.0
 43
0.0
 43
0.0
 43
0.0
 43
1.0
 43
0.0
 43
0.0
 43
0.0
 43
0.0
 43
1.0
 77
     0
 47
0.0208333333333333
 47
0.0
 47
0.0
 47
0.0
 47
0.0
 47
0.0208333333333333
 47
0.0
 47
0.0
 47
0.0
 47
0.0
 47
1.0
 47
0.0
 47
0.0
 47
0.0
 47
0.0
 47
1.0
171
     0
 49
0.0208333333333333
 49
0.0
 49
0.0
 49
0.0
 49
0.0
 49
0.0208333333333333
 49
0.0
 49
0.0
 49
0.0
 49
0.0
 49
1.0
 49
0.0
 49
0.0
 49
0.0
 49
0.0
 49
1.0
175
     0
142
0.0208333333333333
142
0.0
142
0.0
142
0.0
142
0.0
142
0.0208333333333333
142
0.0
142
0.0
142
0.0
142
0.0
142
1.0
142
0.0
142
0.0
142
0.0
142
0.0
142
1.0
179
     0
144
0.0208333333333333
144
0.0
144
0.0
144
0.0
144
0.0
144
0.0208333333333333
144
0.0
144
0.0
144
0.0
144
0.0
144
1.0
144
0.0
144
0.0
144
0.0
144
0.0
144
1.0
147
0.0208333333333333
147
0.0
147
0.0
147
0.0
147
0.0
147
0.0208333333333333
147
0.0
147
0.0
147
0.0
147
0.0
147
1.0
147
0.0
147
0.0
147
0.0
147
0.0
147
1.0
  0
MLEADERSTYLE
  5
72
102
{ACAD_REACTORS
330
71
102
}
330
71
100
AcDbMLeaderStyle
170
     2
171
     1
172
     0
 90
        2
 40
0.0
 41
0.0
173
     1
 91
-1056964608
340
66
 92
       -2
290
     1
 42
0.09
291
     1
 43
0.36
  3
Standard
 44
0.18
300

342
60
174
     1
178
     6
175
     1
176
     0
 93
-1056964608
 45
0.18
292
     0
297
     0
 46
0.18
 94
-1056964608
 47
1.0
 49
1.0
140
1.0
293
     1
141
0.0
294
     1
177
     0
142
1.0
295
     0
296
     0
143
0.125
1001
ACAD_MLEADERVER
1070
     2
  0
MLINESTYLE
  5
6B
102
{ACAD_REACTORS
330
6A
102
}
330
6A
100
AcDbMlineStyle
  2
STANDARD
 70
     0
  3

 62
   256
 51
90.0
 52
90.0
 71
     2
 49
0.5
 62
   256
  6
BYLAYER
 49
-0.5
 62
   256
  6
BYLAYER
  0
ACDBPLACEHOLDER
  5
F
102
{ACAD_REACTORS
330
E
102
}
330
E
  0
SCALE
  5
3E
102
{ACAD_REACTORS
330
3D
102
}
330
3D
100
AcDbScale
 70
     0
300
1:1
140
1.0
141
1.0
290
     1
  0
SCALE
  5
3F
102
{ACAD_REACTORS
330
3D
102
}
330
3D
100
AcDbScale
 70
     0
300
1:2
140
1.0
141
2.0
290
     0
  0
SCALE
  5
40
102
{ACAD_REACTORS
330
3D
102
}
330
3D
100
AcDbScale
 70
     0
300
1:4
140
1.0
141
4.0
290
     0
  0
SCALE
  5
41
102
{ACAD_REACTORS
330
3D
102
}
330
3D
100
AcDbScale
 70
     0
300
1:5
140
1.0
141
5.0
290
     0
  0
SCALE
  5
42
102
{ACAD_REACTORS
330
3D
102
}
330
3D
100
AcDbScale
 70
     0
300
1:8
140
1.0
141
8.0
290
     0
  0
SCALE
  5
43
102
{ACAD_REACTORS
330
3D
102
}
330
3D
100
AcDbScale
 70
     0
300
1:10
140
1.0
141
10.0
290
     0
  0
SCALE
  5
44
102
{ACAD_REACTORS
330
3D
102
}
330
3D
100
AcDbScale
 70
     0
300
1:16
140
1.0
141
16.0
290
     0
  0
SCALE
  5
45
102
{ACAD_REACTORS
330
3D
102
}
330
3D
100
AcDbScale
 70
     0
300
1:20
140
1.0
141
20.0
290
     0
  0
SCALE
  5
46
102
{ACAD_REACTORS
330
3D
102
}
330
3D
100
AcDbScale
 70
     0
300
1:30
140
1.0
141
30.0
290
     0
  0
SCALE
  5
47
102
{ACAD_REACTORS
330
3D
102
}
330
3D
100
AcDbScale
 70
     0
300
1:40
140
1.0
141
40.0
290
     0
  0
SCALE
  5
48
102
{ACAD_REACTORS
330
3D
102
}
330
3D
100
AcDbScale
 70
     0
300
1:50
140
1.0
141
50.0
290
     0
  0
SCALE
  5
49
102
{ACAD_REACTORS
330
3D
102
}
330
3D
100
AcDbScale
 70
     0
300
1:100
140
1.0
141
100.0
290
     0
  0
SCALE
  5
4A
102
{ACAD_REACTORS
330
3D
102
}
330
3D
100
AcDbScale
 70
     0
300
2:1
140
2.0
141
1.0
290
     0
  0
SCALE
  5
4B
102
{ACAD_REACTORS
330
3D
102
}
330
3D
100
AcDbScale
 70
     0
300
4:1
140
4.0
141
1.0
290
     0
  0
SCALE
  5
4C
102
{ACAD_REACTORS
330
3D
102
}
330
3D
100
AcDbScale
 70
     0
300
8:1
140
8.0
141
1.0
290
     0
  0
SCALE
  5
4D
102
{ACAD_REACTORS
330
3D
102
}
330
3D
100
AcDbScale
 70
     0
300
10:1
140
10.0
141
1.0
290
     0
  0
SCALE
  5
4E
102
{ACAD_REACTORS
330
3D
102
}
330
3D
100
AcDbScale
 70
     0
300
100:1
140
100.0
141
1.0
290
     0
  0
SCALE
  5
4F
102
{ACAD_REACTORS
330
3D
102
}
330
3D
100
AcDbScale
 70
     0
300
1/128" = 1'-0"
140
0.0078125
141
12.0
290
     0
  0
SCALE
  5
50
102
{ACAD_REACTORS
330
3D
102
}
330
3D
100
AcDbScale
 70
     0
300
1/64" = 1'-0"
140
0.015625
141
12.0
290
     0
  0
SCALE
  5
51
102
{ACAD_REACTORS
330
3D
102
}
330
3D
100
AcDbScale
 70
     0
300
1/32" = 1'-0"
140
0.03125
141
12.0
290
     0
  0
SCALE
  5
52
102
{ACAD_REACTORS
330
3D
102
}
330
3D
100
AcDbScale
 70
     0
300
1/16" = 1'-0"
140
0.0625
141
12.0
290
     0
  0
SCALE
  5
53
102
{ACAD_REACTORS
330
3D
102
}
330
3D
100
AcDbScale
 70
     0
300
3/32" = 1'-0"
140
0.09375
141
12.0
290
     0
  0
SCALE
  5
54
102
{ACAD_REACTORS
330
3D
102
}
330
3D
100
AcDbScale
 70
     0
300
1/8" = 1'-0"
140
0.125
141
12.0
290
     0
  0
SCALE
  5
55
102
{ACAD_REACTORS
330
3D
102
}
330
3D
100
AcDbScale
 70
     0
300
3/16" = 1'-0"
140
0.1875
141
12.0
290
     0
  0
SCALE
  5
56
102
{ACAD_REACTORS
330
3D
102
}
330
3D
100
AcDbScale
 70
     0
300
1/4" = 1'-0"
140
0.25
141
12.0
290
     0
  0
SCALE
  5
57
102
{ACAD_REACTORS
330
3D
102
}
330
3D
100
AcDbScale
 70
     0
300
3/8" = 1'-0"
140
0.375
141
12.0
290
     0
  0
SCALE
  5
58
102
{ACAD_REACTORS
330
3D
102
}
330
3D
100
AcDbScale
 70
     0
300
1/2" = 1'-0"
140
0.5
141
12.0
290
     0
  0
SCALE
  5
59
102
{ACAD_REACTORS
330
3D
102
}
330
3D
100
AcDbScale
 70
     0
300
3/4" = 1'-0"
140
0.75
141
12.0
290
     0
  0
SCALE
  5
5A
102
{ACAD_REACTORS
330
3D
102
}
330
3D
100
AcDbScale
 70
     0
300
1" = 1'-0"
140
1.0
141
12.0
290
     0
  0
SCALE
  5
5B
102
{ACAD_REACTORS
330
3D
102
}
330
3D
100
AcDbScale
 70
     0
300
1-1/2" = 1'-0"
140
1.5
141
12.0
290
     0
  0
SCALE
  5
5C
102
{ACAD_REACTORS
330
3D
102
}
330
3D
100
AcDbScale
 70
     0
300
3" = 1'-0"
140
3.0
141
12.0
290
     0
  0
SCALE
  5
5D
102
{ACAD_REACTORS
330
3D
102
}
330
3D
100
AcDbScale
 70
     0
300
6" = 1'-0"
140
6.0
141
12.0
290
     0
  0
SCALE
  5
5E
102
{ACAD_REACTORS
330
3D
102
}
330
3D
100
AcDbScale
 70
     0
300
1'-0" = 1'-0"
140
12.0
141
12.0
290
     0
  0
TABLESTYLE
  5
70
102
{ACAD_XDICTIONARY
360
C9C
102
}
102
{ACAD_REACTORS
330
6F
102
}
330
6F
100
AcDbTableStyle
  3
Standard
 70
     0
 71
     0
 40
0.06
 41
0.06
280
     0
281
     0
  7
Standard
140
0.18
170
     2
 62
     0
 63
     7
283
     0
274
    -2
284
     1
 64
     0
275
    -2
285
     1
 65
     0
276
    -2
286
     1
 66
     0
277
    -2
287
     1
 67
     0
278
    -2
288
     1
 68
     0
279
    -2
289
     1
 69
     0
  7
Standard
140
0.25
170
     5
 62
     0
 63
     7
283
     0
274
    -2
284
     1
 64
     0
275
    -2
285
     1
 65
     0
276
    -2
286
     1
 66
     0
277
    -2
287
     1
 67
     0
278
    -2
288
     1
 68
     0
279
    -2
289
     1
 69
     0
  7
Standard
140
0.18
170
     5
 62
     0
 63
     7
283
     0
274
    -2
284
     1
 64
     0
275
    -2
285
     1
 65
     0
276
    -2
286
     1
 66
     0
277
    -2
287
     1
 67
     0
278
    -2
288
     1
 68
     0
279
    -2
289
     1
 69
     0
  0
VISUALSTYLE
  5
2F
102
{ACAD_XDICTIONARY
360
E47
102
}
102
{ACAD_REACTORS
330
29
102
}
330
29
100
AcDbVisualStyle
  2

 70
     4
 71
     0
 72
     2
 73
     0
 90
        0
 40
-0.6
 41
-30.0
 62
     5
 63
     7
421
 16777215
 74
     1
 91
        4
 64
     7
 65
   257
 75
     1
175
     1
 42
1.0
 92
        0
 66
   257
 43
1.0
 76
     1
 77
     6
 78
     2
 67
     7
 79
     5
170
     0
171
     0
290
     0
174
     0
 93
        1
 44
0.0
173
     0
291
     0
 45
0.0
1001
ACAD
1000
AcDbSavedByObjectVersion
1070
     0
  0
VISUALSTYLE
  5
31
102
{ACAD_XDICTIONARY
360
E4B
102
}
102
{ACAD_REACTORS
330
29
102
}
330
29
100
AcDbVisualStyle
  2

 70
     6
 71
     1
 72
     2
 73
     2
 90
        0
 40
-0.6
 41
-30.0
 62
     5
 63
     7
421
 16777215
 74
     2
 91
        2
 64
     7
 65
   257
 75
     2
175
     1
 42
179.0
 92
        0
 66
   257
 43
1.0
 76
     1
 77
     6
 78
     2
 67
     7
 79
     3
170
     0
171
     0
290
     0
174
     0
 93
        1
 44
0.0
173
     0
291
     0
 45
0.0
1001
ACAD
1000
AcDbSavedByObjectVersion
1070
     0
  0
VISUALSTYLE
  5
30
102
{ACAD_XDICTIONARY
360
E49
102
}
102
{ACAD_REACTORS
330
29
102
}
330
29
100
AcDbVisualStyle
  2

 70
     5
 71
     0
 72
     2
 73
     0
 90
        0
 40
-0.6
 41
-30.0
 62
     5
 63
     7
421
 16777215
 74
     1
 91
        4
 64
     7
 65
   257
 75
     1
175
     1
 42
1.0
 92
        0
 66
   257
 43
1.0
 76
     1
 77
     6
 78
     2
 67
     7
 79
     5
170
     0
171
     0
290
     0
174
     0
 93
        1
 44
0.0
173
     0
291
     0
 45
0.0
1001
ACAD
1000
AcDbSavedByObjectVersion
1070
     0
  0
VISUALSTYLE
  5
2E
102
{ACAD_XDICTIONARY
360
E45
102
}
102
{ACAD_REACTORS
330
29
102
}
330
29
100
AcDbVisualStyle
  2

 70
     7
 71
     1
 72
     0
 73
     1
 90
        0
 40
-0.6
 41
-30.0
 62
     5
 63
     7
421
 16777215
 74
     0
 91
        4
 64
     7
 65
   257
 75
     1
175
     1
 42
1.0
 92
        8
 66
     7
 43
1.0
 76
     1
 77
     6
 78
     2
 67
     7
 79
     5
170
     0
171
     0
290
     0
174
     0
 93
        1
 44
0.0
173
     0
291
     1
 45
0.0
1001
ACAD
1000
AcDbSavedByObjectVersion
1070
     0
  0
VISUALSTYLE
  5
35
102
{ACAD_XDICTIONARY
360
E53
102
}
102
{ACAD_REACTORS
330
29
102
}
330
29
100
AcDbVisualStyle
  2

 70
    12
 71
     2
 72
     2
 73
     0
 90
        0
 40
-0.6
 41
-30.0
 62
     5
 63
     7
421
 16777215
 74
     1
 91
        4
 64
     7
 65
   257
 75
     1
175
     1
 42
1.0
 92
        8
 66
     7
 43
1.0
 76
     1
 77
     6
 78
     2
 67
     7
 79
     5
170
     0
171
     0
290
     0
174
     0
 93
        1
 44
50.0
173
     0
291
     1
 45
0.0
1001
ACAD
1000
AcDbSavedByObjectVersion
1070
     0
  0
VISUALSTYLE
  5
39
102
{ACAD_XDICTIONARY
360
E5B
102
}
102
{ACAD_REACTORS
330
29
102
}
330
29
100
AcDbVisualStyle
  2

 70
    16
 71
     2
 72
     2
 73
     3
 90
        0
 40
-0.6
 41
-30.0
 62
     5
 63
     8
421
  8421504
 74
     1
 91
        4
 64
     7
 65
   257
 75
     1
175
     1
 42
1.0
 92
        8
 66
     8
424
  8421504
 43
1.0
 76
     1
 77
     6
 78
     2
 67
     7
 79
     5
170
     0
171
     0
290
     0
174
     0
 93
        1
 44
0.0
173
     0
291
     1
 45
0.0
1001
ACAD
1000
AcDbSavedByObjectVersion
1070
     0
  0
VISUALSTYLE
  5
32
102
{ACAD_XDICTIONARY
360
E4D
102
}
102
{ACAD_REACTORS
330
29
102
}
330
29
100
AcDbVisualStyle
  2

 70
     9
 71
     3
 72
     2
 73
     0
 90
        0
 40
-0.6
 41
-30.0
 62
     5
 63
     7
421
 16777215
 74
     2
 91
        2
 64
     7
 65
   257
 75
     1
175
     1
 42
179.0
 92
        8
 66
     7
 43
1.0
 76
     1
 77
     6
 78
     2
 67
     7
 79
     3
170
     0
171
     0
290
     0
174
     0
 93
        1
 44
0.0
173
     0
291
     0
 45
0.0
1001
ACAD
1000
AcDbSavedByObjectVersion
1070
     0
  0
VISUALSTYLE
  5
34
102
{ACAD_XDICTIONARY
360
E51
102
}
102
{ACAD_REACTORS
330
29
102
}
330
29
100
AcDbVisualStyle
  2

 70
    11
 71
     2
 72
     2
 73
     0
 90
        0
 40
-0.6
 41
-30.0
 62
     5
 63
     7
421
 16777215
 74
     1
 91
        4
 64
     7
 65
   257
 75
     1
175
     1
 42
1.0
 92
        8
 66
     7
 43
1.0
 76
     1
 77
     6
 78
     2
 67
     7
 79
     5
170
     0
171
     0
290
     0
174
     0
 93
        1
 44
-50.0
173
     0
291
     1
 45
0.0
1001
ACAD
1000
AcDbSavedByObjectVersion
1070
     0
  0
VISUALSTYLE
  5
3C
102
{ACAD_XDICTIONARY
360
E61
102
}
102
{ACAD_REACTORS
330
29
102
}
330
29
100
AcDbVisualStyle
  2

 70
    22
 71
     2
 72
     2
 73
     0
 90
        0
 40
-0.6
 41
-30.0
 62
     5
 63
     7
421
 16777215
 74
     1
 91
        4
 64
     7
 65
   257
 75
     1
175
     1
 42
1.0
 92
        8
 66
     7
 43
1.0
 76
     1
 77
     6
 78
     2
 67
     7
 79
     5
170
     0
171
     0
290
     0
174
     0
 93
        1
 44
0.0
173
     0
291
     1
 45
0.0
1001
ACAD
1000
AcDbSavedByObjectVersion
1070
     0
  0
VISUALSTYLE
  5
38
102
{ACAD_XDICTIONARY
360
E59
102
}
102
{ACAD_REACTORS
330
29
102
}
330
29
100
AcDbVisualStyle
  2

 70
    15
 71
     2
 72
     2
 73
     0
 90
        0
 40
-0.6
 41
-30.0
 62
     5
 63
     7
421
 16777215
 74
     1
 91
        4
 64
     7
 65
   257
 75
     1
175
     1
 42
1.0
 92
        8
 66
     7
 43
1.0
 76
     1
 77
     6
 78
     2
 67
     7
 79
     5
170
     0
171
     0
290
     0
174
     0
 93
        1
 44
0.0
173
     0
291
     1
 45
0.0
1001
ACAD
1000
AcDbSavedByObjectVersion
1070
     0
  0
VISUALSTYLE
  5
2A
102
{ACAD_XDICTIONARY
360
E3D
102
}
102
{ACAD_REACTORS
330
29
102
}
330
29
100
AcDbVisualStyle
  2

 70
     0
 71
     2
 72
     1
 73
     1
 90
        2
 40
-0.6
 41
30.0
 62
     5
 63
     7
421
 16777215
 74
     0
 91
        4
 64
     7
 65
   257
 75
     1
175
     1
 42
1.0
 92
        8
 66
     7
 43
1.0
 76
     1
 77
     6
 78
     2
 67
     7
 79
     5
170
     0
171
     0
290
     0
174
     0
 93
       13
 44
0.0
173
     0
291
     1
 45
0.0
1001
ACAD
1000
AcDbSavedByObjectVersion
1070
     0
  0
VISUALSTYLE
  5
2B
102
{ACAD_XDICTIONARY
360
E3F
102
}
102
{ACAD_REACTORS
330
29
102
}
330
29
100
AcDbVisualStyle
  2

 70
     1
 71
     2
 72
     1
 73
     1
 90
        2
 40
-0.6
 41
30.0
 62
     5
 63
     7
421
 16777215
 74
     1
 91
        4
 64
     7
 65
   257
 75
     1
175
     1
 42
1.0
 92
        0
 66
   257
 43
1.0
 76
     1
 77
     6
 78
     2
 67
     7
 79
     5
170
     0
171
     0
290
     0
174
     0
 93
       13
 44
0.0
173
     0
291
     1
 45
0.0
1001
ACAD
1000
AcDbSavedByObjectVersion
1070
     0
  0
VISUALSTYLE
  5
2C
102
{ACAD_XDICTIONARY
360
E41
102
}
102
{ACAD_REACTORS
330
29
102
}
330
29
100
AcDbVisualStyle
  2

 70
     2
 71
     2
 72
     2
 73
     1
 90
        2
 40
-0.6
 41
30.0
 62
     5
 63
     7
421
 16777215
 74
     0
 91
        4
 64
     7
 65
   257
 75
     1
175
     1
 42
1.0
 92
        0
 66
     7
 43
1.0
 76
     1
 77
     6
 78
     2
 67
     7
 79
     5
170
     0
171
     0
290
     0
174
     0
 93
       13
 44
0.0
173
     0
291
     1
 45
0.0
1001
ACAD
1000
AcDbSavedByObjectVersion
1070
     0
  0
VISUALSTYLE
  5
2D
102
{ACAD_XDICTIONARY
360
E43
102
}
102
{ACAD_REACTORS
330
29
102
}
330
29
100
AcDbVisualStyle
  2

 70
     3
 71
     2
 72
     2
 73
     1
 90
        2
 40
-0.6
 41
30.0
 62
     5
 63
     7
421
 16777215
 74
     1
 91
        4
 64
     7
 65
   257
 75
     1
175
     1
 42
1.0
 92
        0
 66
   257
 43
1.0
 76
     1
 77
     6
 78
     2
 67
     7
 79
     5
170
     0
171
     0
290
     0
174
     0
 93
       13
 44
0.0
173
     0
291
     1
 45
0.0
1001
ACAD
1000
AcDbSavedByObjectVersion
1070
     0
  0
VISUALSTYLE
  5
3A
102
{ACAD_XDICTIONARY
360
E5D
102
}
102
{ACAD_REACTORS
330
29
102
}
330
29
100
AcDbVisualStyle
  2

 70
    20
 71
     2
 72
     2
 73
     0
 90
        0
 40
-0.6
 41
-30.0
 62
     5
 63
     7
421
 16777215
 74
     1
 91
        4
 64
     7
 65
   257
 75
     1
175
     1
 42
1.0
 92
       10
 66
     7
 43
1.0
 76
     1
 77
     6
 78
     2
 67
     7
 79
     5
170
     0
171
     0
290
     0
174
     0
 93
        1
 44
0.0
173
     0
291
     1
 45
0.0
1001
ACAD
1000
AcDbSavedByObjectVersion
1070
     0
  0
VISUALSTYLE
  5
37
102
{ACAD_XDICTIONARY
360
E57
102
}
102
{ACAD_REACTORS
330
29
102
}
330
29
100
AcDbVisualStyle
  2

 70
    14
 71
     2
 72
     2
 73
     0
 90
        0
 40
-0.6
 41
-30.0
 62
     5
 63
     7
421
 16777215
 74
     1
 91
        4
 64
     7
 65
   257
 75
     7
175
     7
 42
1.0
 92
        8
 66
     7
 43
1.0
 76
     1
 77
     6
 78
     2
 67
     7
 79
     5
170
     0
171
     0
290
     0
174
     0
 93
        1
 44
0.0
173
     0
291
     1
 45
0.0
1001
ACAD
1000
AcDbSavedByObjectVersion
1070
     0
  0
VISUALSTYLE
  5
3B
102
{ACAD_XDICTIONARY
360
E5F
102
}
102
{ACAD_REACTORS
330
29
102
}
330
29
100
AcDbVisualStyle
  2

 70
    21
 71
     2
 72
     2
 73
     0
 90
        0
 40
-0.6
 41
-30.0
 62
     5
 63
     7
421
 16777215
 74
     1
 91
        4
 64
     7
 65
   257
 75
     1
175
     1
 42
1.0
 92
        9
 66
     7
 43
1.0
 76
     1
 77
     6
 78
     2
 67
     7
 79
     5
170
     0
171
     0
290
     0
174
     0
 93
        1
 44
0.0
173
     0
291
     1
 45
0.0
1001
ACAD
1000
AcDbSavedByObjectVersion
1070
     0
  0
VISUALSTYLE
  5
33
102
{ACAD_XDICTIONARY
360
E4F
102
}
102
{ACAD_REACTORS
330
29
102
}
330
29
100
AcDbVisualStyle
  2

 70
     8
 71
     2
 72
     2
 73
     0
 90
        0
 40
-0.6
 41
-30.0
 62
     5
 63
     7
421
 16777215
 74
     1
 91
        0
 64
     7
 65
   257
 75
     1
175
     1
 42
1.0
 92
        8
 66
     8
424
  7895160
 43
1.0
 76
     1
 77
     6
 78
     2
 67
     7
 79
     5
170
     0
171
     0
290
     0
174
     0
 93
       13
 44
0.0
173
     0
291
     0
 45
0.0
1001
ACAD
1000
AcDbSavedByObjectVersion
1070
     0
  0
VISUALSTYLE
  5
36
102
{ACAD_XDICTIONARY
360
E55
102
}
102
{ACAD_REACTORS
330
29
102
}
330
29
100
AcDbVisualStyle
  2

 70
    13
 71
     2
 72
     2
 73
     0
 90
        0
 40
-0.6
 41
-30.0
 62
     5
 63
     7
421
 16777215
 74
     1
 91
        4
 64
     7
 65
   257
 75
     1
175
     1
 42
1.0
 92
       12
 66
     7
 43
1.0
 76
     1
 77
     6
 78
     2
 67
     7
 79
     5
170
     0
171
     0
290
     0
174
     0
 93
        1
 44
0.0
173
     0
291
     1
 45
0.0
1001
ACAD
1000
AcDbSavedByObjectVersion
1070
     0
  0
DICTIONARYVAR
  5
C97
102
{ACAD_REACTORS
330
C93
102
}
330
C93
100
DictionaryVariables
280
     0
  1
1:1
  0
DICTIONARYVAR
  5
C95
102
{ACAD_REACTORS
330
C93
102
}
330
C93
100
DictionaryVariables
280
     0
  1
STANDARD
  0
DICTIONARYVAR
  5
C94
102
{ACAD_REACTORS
330
C93
102
}
330
C93
100
DictionaryVariables
280
     0
  1
STANDARD
  0
DICTIONARYVAR
  5
C99
102
{ACAD_REACTORS
330
C93
102
}
330
C93
100
DictionaryVariables
280
     0
  1
0
  0
DICTIONARYVAR
  5
C9A
102
{ACAD_REACTORS
330
C93
102
}
330
C93
100
DictionaryVariables
280
     0
  1
0
  0
DICTIONARYVAR
  5
C98
102
{ACAD_REACTORS
330
C93
102
}
330
C93
100
DictionaryVariables
280
     0
  1
2
  0
DICTIONARYVAR
  5
C96
102
{ACAD_REACTORS
330
C93
102
}
330
C93
100
DictionaryVariables
280
     0
  1
1
  0
DICTIONARYVAR
  5
DEB
102
{ACAD_REACTORS
330
C93
102
}
330
C93
100
DictionaryVariables
280
     0
  1
2
  0
DICTIONARY
  5
DAD
102
{ACAD_REACTORS
330
DA3
102
}
330
DA3
100
AcDbDictionary
281
     1
  0
DICTIONARY
  5
1A
330
19
100
AcDbDictionary
280
     1
281
     1
  3
ACAD_XREC_ROUNDTRIP
360
D16
  3
BUMPTILE
360
1C
  3
DIFFUSETILE
360
1B
  3
OPACITYTILE
360
1F
  3
REFLECTIONTILE
360
1E
  3
REFRACTIONTILE
360
20
  3
SPECULARTILE
360
1D
  0
DICTIONARY
  5
12
330
11
100
AcDbDictionary
280
     1
281
     1
  3
ACAD_XREC_ROUNDTRIP
360
D15
  3
BUMPTILE
360
14
  3
DIFFUSETILE
360
13
  3
OPACITYTILE
360
17
  3
REFLECTIONTILE
360
16
  3
REFRACTIONTILE
360
18
  3
SPECULARTILE
360
15
  0
DICTIONARY
  5
22
330
21
100
AcDbDictionary
280
     1
281
     1
  3
ACAD_XREC_ROUNDTRIP
360
D17
  3
BUMPTILE
360
24
  3
DIFFUSETILE
360
23
  3
OPACITYTILE
360
27
  3
REFLECTIONTILE
360
26
  3
REFRACTIONTILE
360
28
  3
SPECULARTILE
360
25
  0
DICTIONARY
  5
C9C
330
70
100
AcDbDictionary
280
     1
281
     1
  3
ACAD_ROUNDTRIP_2008_TABLESTYLE_CELLSTYLEMAP
360
DEC
  3
ACAD_XREC_ROUNDTRIP
360
E63
  0
DICTIONARY
  5
E47
330
2F
100
AcDbDictionary
280
     1
281
     1
  3
ACAD_XREC_ROUNDTRIP
360
E48
  0
DICTIONARY
  5
E4B
330
31
100
AcDbDictionary
280
     1
281
     1
  3
ACAD_XREC_ROUNDTRIP
360
E4C
  0
DICTIONARY
  5
E49
330
30
100
AcDbDictionary
280
     1
281
     1
  3
ACAD_XREC_ROUNDTRIP
360
E4A
  0
DICTIONARY
  5
E45
330
2E
100
AcDbDictionary
280
     1
281
     1
  3
ACAD_XREC_ROUNDTRIP
360
E46
  0
DICTIONARY
  5
E53
330
35
100
AcDbDictionary
280
     1
281
     1
  3
ACAD_XREC_ROUNDTRIP
360
E54
  0
DICTIONARY
  5
E5B
330
39
100
AcDbDictionary
280
     1
281
     1
  3
ACAD_XREC_ROUNDTRIP
360
E5C
  0
DICTIONARY
  5
E4D
330
32
100
AcDbDictionary
280
     1
281
     1
  3
ACAD_XREC_ROUNDTRIP
360
E4E
  0
DICTIONARY
  5
E51
330
34
100
AcDbDictionary
280
     1
281
     1
  3
ACAD_XREC_ROUNDTRIP
360
E52
  0
DICTIONARY
  5
E61
330
3C
100
AcDbDictionary
280
     1
281
     1
  3
ACAD_XREC_ROUNDTRIP
360
E62
  0
DICTIONARY
  5
E59
330
38
100
AcDbDictionary
280
     1
281
     1
  3
ACAD_XREC_ROUNDTRIP
360
E5A
  0
DICTIONARY
  5
E3D
330
2A
100
AcDbDictionary
280
     1
281
     1
  3
ACAD_XREC_ROUNDTRIP
360
E3E
  0
DICTIONARY
  5
E3F
330
2B
100
AcDbDictionary
280
     1
281
     1
  3
ACAD_XREC_ROUNDTRIP
360
E40
  0
DICTIONARY
  5
E41
330
2C
100
AcDbDictionary
280
     1
281
     1
  3
ACAD_XREC_ROUNDTRIP
360
E42
  0
DICTIONARY
  5
E43
330
2D
100
AcDbDictionary
280
     1
281
     1
  3
ACAD_XREC_ROUNDTRIP
360
E44
  0
DICTIONARY
  5
E5D
330
3A
100
AcDbDictionary
280
     1
281
     1
  3
ACAD_XREC_ROUNDTRIP
360
E5E
  0
DICTIONARY
  5
E57
330
37
100
AcDbDictionary
280
     1
281
     1
  3
ACAD_XREC_ROUNDTRIP
360
E58
  0
DICTIONARY
  5
E5F
330
3B
100
AcDbDictionary
280
     1
281
     1
  3
ACAD_XREC_ROUNDTRIP
360
E60
  0
DICTIONARY
  5
E4F
330
33
100
AcDbDictionary
280
     1
281
     1
  3
ACAD_XREC_ROUNDTRIP
360
E50
  0
DICTIONARY
  5
E55
330
36
100
AcDbDictionary
280
     1
281
     1
  3
ACAD_XREC_ROUNDTRIP
360
E56
  0
XRECORD
  5
D16
102
{ACAD_REACTORS
330
1A
102
}
330
1A
100
AcDbXrecord
280
     1
102
MATERIAL
148
0.0
149
0.0
149
0.0
 93
        0
 94
      127
282
     0
 72
     0
 77
     0
171
     0
175
     0
179
     0
273
     0
  0
XRECORD
  5
1C
102
{ACAD_REACTORS
330
1A
102
}
330
1A
100
AcDbXrecord
280
     1
270
     1
271
     1
  0
XRECORD
  5
1B
102
{ACAD_REACTORS
330
1A
102
}
330
1A
100
AcDbXrecord
280
     1
270
     1
271
     1
  0
XRECORD
  5
1F
102
{ACAD_REACTORS
330
1A
102
}
330
1A
100
AcDbXrecord
280
     1
270
     1
271
     1
  0
XRECORD
  5
1E
102
{ACAD_REACTORS
330
1A
102
}
330
1A
100
AcDbXrecord
280
     1
270
     1
271
     1
  0
XRECORD
  5
20
102
{ACAD_REACTORS
330
1A
102
}
330
1A
100
AcDbXrecord
280
     1
270
     1
271
     1
  0
XRECORD
  5
1D
102
{ACAD_REACTORS
330
1A
102
}
330
1A
100
AcDbXrecord
280
     1
270
     1
271
     1
  0
XRECORD
  5
D15
102
{ACAD_REACTORS
330
12
102
}
330
12
100
AcDbXrecord
280
     1
102
MATERIAL
148
0.0
149
0.0
149
0.0
 93
        0
 94
      127
282
     0
 72
     0
 77
     0
171
     0
175
     0
179
     0
273
     0
  0
XRECORD
  5
14
102
{ACAD_REACTORS
330
12
102
}
330
12
100
AcDbXrecord
280
     1
270
     1
271
     1
  0
XRECORD
  5
13
102
{ACAD_REACTORS
330
12
102
}
330
12
100
AcDbXrecord
280
     1
270
     1
271
     1
  0
XRECORD
  5
17
102
{ACAD_REACTORS
330
12
102
}
330
12
100
AcDbXrecord
280
     1
270
     1
271
     1
  0
XRECORD
  5
16
102
{ACAD_REACTORS
330
12
102
}
330
12
100
AcDbXrecord
280
     1
270
     1
271
     1
  0
XRECORD
  5
18
102
{ACAD_REACTORS
330
12
102
}
330
12
100
AcDbXrecord
280
     1
270
     1
271
     1
  0
XRECORD
  5
15
102
{ACAD_REACTORS
330
12
102
}
330
12
100
AcDbXrecord
280
     1
270
     1
271
     1
  0
XRECORD
  5
D17
102
{ACAD_REACTORS
330
22
102
}
330
22
100
AcDbXrecord
280
     1
102
MATERIAL
148
0.0
149
0.0
149
0.0
 93
        0
 94
      127
282
     0
 72
     0
 77
     0
171
     0
175
     0
179
     0
273
     0
  0
XRECORD
  5
24
102
{ACAD_REACTORS
330
22
102
}
330
22
100
AcDbXrecord
280
     1
270
     1
271
     1
  0
XRECORD
  5
23
102
{ACAD_REACTORS
330
22
102
}
330
22
100
AcDbXrecord
280
     1
270
     1
271
     1
  0
XRECORD
  5
27
102
{ACAD_REACTORS
330
22
102
}
330
22
100
AcDbXrecord
280
     1
270
     1
271
     1
  0
XRECORD
  5
26
102
{ACAD_REACTORS
330
22
102
}
330
22
100
AcDbXrecord
280
     1
270
     1
271
     1
  0
XRECORD
  5
28
102
{ACAD_REACTORS
330
22
102
}
330
22
100
AcDbXrecord
280
     1
270
     1
271
     1
  0
XRECORD
  5
25
102
{ACAD_REACTORS
330
22
102
}
330
22
100
AcDbXrecord
280
     1
270
     1
271
     1
  0
CELLSTYLEMAP
  5
DEC
102
{ACAD_REACTORS
330
C9C
102
}
330
C9C
100
AcDbCellStyleMap
 90
        3
300
CELLSTYLE
  1
TABLEFORMAT_BEGIN
 90
        5
170
     1
 91
        0
 92
    32768
 62
   257
 93
        1
300
CONTENTFORMAT
  1
CONTENTFORMAT_BEGIN
 90
        0
 91
        0
 92
      512
 93
        0
300

 40
0.0
140
1.0
 94
        5
 62
     0
340
60
144
0.25
309
CONTENTFORMAT_END
171
     1
301
MARGIN
  1
CELLMARGIN_BEGIN
 40
0.06
 40
0.06
 40
0.06
 40
0.06
 40
0.18
 40
0.18
309
CELLMARGIN_END
 94
        6
 95
        1
302
GRIDFORMAT
  1
GRIDFORMAT_BEGIN
 90
        0
 91
        1
 62
     0
 92
       -2
340
0
 93
        0
 40
0.045
309
GRIDFORMAT_END
 95
        2
302
GRIDFORMAT
  1
GRIDFORMAT_BEGIN
 90
        0
 91
        1
 62
     0
 92
       -2
340
0
 93
        0
 40
0.045
309
GRIDFORMAT_END
 95
        4
302
GRIDFORMAT
  1
GRIDFORMAT_BEGIN
 90
        0
 91
        1
 62
     0
 92
       -2
340
0
 93
        0
 40
0.045
309
GRIDFORMAT_END
 95
        8
302
GRIDFORMAT
  1
GRIDFORMAT_BEGIN
 90
        0
 91
        1
 62
     0
 92
       -2
340
0
 93
        0
 40
0.045
309
GRIDFORMAT_END
 95
       16
302
GRIDFORMAT
  1
GRIDFORMAT_BEGIN
 90
        0
 91
        1
 62
     0
 92
       -2
340
0
 93
        0
 40
0.045
309
GRIDFORMAT_END
 95
       32
302
GRIDFORMAT
  1
GRIDFORMAT_BEGIN
 90
        0
 91
        1
 62
     0
 92
       -2
340
0
 93
        0
 40
0.045
309
GRIDFORMAT_END
309
TABLEFORMAT_END
  1
CELLSTYLE_BEGIN
 90
        1
 91
        1
300
_TITLE
309
CELLSTYLE_END
300
CELLSTYLE
  1
TABLEFORMAT_BEGIN
 90
        5
170
     1
 91
        0
 92
        0
 62
   257
 93
        1
300
CONTENTFORMAT
  1
CONTENTFORMAT_BEGIN
 90
        0
 91
        0
 92
      512
 93
        0
300

 40
0.0
140
1.0
 94
        5
 62
     0
340
60
144
0.18
309
CONTENTFORMAT_END
171
     1
301
MARGIN
  1
CELLMARGIN_BEGIN
 40
0.06
 40
0.06
 40
0.06
 40
0.06
 40
0.18
 40
0.18
309
CELLMARGIN_END
 94
        6
 95
        1
302
GRIDFORMAT
  1
GRIDFORMAT_BEGIN
 90
        0
 91
        1
 62
     0
 92
       -2
340
0
 93
        0
 40
0.045
309
GRIDFORMAT_END
 95
        2
302
GRIDFORMAT
  1
GRIDFORMAT_BEGIN
 90
        0
 91
        1
 62
     0
 92
       -2
340
0
 93
        0
 40
0.045
309
GRIDFORMAT_END
 95
        4
302
GRIDFORMAT
  1
GRIDFORMAT_BEGIN
 90
        0
 91
        1
 62
     0
 92
       -2
340
0
 93
        0
 40
0.045
309
GRIDFORMAT_END
 95
        8
302
GRIDFORMAT
  1
GRIDFORMAT_BEGIN
 90
        0
 91
        1
 62
     0
 92
       -2
340
0
 93
        0
 40
0.045
309
GRIDFORMAT_END
 95
       16
302
GRIDFORMAT
  1
GRIDFORMAT_BEGIN
 90
        0
 91
        1
 62
     0
 92
       -2
340
0
 93
        0
 40
0.045
309
GRIDFORMAT_END
 95
       32
302
GRIDFORMAT
  1
GRIDFORMAT_BEGIN
 90
        0
 91
        1
 62
     0
 92
       -2
340
0
 93
        0
 40
0.045
309
GRIDFORMAT_END
309
TABLEFORMAT_END
  1
CELLSTYLE_BEGIN
 90
        2
 91
        1
300
_HEADER
309
CELLSTYLE_END
300
CELLSTYLE
  1
TABLEFORMAT_BEGIN
 90
        5
170
     1
 91
        0
 92
        0
 62
   257
 93
        1
300
CONTENTFORMAT
  1
CONTENTFORMAT_BEGIN
 90
        0
 91
        0
 92
      512
 93
        0
300

 40
0.0
140
1.0
 94
        2
 62
     0
340
60
144
0.18
309
CONTENTFORMAT_END
171
     1
301
MARGIN
  1
CELLMARGIN_BEGIN
 40
0.06
 40
0.06
 40
0.06
 40
0.06
 40
0.18
 40
0.18
309
CELLMARGIN_END
 94
        6
 95
        1
302
GRIDFORMAT
  1
GRIDFORMAT_BEGIN
 90
        0
 91
        1
 62
     0
 92
       -2
340
0
 93
        0
 40
0.045
309
GRIDFORMAT_END
 95
        2
302
GRIDFORMAT
  1
GRIDFORMAT_BEGIN
 90
        0
 91
        1
 62
     0
 92
       -2
340
0
 93
        0
 40
0.045
309
GRIDFORMAT_END
 95
        4
302
GRIDFORMAT
  1
GRIDFORMAT_BEGIN
 90
        0
 91
        1
 62
     0
 92
       -2
340
0
 93
        0
 40
0.045
309
GRIDFORMAT_END
 95
        8
302
GRIDFORMAT
  1
GRIDFORMAT_BEGIN
 90
        0
 91
        1
 62
     0
 92
       -2
340
0
 93
        0
 40
0.045
309
GRIDFORMAT_END
 95
       16
302
GRIDFORMAT
  1
GRIDFORMAT_BEGIN
 90
        0
 91
        1
 62
     0
 92
       -2
340
0
 93
        0
 40
0.045
309
GRIDFORMAT_END
 95
       32
302
GRIDFORMAT
  1
GRIDFORMAT_BEGIN
 90
        0
 91
        1
 62
     0
 92
       -2
340
0
 93
        0
 40
0.045
309
GRIDFORMAT_END
309
TABLEFORMAT_END
  1
CELLSTYLE_BEGIN
 90
        3
 91
        2
300
_DATA
309
CELLSTYLE_END
  0
XRECORD
  5
E63
102
{ACAD_REACTORS
330
C9C
102
}
330
C9C
100
AcDbXrecord
280
     1
102
ACAD_ROUNDTRIP_PRE2007_TABLESTYLE
 90
      512
 91
        0
  1

 92
      512
 93
        0
  2

 94
      512
 95
        0
  3

  0
XRECORD
  5
E48
102
{ACAD_REACTORS
330
E47
102
}
330
E47
100
AcDbXrecord
280
     1
102
RTVSPropertyOp0
 70
     1
102
RTVSPropertyOp1
 70
     1
102
RTVSPropertyOp2
 70
     1
102
RTVSPropertyOp3
 70
     1
102
RTVSPropertyOp4
 70
     1
102
RTVSPropertyOp5
 70
     1
102
RTVSPropertyOp6
 70
     1
102
RTVSPropertyOp7
 70
     1
102
RTVSPropertyOp8
 70
     1
102
RTVSPropertyOp9
 70
     1
102
RTVSPropertyOp10
 70
     1
102
RTVSPropertyOp11
 70
     1
102
RTVSPropertyOp12
 70
     1
102
RTVSPropertyOp13
 70
     1
102
RTVSPropertyOp14
 70
     1
102
RTVSPropertyOp15
 70
     1
102
RTVSPropertyOp16
 70
     1
102
RTVSPropertyOp17
 70
     1
102
RTVSPropertyOp18
 70
     1
102
RTVSPropertyOp19
 70
     1
102
RTVSPropertyOp20
 70
     1
102
RTVSPropertyOp21
 70
     1
102
RTVSPropertyOp22
 70
     1
102
RTVSPropertyOp23
 70
     1
102
RTVSPropertyOp24
 70
     1
102
RTVSPropertyOp25
 70
     1
102
RTVSPropertyOp26
 70
     1
102
RTVSPropertyOp27
 70
     1
  0
XRECORD
  5
E4C
102
{ACAD_REACTORS
330
E4B
102
}
330
E4B
100
AcDbXrecord
280
     1
102
RTVSPropertyOp0
 70
     1
102
RTVSPropertyOp1
 70
     1
102
RTVSPropertyOp2
 70
     1
102
RTVSPropertyOp3
 70
     1
102
RTVSPropertyOp4
 70
     1
102
RTVSPropertyOp5
 70
     1
102
RTVSPropertyOp6
 70
     1
102
RTVSPropertyOp7
 70
     1
102
RTVSPropertyOp8
 70
     1
102
RTVSPropertyOp9
 70
     1
102
RTVSPropertyOp10
 70
     1
102
RTVSPropertyOp11
 70
     1
102
RTVSPropertyOp12
 70
     1
102
RTVSPropertyOp13
 70
     1
102
RTVSPropertyOp14
 70
     1
102
RTVSPropertyOp15
 70
     1
102
RTVSPropertyOp16
 70
     1
102
RTVSPropertyOp17
 70
     1
102
RTVSPropertyOp18
 70
     1
102
RTVSPropertyOp19
 70
     1
102
RTVSPropertyOp20
 70
     1
102
RTVSPropertyOp21
 70
     1
102
RTVSPropertyOp22
 70
     1
102
RTVSPropertyOp23
 70
     1
102
RTVSPropertyOp24
 70
     1
102
RTVSPropertyOp25
 70
     1
102
RTVSPropertyOp26
 70
     1
102
RTVSPropertyOp27
 70
     1
  0
XRECORD
  5
E4A
102
{ACAD_REACTORS
330
E49
102
}
330
E49
100
AcDbXrecord
280
     1
102
RTVSPropertyOp0
 70
     1
102
RTVSPropertyOp1
 70
     1
102
RTVSPropertyOp2
 70
     1
102
RTVSPropertyOp3
 70
     1
102
RTVSPropertyOp4
 70
     1
102
RTVSPropertyOp5
 70
     1
102
RTVSPropertyOp6
 70
     1
102
RTVSPropertyOp7
 70
     1
102
RTVSPropertyOp8
 70
     1
102
RTVSPropertyOp9
 70
     1
102
RTVSPropertyOp10
 70
     1
102
RTVSPropertyOp11
 70
     1
102
RTVSPropertyOp12
 70
     1
102
RTVSPropertyOp13
 70
     1
102
RTVSPropertyOp14
 70
     1
102
RTVSPropertyOp15
 70
     1
102
RTVSPropertyOp16
 70
     1
102
RTVSPropertyOp17
 70
     1
102
RTVSPropertyOp18
 70
     1
102
RTVSPropertyOp19
 70
     1
102
RTVSPropertyOp20
 70
     1
102
RTVSPropertyOp21
 70
     1
102
RTVSPropertyOp22
 70
     1
102
RTVSPropertyOp23
 70
     1
102
RTVSPropertyOp24
 70
     1
102
RTVSPropertyOp25
 70
     1
102
RTVSPropertyOp26
 70
     1
102
RTVSPropertyOp27
 70
     1
  0
XRECORD
  5
E46
102
{ACAD_REACTORS
330
E45
102
}
330
E45
100
AcDbXrecord
280
     1
102
RTVSPropertyOp0
 70
     1
102
RTVSPropertyOp1
 70
     1
102
RTVSPropertyOp2
 70
     1
102
RTVSPropertyOp3
 70
     1
102
RTVSPropertyOp4
 70
     1
102
RTVSPropertyOp5
 70
     1
102
RTVSPropertyOp6
 70
     1
102
RTVSPropertyOp7
 70
     1
102
RTVSPropertyOp8
 70
     1
102
RTVSPropertyOp9
 70
     1
102
RTVSPropertyOp10
 70
     1
102
RTVSPropertyOp11
 70
     1
102
RTVSPropertyOp12
 70
     1
102
RTVSPropertyOp13
 70
     1
102
RTVSPropertyOp14
 70
     1
102
RTVSPropertyOp15
 70
     1
102
RTVSPropertyOp16
 70
     1
102
RTVSPropertyOp17
 70
     1
102
RTVSPropertyOp18
 70
     1
102
RTVSPropertyOp19
 70
     1
102
RTVSPropertyOp20
 70
     1
102
RTVSPropertyOp21
 70
     1
102
RTVSPropertyOp22
 70
     1
102
RTVSPropertyOp23
 70
     1
102
RTVSPropertyOp24
 70
     1
102
RTVSPropertyOp25
 70
     1
102
RTVSPropertyOp26
 70
     1
102
RTVSPropertyOp27
 70
     1
  0
XRECORD
  5
E54
102
{ACAD_REACTORS
330
E53
102
}
330
E53
100
AcDbXrecord
280
     1
102
RTVSPropertyOp0
 70
     1
102
RTVSPropertyOp1
 70
     1
102
RTVSPropertyOp2
 70
     1
102
RTVSPropertyOp3
 70
     1
102
RTVSPropertyOp4
 70
     1
102
RTVSPropertyOp5
 70
     1
102
RTVSPropertyOp6
 70
     1
102
RTVSPropertyOp7
 70
     1
102
RTVSPropertyOp8
 70
     1
102
RTVSPropertyOp9
 70
     1
102
RTVSPropertyOp10
 70
     1
102
RTVSPropertyOp11
 70
     1
102
RTVSPropertyOp12
 70
     1
102
RTVSPropertyOp13
 70
     1
102
RTVSPropertyOp14
 70
     1
102
RTVSPropertyOp15
 70
     1
102
RTVSPropertyOp16
 70
     1
102
RTVSPropertyOp17
 70
     1
102
RTVSPropertyOp18
 70
     1
102
RTVSPropertyOp19
 70
     1
102
RTVSPropertyOp20
 70
     1
102
RTVSPropertyOp21
 70
     1
102
RTVSPropertyOp22
 70
     1
102
RTVSPropertyOp23
 70
     1
102
RTVSPropertyOp24
 70
     1
102
RTVSPropertyOp25
 70
     1
102
RTVSPropertyOp26
 70
     1
102
RTVSPropertyOp27
 70
     1
  0
XRECORD
  5
E5C
102
{ACAD_REACTORS
330
E5B
102
}
330
E5B
100
AcDbXrecord
280
     1
102
RTVSPropertyOp0
 70
     1
102
RTVSPropertyOp1
 70
     1
102
RTVSPropertyOp2
 70
     1
102
RTVSPropertyOp3
 70
     1
102
RTVSPropertyOp4
 70
     1
102
RTVSPropertyOp5
 70
     1
102
RTVSPropertyOp6
 70
     1
102
RTVSPropertyOp7
 70
     1
102
RTVSPropertyOp8
 70
     1
102
RTVSPropertyOp9
 70
     1
102
RTVSPropertyOp10
 70
     1
102
RTVSPropertyOp11
 70
     1
102
RTVSPropertyOp12
 70
     1
102
RTVSPropertyOp13
 70
     1
102
RTVSPropertyOp14
 70
     1
102
RTVSPropertyOp15
 70
     1
102
RTVSPropertyOp16
 70
     1
102
RTVSPropertyOp17
 70
     1
102
RTVSPropertyOp18
 70
     1
102
RTVSPropertyOp19
 70
     1
102
RTVSPropertyOp20
 70
     1
102
RTVSPropertyOp21
 70
     1
102
RTVSPropertyOp22
 70
     1
102
RTVSPropertyOp23
 70
     1
102
RTVSPropertyOp24
 70
     1
102
RTVSPropertyOp25
 70
     1
102
RTVSPropertyOp26
 70
     1
102
RTVSPropertyOp27
 70
     1
  0
XRECORD
  5
E4E
102
{ACAD_REACTORS
330
E4D
102
}
330
E4D
100
AcDbXrecord
280
     1
102
RTVSPropertyOp0
 70
     1
102
RTVSPropertyOp1
 70
     1
102
RTVSPropertyOp2
 70
     1
102
RTVSPropertyOp3
 70
     1
102
RTVSPropertyOp4
 70
     1
102
RTVSPropertyOp5
 70
     1
102
RTVSPropertyOp6
 70
     1
102
RTVSPropertyOp7
 70
     1
102
RTVSPropertyOp8
 70
     1
102
RTVSPropertyOp9
 70
     1
102
RTVSPropertyOp10
 70
     1
102
RTVSPropertyOp11
 70
     1
102
RTVSPropertyOp12
 70
     1
102
RTVSPropertyOp13
 70
     1
102
RTVSPropertyOp14
 70
     1
102
RTVSPropertyOp15
 70
     1
102
RTVSPropertyOp16
 70
     1
102
RTVSPropertyOp17
 70
     1
102
RTVSPropertyOp18
 70
     1
102
RTVSPropertyOp19
 70
     1
102
RTVSPropertyOp20
 70
     1
102
RTVSPropertyOp21
 70
     1
102
RTVSPropertyOp22
 70
     1
102
RTVSPropertyOp23
 70
     1
102
RTVSPropertyOp24
 70
     1
102
RTVSPropertyOp25
 70
     1
102
RTVSPropertyOp26
 70
     1
102
RTVSPropertyOp27
 70
     1
  0
XRECORD
  5
E52
102
{ACAD_REACTORS
330
E51
102
}
330
E51
100
AcDbXrecord
280
     1
102
RTVSPropertyOp0
 70
     1
102
RTVSPropertyOp1
 70
     1
102
RTVSPropertyOp2
 70
     1
102
RTVSPropertyOp3
 70
     1
102
RTVSPropertyOp4
 70
     1
102
RTVSPropertyOp5
 70
     1
102
RTVSPropertyOp6
 70
     1
102
RTVSPropertyOp7
 70
     1
102
RTVSPropertyOp8
 70
     1
102
RTVSPropertyOp9
 70
     1
102
RTVSPropertyOp10
 70
     1
102
RTVSPropertyOp11
 70
     1
102
RTVSPropertyOp12
 70
     1
102
RTVSPropertyOp13
 70
     1
102
RTVSPropertyOp14
 70
     1
102
RTVSPropertyOp15
 70
     1
102
RTVSPropertyOp16
 70
     1
102
RTVSPropertyOp17
 70
     1
102
RTVSPropertyOp18
 70
     1
102
RTVSPropertyOp19
 70
     1
102
RTVSPropertyOp20
 70
     1
102
RTVSPropertyOp21
 70
     1
102
RTVSPropertyOp22
 70
     1
102
RTVSPropertyOp23
 70
     1
102
RTVSPropertyOp24
 70
     1
102
RTVSPropertyOp25
 70
     1
102
RTVSPropertyOp26
 70
     1
102
RTVSPropertyOp27
 70
     1
  0
XRECORD
  5
E62
102
{ACAD_REACTORS
330
E61
102
}
330
E61
100
AcDbXrecord
280
     1
102
RTVSPropertyOp0
 70
     0
102
RTVSPropertyOp1
 70
     0
102
RTVSPropertyOp2
 70
     0
102
RTVSPropertyOp3
 70
     0
102
RTVSPropertyOp4
 70
     0
102
RTVSPropertyOp5
 70
     0
102
RTVSPropertyOp6
 70
     0
102
RTVSPropertyOp7
 70
     0
102
RTVSPropertyOp8
 70
     0
102
RTVSPropertyOp9
 70
     0
102
RTVSPropertyOp10
 70
     0
102
RTVSPropertyOp11
 70
     0
102
RTVSPropertyOp12
 70
     0
102
RTVSPropertyOp13
 70
     0
102
RTVSPropertyOp14
 70
     2
102
RTVSPropertyOp15
 70
     0
102
RTVSPropertyOp16
 70
     0
102
RTVSPropertyOp17
 70
     0
102
RTVSPropertyOp18
 70
     0
102
RTVSPropertyOp19
 70
     0
102
RTVSPropertyOp20
 70
     0
102
RTVSPropertyOp21
 70
     0
102
RTVSPropertyOp22
 70
     0
102
RTVSPropertyOp23
 70
     0
102
RTVSPropertyOp24
 70
     0
102
RTVSPropertyOp25
 70
     0
102
RTVSPropertyOp26
 70
     0
102
RTVSPropertyOp27
 70
     0
  0
XRECORD
  5
E5A
102
{ACAD_REACTORS
330
E59
102
}
330
E59
100
AcDbXrecord
280
     1
102
RTVSPropertyOp0
 70
     1
102
RTVSPropertyOp1
 70
     1
102
RTVSPropertyOp2
 70
     1
102
RTVSPropertyOp3
 70
     1
102
RTVSPropertyOp4
 70
     1
102
RTVSPropertyOp5
 70
     1
102
RTVSPropertyOp6
 70
     1
102
RTVSPropertyOp7
 70
     1
102
RTVSPropertyOp8
 70
     1
102
RTVSPropertyOp9
 70
     1
102
RTVSPropertyOp10
 70
     1
102
RTVSPropertyOp11
 70
     1
102
RTVSPropertyOp12
 70
     1
102
RTVSPropertyOp13
 70
     1
102
RTVSPropertyOp14
 70
     1
102
RTVSPropertyOp15
 70
     1
102
RTVSPropertyOp16
 70
     1
102
RTVSPropertyOp17
 70
     1
102
RTVSPropertyOp18
 70
     1
102
RTVSPropertyOp19
 70
     1
102
RTVSPropertyOp20
 70
     1
102
RTVSPropertyOp21
 70
     1
102
RTVSPropertyOp22
 70
     1
102
RTVSPropertyOp23
 70
     1
102
RTVSPropertyOp24
 70
     1
102
RTVSPropertyOp25
 70
     1
102
RTVSPropertyOp26
 70
     1
102
RTVSPropertyOp27
 70
     1
  0
XRECORD
  5
E3E
102
{ACAD_REACTORS
330
E3D
102
}
330
E3D
100
AcDbXrecord
280
     1
102
RTVSPropertyOp0
 70
     1
102
RTVSPropertyOp1
 70
     1
102
RTVSPropertyOp2
 70
     1
102
RTVSPropertyOp3
 70
     1
102
RTVSPropertyOp4
 70
     1
102
RTVSPropertyOp5
 70
     1
102
RTVSPropertyOp6
 70
     1
102
RTVSPropertyOp7
 70
     1
102
RTVSPropertyOp8
 70
     1
102
RTVSPropertyOp9
 70
     1
102
RTVSPropertyOp10
 70
     1
102
RTVSPropertyOp11
 70
     1
102
RTVSPropertyOp12
 70
     1
102
RTVSPropertyOp13
 70
     1
102
RTVSPropertyOp14
 70
     1
102
RTVSPropertyOp15
 70
     1
102
RTVSPropertyOp16
 70
     1
102
RTVSPropertyOp17
 70
     1
102
RTVSPropertyOp18
 70
     1
102
RTVSPropertyOp19
 70
     1
102
RTVSPropertyOp20
 70
     1
102
RTVSPropertyOp21
 70
     1
102
RTVSPropertyOp22
 70
     1
102
RTVSPropertyOp23
 70
     1
102
RTVSPropertyOp24
 70
     1
102
RTVSPropertyOp25
 70
     1
102
RTVSPropertyOp26
 70
     1
102
RTVSPropertyOp27
 70
     1
  0
XRECORD
  5
E40
102
{ACAD_REACTORS
330
E3F
102
}
330
E3F
100
AcDbXrecord
280
     1
102
RTVSPropertyOp0
 70
     1
102
RTVSPropertyOp1
 70
     1
102
RTVSPropertyOp2
 70
     1
102
RTVSPropertyOp3
 70
     1
102
RTVSPropertyOp4
 70
     1
102
RTVSPropertyOp5
 70
     1
102
RTVSPropertyOp6
 70
     1
102
RTVSPropertyOp7
 70
     1
102
RTVSPropertyOp8
 70
     1
102
RTVSPropertyOp9
 70
     1
102
RTVSPropertyOp10
 70
     1
102
RTVSPropertyOp11
 70
     1
102
RTVSPropertyOp12
 70
     1
102
RTVSPropertyOp13
 70
     1
102
RTVSPropertyOp14
 70
     1
102
RTVSPropertyOp15
 70
     1
102
RTVSPropertyOp16
 70
     1
102
RTVSPropertyOp17
 70
     1
102
RTVSPropertyOp18
 70
     1
102
RTVSPropertyOp19
 70
     1
102
RTVSPropertyOp20
 70
     1
102
RTVSPropertyOp21
 70
     1
102
RTVSPropertyOp22
 70
     1
102
RTVSPropertyOp23
 70
     1
102
RTVSPropertyOp24
 70
     1
102
RTVSPropertyOp25
 70
     1
102
RTVSPropertyOp26
 70
     1
102
RTVSPropertyOp27
 70
     1
  0
XRECORD
  5
E42
102
{ACAD_REACTORS
330
E41
102
}
330
E41
100
AcDbXrecord
280
     1
102
RTVSPropertyOp0
 70
     1
102
RTVSPropertyOp1
 70
     1
102
RTVSPropertyOp2
 70
     1
102
RTVSPropertyOp3
 70
     1
102
RTVSPropertyOp4
 70
     1
102
RTVSPropertyOp5
 70
     1
102
RTVSPropertyOp6
 70
     1
102
RTVSPropertyOp7
 70
     1
102
RTVSPropertyOp8
 70
     1
102
RTVSPropertyOp9
 70
     1
102
RTVSPropertyOp10
 70
     1
102
RTVSPropertyOp11
 70
     1
102
RTVSPropertyOp12
 70
     1
102
RTVSPropertyOp13
 70
     1
102
RTVSPropertyOp14
 70
     1
102
RTVSPropertyOp15
 70
     1
102
RTVSPropertyOp16
 70
     1
102
RTVSPropertyOp17
 70
     1
102
RTVSPropertyOp18
 70
     1
102
RTVSPropertyOp19
 70
     1
102
RTVSPropertyOp20
 70
     1
102
RTVSPropertyOp21
 70
     1
102
RTVSPropertyOp22
 70
     1
102
RTVSPropertyOp23
 70
     1
102
RTVSPropertyOp24
 70
     1
102
RTVSPropertyOp25
 70
     1
102
RTVSPropertyOp26
 70
     1
102
RTVSPropertyOp27
 70
     1
  0
XRECORD
  5
E44
102
{ACAD_REACTORS
330
E43
102
}
330
E43
100
AcDbXrecord
280
     1
102
RTVSPropertyOp0
 70
     1
102
RTVSPropertyOp1
 70
     1
102
RTVSPropertyOp2
 70
     1
102
RTVSPropertyOp3
 70
     1
102
RTVSPropertyOp4
 70
     1
102
RTVSPropertyOp5
 70
     1
102
RTVSPropertyOp6
 70
     1
102
RTVSPropertyOp7
 70
     1
102
RTVSPropertyOp8
 70
     1
102
RTVSPropertyOp9
 70
     1
102
RTVSPropertyOp10
 70
     1
102
RTVSPropertyOp11
 70
     1
102
RTVSPropertyOp12
 70
     1
102
RTVSPropertyOp13
 70
     1
102
RTVSPropertyOp14
 70
     1
102
RTVSPropertyOp15
 70
     1
102
RTVSPropertyOp16
 70
     1
102
RTVSPropertyOp17
 70
     1
102
RTVSPropertyOp18
 70
     1
102
RTVSPropertyOp19
 70
     1
102
RTVSPropertyOp20
 70
     1
102
RTVSPropertyOp21
 70
     1
102
RTVSPropertyOp22
 70
     1
102
RTVSPropertyOp23
 70
     1
102
RTVSPropertyOp24
 70
     1
102
RTVSPropertyOp25
 70
     1
102
RTVSPropertyOp26
 70
     1
102
RTVSPropertyOp27
 70
     1
  0
XRECORD
  5
E5E
102
{ACAD_REACTORS
330
E5D
102
}
330
E5D
100
AcDbXrecord
280
     1
102
RTVSPropertyOp0
 70
     0
102
RTVSPropertyOp1
 70
     0
102
RTVSPropertyOp2
 70
     0
102
RTVSPropertyOp3
 70
     0
102
RTVSPropertyOp4
 70
     0
102
RTVSPropertyOp5
 70
     0
102
RTVSPropertyOp6
 70
     0
102
RTVSPropertyOp7
 70
     0
102
RTVSPropertyOp8
 70
     0
102
RTVSPropertyOp9
 70
     0
102
RTVSPropertyOp10
 70
     0
102
RTVSPropertyOp11
 70
     0
102
RTVSPropertyOp12
 70
     0
102
RTVSPropertyOp13
 70
     0
102
RTVSPropertyOp14
 70
     2
102
RTVSPropertyOp15
 70
     0
102
RTVSPropertyOp16
 70
     0
102
RTVSPropertyOp17
 70
     0
102
RTVSPropertyOp18
 70
     0
102
RTVSPropertyOp19
 70
     0
102
RTVSPropertyOp20
 70
     0
102
RTVSPropertyOp21
 70
     0
102
RTVSPropertyOp22
 70
     0
102
RTVSPropertyOp23
 70
     0
102
RTVSPropertyOp24
 70
     0
102
RTVSPropertyOp25
 70
     0
102
RTVSPropertyOp26
 70
     0
102
RTVSPropertyOp27
 70
     0
  0
XRECORD
  5
E58
102
{ACAD_REACTORS
330
E57
102
}
330
E57
100
AcDbXrecord
280
     1
102
RTVSPropertyOp0
 70
     1
102
RTVSPropertyOp1
 70
     1
102
RTVSPropertyOp2
 70
     1
102
RTVSPropertyOp3
 70
     1
102
RTVSPropertyOp4
 70
     1
102
RTVSPropertyOp5
 70
     1
102
RTVSPropertyOp6
 70
     1
102
RTVSPropertyOp7
 70
     1
102
RTVSPropertyOp8
 70
     1
102
RTVSPropertyOp9
 70
     1
102
RTVSPropertyOp10
 70
     1
102
RTVSPropertyOp11
 70
     1
102
RTVSPropertyOp12
 70
     1
102
RTVSPropertyOp13
 70
     1
102
RTVSPropertyOp14
 70
     1
102
RTVSPropertyOp15
 70
     1
102
RTVSPropertyOp16
 70
     1
102
RTVSPropertyOp17
 70
     1
102
RTVSPropertyOp18
 70
     1
102
RTVSPropertyOp19
 70
     1
102
RTVSPropertyOp20
 70
     1
102
RTVSPropertyOp21
 70
     1
102
RTVSPropertyOp22
 70
     1
102
RTVSPropertyOp23
 70
     1
102
RTVSPropertyOp24
 70
     1
102
RTVSPropertyOp25
 70
     1
102
RTVSPropertyOp26
 70
     1
102
RTVSPropertyOp27
 70
     1
  0
XRECORD
  5
E60
102
{ACAD_REACTORS
330
E5F
102
}
330
E5F
100
AcDbXrecord
280
     1
102
RTVSPropertyOp0
 70
     0
102
RTVSPropertyOp1
 70
     0
102
RTVSPropertyOp2
 70
     0
102
RTVSPropertyOp3
 70
     0
102
RTVSPropertyOp4
 70
     0
102
RTVSPropertyOp5
 70
     0
102
RTVSPropertyOp6
 70
     0
102
RTVSPropertyOp7
 70
     0
102
RTVSPropertyOp8
 70
     0
102
RTVSPropertyOp9
 70
     0
102
RTVSPropertyOp10
 70
     0
102
RTVSPropertyOp11
 70
     0
102
RTVSPropertyOp12
 70
     0
102
RTVSPropertyOp13
 70
     0
102
RTVSPropertyOp14
 70
     2
102
RTVSPropertyOp15
 70
     0
102
RTVSPropertyOp16
 70
     0
102
RTVSPropertyOp17
 70
     0
102
RTVSPropertyOp18
 70
     0
102
RTVSPropertyOp19
 70
     0
102
RTVSPropertyOp20
 70
     0
102
RTVSPropertyOp21
 70
     0
102
RTVSPropertyOp22
 70
     0
102
RTVSPropertyOp23
 70
     0
102
RTVSPropertyOp24
 70
     0
102
RTVSPropertyOp25
 70
     0
102
RTVSPropertyOp26
 70
     0
102
RTVSPropertyOp27
 70
     0
  0
XRECORD
  5
E50
102
{ACAD_REACTORS
330
E4F
102
}
330
E4F
100
AcDbXrecord
280
     1
102
RTVSPropertyOp0
 70
     1
102
RTVSPropertyOp1
 70
     1
102
RTVSPropertyOp2
 70
     1
102
RTVSPropertyOp3
 70
     1
102
RTVSPropertyOp4
 70
     1
102
RTVSPropertyOp5
 70
     1
102
RTVSPropertyOp6
 70
     1
102
RTVSPropertyOp7
 70
     1
102
RTVSPropertyOp8
 70
     1
102
RTVSPropertyOp9
 70
     1
102
RTVSPropertyOp10
 70
     1
102
RTVSPropertyOp11
 70
     1
102
RTVSPropertyOp12
 70
     1
102
RTVSPropertyOp13
 70
     1
102
RTVSPropertyOp14
 70
     1
102
RTVSPropertyOp15
 70
     1
102
RTVSPropertyOp16
 70
     1
102
RTVSPropertyOp17
 70
     1
102
RTVSPropertyOp18
 70
     1
102
RTVSPropertyOp19
 70
     1
102
RTVSPropertyOp20
 70
     1
102
RTVSPropertyOp21
 70
     1
102
RTVSPropertyOp22
 70
     1
102
RTVSPropertyOp23
 70
     1
102
RTVSPropertyOp24
 70
     1
102
RTVSPropertyOp25
 70
     1
102
RTVSPropertyOp26
 70
     1
102
RTVSPropertyOp27
 70
     1
  0
XRECORD
  5
E56
102
{ACAD_REACTORS
330
E55
102
}
330
E55
100
AcDbXrecord
280
     1
102
RTVSPropertyOp0
 70
     1
102
RTVSPropertyOp1
 70
     1
102
RTVSPropertyOp2
 70
     1
102
RTVSPropertyOp3
 70
     1
102
RTVSPropertyOp4
 70
     1
102
RTVSPropertyOp5
 70
     1
102
RTVSPropertyOp6
 70
     1
102
RTVSPropertyOp7
 70
     1
102
RTVSPropertyOp8
 70
     1
102
RTVSPropertyOp9
 70
     1
102
RTVSPropertyOp10
 70
     1
102
RTVSPropertyOp11
 70
     1
102
RTVSPropertyOp12
 70
     1
102
RTVSPropertyOp13
 70
     1
102
RTVSPropertyOp14
 70
     1
102
RTVSPropertyOp15
 70
     1
102
RTVSPropertyOp16
 70
     1
102
RTVSPropertyOp17
 70
     1
102
RTVSPropertyOp18
 70
     1
102
RTVSPropertyOp19
 70
     1
102
RTVSPropertyOp20
 70
     1
102
RTVSPropertyOp21
 70
     1
102
RTVSPropertyOp22
 70
     1
102
RTVSPropertyOp23
 70
     1
102
RTVSPropertyOp24
 70
     1
102
RTVSPropertyOp25
 70
     1
102
RTVSPropertyOp26
 70
     1
102
RTVSPropertyOp27
 70
     1
  0
ENDSEC
  0
EOF
